#VERSION:0.83;
#TITLE:Two Trucks;
#SUBTITLE:;
#ARTIST:Lemon Demon;
#TITLETRANSLIT:;
#SUBTITLETRANSLIT:;
#ARTISTTRANSLIT:;
#GENRE:;
#ORIGIN:;
#CREDIT:;
#BANNER:;
#BACKGROUND:;
#PREVIEWVID:;
#JACKET:;
#CDIMAGE:;
#DISCIMAGE:;
#LYRICSPATH:;
#CDTITLE:;
#MUSIC:Two Trucks.ogg;
#OFFSET:1.015000;
#SAMPLESTART:61.879002;
#SAMPLELENGTH:15.000000;
#SELECTABLE:YES;
#BPMS:0.000=114.000;
#STOPS:;
#DELAYS:;
#WARPS:;
#TIMESIGNATURES:0.000=4=4;
#TICKCOUNTS:0.000=4;
#COMBOS:0.000=1;
#SPEEDS:0.000=1.000=0.000=0;
#SCROLLS:0.000=1.000;
#FAKES:;
#LABELS:0.000=Song Start;
#BGCHANGES:;
#KEYSOUNDS:;
#ATTACKS:
;

//---------------dance-single - ----------------
#NOTEDATA:;
#CHARTNAME:;
#STEPSTYPE:dance-single;
#DESCRIPTION:;
#CHARTSTYLE:;
#DIFFICULTY:Easy;
#METER:6;
#RADARVALUES:0.367347,0.358929,0.238095,0.295238,0.033333,270.000000,245.000000,25.000000,31.000000,0.000000,0.000000,0.000000,0.000000,0.000000,0.367347,0.358929,0.238095,0.295238,0.033333,270.000000,245.000000,25.000000,31.000000,0.000000,0.000000,0.000000,0.000000,0.000000;
#CREDIT:bimbojail;
#NOTES:
// measure 0
0000
0000
0000
0000
,  // measure 1
0000
0000
0000
0000
,  // measure 2
0000
0000
0000
0000
1001
0000
0000
0001
,  // measure 3
0010
0100
1000
0000
1001
0000
0000
0001
,  // measure 4
0100
0000
0000
0000
0110
0000
0000
0010
0000
0000
1000
0000
0100
0000
0200
0000
,  // measure 5
0310
0000
0011
0000
0001
1000
1001
0000
,  // measure 6
1000
0000
0000
0000
0010
0000
0000
0100
0000
0000
0002
0000
0023
0000
0000
0000
,  // measure 7
0031
0000
0000
0000
0010
0000
0000
0100
0000
0000
2000
0000
3200
0000
1300
0000
,  // measure 8
0010
1000
0000
0001
0010
0001
0000
1000
,  // measure 9
0010
0000
0000
0100
0000
0000
0010
0000
0110
0000
0100
0000
0200
0000
0000
0000
,  // measure 10
0301
0000
0101
0000
0100
0010
0100
0000
,  // measure 11
0010
0000
1010
0000
1000
0100
1000
0000
,  // measure 12
0001
0000
0011
0000
0010
0100
1000
0000
,  // measure 13
1000
0000
1001
0000
0001
1000
0100
0000
,  // measure 14
0020
0000
0130
0000
1000
0100
1000
0001
,  // measure 15
2000
0000
3001
0000
0001
0010
0001
1000
,  // measure 16
0002
0000
1003
0000
1000
0010
1000
0001
,  // measure 17
2000
0000
3001
0000
0001
0100
0010
1000
,  // measure 18
0001
0010
0100
1000
0000
0001
0100
0010
,  // measure 19
1000
0000
0001
1000
0000
0001
0010
0001
,  // measure 20
1000
0000
1010
0000
0010
0200
0000
0310
,  // measure 21
0100
0000
0101
0000
0001
0020
0000
0000
,  // measure 22
0130
0000
2200
0000
3300
0000
1000
0001
,  // measure 23
0000
0100
0010
0100
0001
0100
0001
0000
,  // measure 24
1001
0000
2020
0000
3030
0000
1000
0002
,  // measure 25
0000
1003
0001
1000
0001
0000
0201
0000
,  // measure 26
0301
0000
0000
0000
0010
0000
0000
0100
0000
0000
0010
0000
0000
0000
0100
0000
,  // measure 27
1000
0000
0000
0000
0010
0000
0000
0100
0000
0000
0001
0000
0000
0000
1000
0000
,  // measure 28
0001
0000
0011
0000
0110
0000
0100
1000
,  // measure 29
0001
0000
0000
0100
0000
0000
0010
0000
0000
0000
1000
0000
0001
0000
1000
0000
,  // measure 30
0001
0000
0011
0000
0010
0100
1000
0000
,  // measure 31
1000
0000
1010
0000
0010
0100
0001
0000
,  // measure 32
0001
0000
1001
0000
1000
0100
1000
0000
,  // measure 33
0010
0000
0110
0000
0100
0001
1000
0000
,  // measure 34
0002
0000
1003
0000
1000
0010
1000
0000
,  // measure 35
0002
0000
0013
0000
0010
0100
1000
0000
,  // measure 36
0020
0000
0130
0000
0100
0010
0100
0000
,  // measure 37
0002
0000
1003
0000
0010
1000
0001
0000
,  // measure 38
1000
0000
2020
0000
3030
0000
0010
0100
,  // measure 39
0000
0001
0010
0100
0010
0100
1000
0000
,  // measure 40
0001
0000
2002
0000
3003
0000
1000
0020
,  // measure 41
0000
1030
0001
0000
1000
0010
0210
0000
,  // measure 42
0310
0000
1000
0100
0000
0010
0001
0000
,  // measure 43
1000
0010
1000
0000
0001
0010
0001
0000
,  // measure 44
1000
0001
2000
0000
3000
0001
0010
0100
,  // measure 45
0000
1000
0002
0000
0003
1000
0100
1000
,  // measure 46
0001
0010
1000
0100
,  // measure 47
0001
0100
1000
0010
,  // measure 48
0001
0010
1000
0100
,  // measure 49
0001
0010
1000
0100
,  // measure 50
0002
0003
0000
0000
;

//---------------dance-single - ----------------
#NOTEDATA:;
#CHARTNAME:;
#STEPSTYPE:dance-single;
#DESCRIPTION:;
#CHARTSTYLE:;
#DIFFICULTY:Medium;
#METER:9;
#RADARVALUES:0.451701,0.478571,0.190476,0.342857,0.095238,332.000000,312.000000,20.000000,36.000000,0.000000,0.000000,0.000000,0.000000,0.000000,0.451701,0.478571,0.190476,0.342857,0.095238,332.000000,312.000000,20.000000,36.000000,0.000000,0.000000,0.000000,0.000000,0.000000;
#CREDIT:bimbojail;
#NOTES:
0000
0000
0000
0000
,
0000
0000
0000
0000
,
0000
0000
0000
0000
0000
0000
0000
0000
1000
0001
0000
0000
0000
0000
0010
0000
,
1000
0000
0010
0000
0100
0000
1000
0000
0001
1000
0000
0000
0000
0000
0010
0000
,
0100
0000
0010
0000
0110
0000
0000
1010
0000
0000
1000
0000
1001
0000
0002
0000
,
1003
0010
1010
0000
1000
0001
1001
0001
,
0010
0000
0000
0000
0100
0010
0000
0100
0000
0000
2000
0000
3020
0000
0130
0000
,
0010
0000
0000
0000
1000
0010
0000
0100
0000
0000
0002
0000
2003
0000
3001
0000
,
0010
1000
0000
0001
0100
1000
0000
0001
,
0100
0000
0000
0010
0000
0000
1000
0000
0100
0000
0010
0000
0110
0000
0010
0000
,
0001
0100
0002
0000
1003
0000
0001
1000
,
0100
0001
0200
0000
1300
0000
0010
1000
,
2000
0000
3100
0010
0100
1000
0001
0100
,
0020
0000
1030
0000
0001
1000
0100
1000
,
0020
0000
0130
0001
1000
0001
0010
1000
,
0020
0000
0130
1000
0001
0100
1000
0100
,
0020
0000
0130
0001
1000
0100
0001
0100
,
0020
0000
0000
0000
0230
0000
0000
0000
1300
0000
0001
0000
1000
0010
0000
0000
,
1000
0100
0001
0100
1000
0001
0001
1000
,
1000
0010
0001
0010
1000
0001
0001
1000
,
1000
0000
0101
0100
0000
0001
0001
1000
,
1000
0000
0011
0010
0000
0001
0001
0000
,
1000
0000
2020
0000
3030
0010
0100
1000
,
0000
1000
0100
0010
1000
0100
0001
1000
,
0001
0100
2000
0000
3000
0010
0001
0020
,
0000
1030
0100
0001
0100
1000
0002
1000
,
1003
0000
0000
0000
0010
0100
0000
0020
0000
0000
0130
0000
0001
0000
0010
0000
,
0100
0000
0000
0000
0010
0100
0000
2000
0000
0000
3001
0000
0100
0000
0001
0000
,
0010
1000
0000
0001
0100
1000
0000
0001
,
0010
1000
0010
0001
0020
0000
0130
1000
,
0001
1000
0000
0000
0101
0000
0100
0000
1000
0000
0100
0000
0001
0000
1000
0000
,
0001
0000
1100
0100
0001
0100
1000
0001
,
1000
0010
0001
0010
1000
0010
0100
0001
,
0011
0000
0000
0110
0000
0000
1100
0000
0000
0000
1000
0000
0001
0010
0001
0000
,
2000
0000
3010
0100
1000
0100
0010
1000
,
0020
0000
1030
0100
0001
0100
0010
0001
,
0020
0000
0031
0100
1000
0100
0001
0010
,
0200
0000
1300
0010
0001
0010
1000
0001
,
1000
0000
2020
0000
3030
1000
0100
0001
,
0100
0000
0010
0000
0100
1000
0010
1000
,
0001
0000
0202
0000
0303
0001
0100
2000
,
0000
3100
0010
1000
0001
1000
2001
0000
,
3001
0010
0000
0000
0100
0000
2000
0000
0000
0000
3001
0000
0100
0010
0000
0000
,
1000
0010
0001
0010
0100
1000
0100
0010
,
1000
0000
0001
0000
2000
0001
0000
0000
0000
0000
3001
0000
0010
0000
0001
0000
,
0000
0000
1000
0000
0002
1000
0000
0000
0000
0000
1003
0000
0001
0000
0100
0000
,
0001
0000
0101
0000
0000
0100
1000
0100
,
0010
0000
1010
0000
0000
1000
0100
0001
,
0100
0000
1100
0000
0000
1000
0010
0001
,
0000
1000
0100
0001
0000
1000
0100
1000
,
0002
0003
0000
0000
;

//---------------dance-single - ----------------
#NOTEDATA:;
#CHARTNAME:;
#STEPSTYPE:dance-single;
#DESCRIPTION:;
#CHARTSTYLE:;
#DIFFICULTY:Hard;
#METER:13;
#RADARVALUES:0.628571,0.693929,0.314286,0.361905,0.452381,462.000000,429.000000,33.000000,38.000000,0.000000,0.000000,0.000000,0.000000,0.000000,0.628571,0.693929,0.314286,0.361905,0.452381,462.000000,429.000000,33.000000,38.000000,0.000000,0.000000,0.000000,0.000000,0.000000;
#CREDIT:bimbojail;
#NOTES:
0000
0000
0000
0000
,
0000
0000
0000
0000
,
0000
0000
0000
0000
0000
0000
0000
0000
1000
0010
0000
0000
0000
0000
0100
0001
,
0100
0000
0001
0000
0010
0000
0100
0000
1000
0001
0000
0000
0000
0000
1000
0001
,
1000
0000
0010
0100
0010
0100
0000
0001
0000
0000
1000
0000
1001
0000
0002
0000
,
1003
0000
0100
0010
0100
0010
0000
0001
1000
0000
1001
0000
1001
0000
1000
0000
,
0010
0000
0100
0000
0010
0100
0000
2000
0000
0000
3200
0000
0302
0000
1003
0000
,
0100
0000
0010
0000
0100
0010
0000
2000
0000
0000
3020
0000
0032
0000
1003
0000
,
0010
0001
0002
1003
0100
0001
2000
3001
,
0010
0000
0100
0010
0000
0100
0010
0000
0100
0000
2000
0000
3002
0000
1003
0000
,
0001
0100
0000
0000
1010
0000
1000
0010
1000
0000
0010
0000
0110
0000
0010
0000
,
1000
0100
0000
0000
0011
0000
0001
0010
0100
0000
0010
0000
0110
0000
0100
0000
,
1000
0010
0000
0000
0101
0000
0100
0010
0100
0000
0010
0000
0110
0000
0100
0000
,
0001
1000
0000
0000
1001
0000
0001
0100
0010
0000
1000
0000
0100
0000
1000
0000
,
0020
0000
0000
0000
0130
0000
0100
0001
0010
0000
0010
0000
0001
0000
0100
0000
,
0020
0000
0000
0000
0130
0000
0100
0001
0010
0000
0100
0000
1000
0000
0010
0000
,
0200
0000
0000
0000
0301
0000
0001
0010
0100
0000
1000
0000
0010
0000
0100
0000
,
0002
0000
0000
0000
1003
0000
0100
0000
1000
0000
1001
0000
0001
0010
0001
0000
,
1000
0000
0010
0000
0100
1000
0100
0000
0010
0000
0001
0010
0100
0010
1000
0001
,
1000
0000
0100
0000
0010
0000
0110
0000
0100
0000
0010
1000
0010
0100
1000
0000
,
0001
0000
0100
0000
0110
0000
0100
0000
0010
0000
0100
1000
0100
0010
0100
0000
,
0001
0000
0010
1000
0010
0100
1000
0000
0001
0000
0100
1000
0100
0001
1000
0000
,
0100
0000
0000
0000
2200
0000
0000
0000
3300
0000
1000
0100
0001
0100
1000
0000
,
0000
0000
0001
0100
1000
0100
0001
0000
1000
0100
0001
0100
0010
0000
0100
1000
,
0001
0000
0100
0000
0220
0000
0000
0000
0330
0000
0010
1000
0100
0000
2200
0000
,
3300
0000
1000
0000
0100
0000
0001
0000
0100
1000
0010
0000
2020
0000
0000
0000
,
3030
0000
1000
0001
0100
0020
0000
1030
0000
0000
0001
0000
1000
0000
0200
0000
,
1300
0000
0100
0010
0100
2000
0000
3010
0000
0000
1000
0000
0001
0000
0020
0000
,
0031
0000
0010
0100
1000
0000
0002
0000
1003
0000
0010
0100
0001
0000
2000
0000
,
3001
0000
0010
0000
0100
2000
0000
3100
0000
0000
1100
0000
1000
0100
0010
0001
,
0100
0010
0000
0000
0110
0000
0010
1000
0100
0000
0001
0000
0100
0000
1000
0000
,
0001
0100
0000
0000
0110
0000
0100
0001
0010
0000
1000
0000
0010
0000
0001
0000
,
1000
0100
0000
0000
0110
0000
0100
1000
0010
0000
0001
0000
0010
0000
1000
0000
,
0001
1000
0000
0000
1010
0000
0010
0100
0010
0000
0100
0000
1000
0100
0010
0000
,
2000
0000
3001
0010
1000
0010
0100
1000
,
0002
0000
1003
0010
0001
0010
0100
0010
,
2000
0000
3100
0010
1000
0010
0100
1000
,
0020
0000
0130
0001
0010
1000
0010
0100
,
1000
0000
0100
0000
1100
0000
0100
0000
0010
0000
0001
0010
0100
0010
0001
0000
,
0100
0000
0010
1000
0010
0100
0010
0000
0100
0001
1000
0001
0010
0000
0100
1000
,
0100
0000
0010
0000
0110
0000
0100
0000
1000
0000
0001
0100
0001
0000
0100
0000
,
0010
0000
1000
0000
0010
0000
0001
0000
0010
0100
0010
0000
0210
0000
0000
0000
,
0310
1000
0000
0000
1100
0000
0200
0000
0000
0000
1300
0000
0001
0010
0000
0000
,
0001
0100
0010
1000
0010
0100
0001
0000
0010
0100
0010
0100
1000
0000
0001
0000
,
0100
0010
0100
0010
1000
0010
0100
0000
0010
0000
0110
0000
1010
0000
1001
0000
,
0001
0010
0100
0010
0100
1000
0001
0000
0010
0000
0011
0000
0001
0100
0010
0100
,
0010
1000
1010
1000
0001
1000
0100
0001
,
0100
1000
1100
0100
1000
0001
0100
1000
,
0100
0001
0011
0010
0100
1000
0010
0001
,
0001
1000
0100
0001
0001
1000
0100
0001
,
0200
2000
0000
0000
3300
0000
0000
0000
0000
0000
0000
0000
0000
0000
0000
0000
;
