#VERSION:0.83;
#TITLE:タベテモ タベテモ;
#SUBTITLE:;
#ARTIST:☆Syoji☆ feat. HONOKA♡Erica;
#TITLETRANSLIT:Tabetemo Tabetemo;
#SUBTITLETRANSLIT:;
#ARTISTTRANSLIT:;
#GENRE:;
#ORIGIN:;
#CREDIT:;
#BANNER:;
#BACKGROUND:;
#PREVIEWVID:;
#JACKET:;
#CDIMAGE:;
#DISCIMAGE:;
#LYRICSPATH:;
#CDTITLE:;
#MUSIC:Tabetemo Tabetemo.ogg;
#OFFSET:-0.420000;
#SAMPLESTART:46.376999;
#SAMPLELENGTH:10.213000;
#SELECTABLE:YES;
#BPMS:0.000=188.000,
356.000=94.000;
#STOPS:;
#DELAYS:;
#WARPS:;
#TIMESIGNATURES:0.000=4=4;
#TICKCOUNTS:0.000=4;
#COMBOS:0.000=1;
#SPEEDS:0.000=1.000=0.000=0;
#SCROLLS:0.000=1.000;
#FAKES:;
#LABELS:0.000=Song Start;
#BGCHANGES:;
#KEYSOUNDS:;
#ATTACKS:
;

//---------------dance-single - ----------------
#NOTEDATA:;
#CHARTNAME:;
#STEPSTYPE:dance-single;
#DESCRIPTION:;
#CHARTSTYLE:;
#DIFFICULTY:Easy;
#METER:9;
#RADARVALUES:0.383443,0.442514,0.217630,0.209569,0.104785,333.000000,306.000000,27.000000,26.000000,0.000000,0.000000,0.000000,0.000000,0.000000,0.383443,0.442514,0.217630,0.209569,0.104785,333.000000,306.000000,27.000000,26.000000,0.000000,0.000000,0.000000,0.000000,0.000000;
#CREDIT:princefatso;
#NOTES:
0000
0000
0000
0000
,
0000
0000
0000
0000
,
0000
0000
0000
0000
,
0000
0000
0000
0000
,
0002
0000
1000
0013
,
0200
0000
0010
1300
,
0001
0100
1000
0010
,
0002
0003
1000
0010
,
0100
0000
0000
0000
0000
0100
0000
0000
0000
0000
0000
0000
,
0001
0000
0000
0000
0000
0001
0000
0000
0000
0000
0000
0000
,
1000
0000
0100
0000
,
1001
0000
0010
0100
,
0001
1001
0001
1001
,
1000
0010
0001
0010
,
0100
0001
0010
0200
,
0000
1300
0001
1000
,
0010
0100
0001
0001
,
0010
0100
1000
1000
,
0001
0100
1000
0100
,
0001
1000
0001
0001
,
0010
0110
0010
0110
,
0100
1000
0010
1000
,
0100
0000
0000
0001
0000
0000
0100
0000
0000
0010
0000
0002
,
0000
1000
1003
0010
,
0100
0000
0010
1001
,
0100
0000
0010
1001
,
2000
3000
2000
3000
,
0001
0010
2000
3000
,
0010
0110
2000
0000
,
3010
0000
0000
0000
0000
0100
0000
0000
0000
0001
0000
0000
,
1000
0010
0001
0100
,
1000
1001
0010
0100
,
2000
0000
3010
0000
,
0002
0000
0013
0000
,
1000
0010
0100
0001
,
0010
1000
0001
0100
,
1000
1000
0001
0001
,
1000
0010
0100
1001
,
0010
0000
0000
0000
0000
0200
0000
0000
0000
1300
0000
0000
,
0010
0000
0000
0000
0000
0200
0000
0000
0000
0301
0000
0000
,
1000
1000
0001
0010
,
1000
0010
0001
1000
,
0010
0100
0001
0010
,
0100
1100
0001
0101
,
0010
0100
0010
0100
,
0001
0010
0100
1001
,
0010
0000
0000
0000
0000
0200
0000
0000
0000
0301
0000
0000
,
0010
0000
0000
0000
0000
0200
0000
0000
0000
1300
0000
0000
,
0001
0001
1000
0010
,
0001
0010
1000
0001
,
0010
0100
1000
0010
,
0100
0101
1000
0001
,
0020
0000
0230
0000
,
2300
0000
3010
0000
,
0110
0000
1001
0000
,
0110
0110
1001
0000
,
0001
0100
1000
0100
,
0010
1000
0100
0010
,
0001
0000
1000
0000
0000
0002
0000
0000
0000
0003
0000
0000
,
1000
0000
0001
0000
0000
2000
0000
0000
0000
3000
0000
0000
,
0001
0010
0100
1000
,
0010
0100
0001
0000
,
1000
0010
0001
0010
,
0020
0130
0001
0000
,
0010
0010
0100
0100
,
1000
0001
1000
1010
,
0001
0000
0000
0000
0000
0200
0000
0000
0000
0310
0000
0000
,
1000
0000
0000
0000
0000
0200
0000
0000
0000
0310
0000
0000
,
0001
0001
1000
0010
,
0100
1000
0100
0001
,
0010
0100
1000
0001
,
0100
0110
0010
1001
,
0010
1000
0010
0001
,
1000
0010
0100
0001
,
1000
0000
0000
0000
0000
0200
0000
0000
0000
0310
0000
0000
,
0001
0000
0000
0000
0000
0200
0000
0000
0000
0310
0000
0000
,
1000
1000
0001
0100
,
1000
0100
0001
1000
,
0100
0010
0001
0100
,
0010
1001
1000
0001
,
0010
0000
0100
0000
0010
0000
0100
0000
0000
1000
0000
0000
,
0001
0000
0100
0000
0001
0000
0100
0000
0000
0010
0000
0000
,
1000
0000
0001
0000
0001
0000
1000
0000
0001
0000
0001
0000
,
0010
0100
1001
0000
,
1000
0100
1100
0000
,
0001
0100
0101
0000
,
1000
0010
0100
0010
,
1000
0010
0001
0010
,
1000
0001
1001
0010
,
0100
0000
0000
0000
0000
0000
1000
0000
0000
0000
1000
0000
,
0001
0000
0000
0000
0100
0000
0020
0000
0000
0000
0000
0000
,
0000
0000
0030
0000
;

//---------------dance-single - ----------------
#NOTEDATA:;
#CHARTNAME:;
#STEPSTYPE:dance-single;
#DESCRIPTION:;
#CHARTSTYLE:;
#DIFFICULTY:Medium;
#METER:13;
#RADARVALUES:0.565376,0.626894,0.411078,0.572285,0.576315,491.000000,440.000000,51.000000,71.000000,1.000000,0.000000,0.000000,0.000000,0.000000,0.565376,0.626894,0.411078,0.572285,0.576315,491.000000,440.000000,51.000000,71.000000,1.000000,0.000000,0.000000,0.000000,0.000000;
#CREDIT:princefatso;
#NOTES:
0000
0000
0000
0000
,
0000
0000
0000
0000
,
0000
0000
0000
0000
,
0000
0000
0000
0000
,
1000
0000
0000
0100
0000
0000
0020
0000
0000
0031
0000
0100
,
0010
0000
0000
0100
0000
0000
0002
0000
0000
1003
0000
0100
,
0010
0001
0100
0010
,
2002
0000
0000
3003
0000
0001
2000
0000
0000
3200
0000
0000
,
0310
0000
0001
0010
0000
0001
0000
0000
0000
0000
0000
0001
,
1000
0000
0010
1000
0000
0010
0000
0000
0000
0000
0000
0000
,
0100
0000
0100
0001
0000
0000
1000
0000
0000
0001
0000
0010
,
0200
0000
0000
0300
0000
0000
0001
0000
0000
0100
0000
1000
,
0001
0101
1000
1100
,
0001
0000
0001
1000
0000
0010
0100
0000
0001
1000
0000
0100
,
0010
0000
0000
0011
0000
0000
1000
0001
1000
0002
0000
0000
,
0003
0000
0000
0100
0000
0100
0010
0000
1000
0001
0000
0010
,
0100
0000
0100
0000
0000
0200
0000
0000
0000
1300
0000
0000
,
0001
0000
0100
0001
0000
0200
0000
0000
0000
0310
0000
0000
,
1000
0000
1000
0001
0000
0000
0010
0000
0000
0100
0000
1000
,
0010
0000
0000
0110
0000
0000
0100
0000
0010
0100
0000
0000
,
0001
0101
1000
1100
,
0100
0000
0100
0010
0000
0000
1000
0000
0000
0010
0000
0000
,
0001
0000
0000
0100
0000
0000
1000
0000
0100
0001
0000
2000
,
0000
0100
3010
0000
,
0100
0100
0100
1001
,
0010
0010
0010
1001
,
0002
0000
0000
0000
0003
0100
0002
0000
0000
0000
0003
0100
,
0010
0000
0010
1000
0000
0100
0010
0000
0000
1001
0000
0000
,
1000
0000
1000
0100
0000
0000
0010
0000
0010
0001
0000
0000
,
1000
0000
1000
0010
0000
0000
0100
0000
0100
0001
0000
0000
,
1000
0001
1000
0001
0000
0000
0010
0100
0010
0100
0000
0000
,
1000
0000
0000
1100
0000
0000
0001
0000
1000
0010
0000
0100
,
0002
0000
1000
0000
0000
0000
0100
0000
0000
0103
0000
0000
,
2000
0000
0001
0000
0000
0000
0100
0000
0000
3100
0000
0000
,
0010
0000
0000
0001
0000
0000
0100
0000
0100
1000
0000
0000
,
0100
0000
0010
1000
0000
0100
0010
0000
0001
1000
0000
0000
,
0010
0000
0010
0100
0000
0000
0010
0000
0010
0100
0000
0000
,
0001
0000
1000
0100
0000
0010
0001
0000
0000
0100
0000
0000
,
0220
0000
0000
0330
0000
2002
0000
3003
0000
1100
0000
0000
,
0220
0000
0000
0330
0000
2002
0000
3003
0000
0101
0000
0000
,
1000
0000
1000
0001
0000
0000
1000
0000
1000
0001
0000
0000
,
0010
0100
0010
0100
0000
1000
0000
0000
0000
1001
0000
1000
,
0010
0000
0000
0001
0000
0000
0010
0000
0010
0100
0000
0100
,
0001
0101
1000
1100
,
0001
0000
0010
0001
0000
0000
1000
0000
0010
0100
0000
0000
,
0001
0000
0001
1000
0000
0100
0010
0000
0000
0001
0000
0000
,
2002
0000
0000
3003
0000
0202
0000
0303
0000
0110
0000
0000
,
2002
0000
0000
3003
0000
2200
0000
3300
0000
0110
0000
0000
,
0001
0000
1000
0100
0000
0000
1000
0000
0001
0100
0000
0000
,
0010
0100
0010
0100
0000
0001
0000
0000
0000
0001
0000
1000
,
0100
0010
0001
0100
,
1000
0101
0001
1000
,
0200
0320
2030
3002
,
0203
2300
3002
0003
,
1000
1010
1000
1010
,
0001
0000
1000
0001
0000
1000
0100
0000
0000
0010
0100
1000
,
0001
0100
1000
0100
,
0010
0000
0000
1000
0000
0100
0020
0000
0000
0031
0000
0000
,
1000
0000
1010
0000
0000
0202
0000
0000
0000
0303
0000
0000
,
0001
0000
0011
0000
0000
2200
0000
0000
0000
3300
0000
0000
,
1000
0000
0100
0010
0000
0010
0001
0000
0100
0010
0000
0010
,
1000
0000
0001
0010
0000
0200
0000
0000
0000
1300
0000
0000
,
0001
0100
0001
0100
0000
0000
100M
0100
1000
0100
0000
0000
,
2000
3020
0032
1003
,
0001
0000
0001
0010
0000
0000
0100
0000
0100
1000
0000
0000
,
0001
0000
0100
0001
0000
1000
0100
0000
0000
0010
0000
0000
,
0022
0000
0000
0033
0000
0202
0000
0303
0000
1001
0000
0000
,
2020
0000
0000
3030
0000
2200
0000
3300
0000
1001
0000
0000
,
1000
0000
0010
0100
0000
0000
0001
0000
0100
0010
0000
0000
,
1000
0000
0001
0010
0000
0100
0000
0000
0000
1001
0000
0001
,
0100
0000
0000
1000
0000
0000
0100
0000
0100
0010
0000
0010
,
1000
1001
0010
0110
,
2000
0000
0000
3002
0000
0000
2003
0000
0000
3001
0000
0001
,
0010
0000
0100
1000
0000
0001
1000
0000
0000
0010
0000
0000
,
2020
0000
0000
3030
0000
2200
0000
3300
0000
1001
0000
0000
,
0022
0000
0000
0033
0000
0202
0000
0303
0000
1001
0000
0000
,
0010
0000
0100
0001
0000
0000
0010
0000
0100
1000
0000
0000
,
0001
1000
0001
1000
0000
0020
0000
0000
0000
0130
0000
0000
,
0001
0010
1000
0010
,
0100
1001
0001
0100
,
0010
0000
0010
0000
0010
0000
1000
0000
0000
0001
0000
0000
,
0010
0000
0010
0000
0010
0000
0001
0000
0000
1000
0000
0000
,
0010
0101
0010
0101
,
0001
0000
1000
0001
0000
1000
0100
0000
0000
0010
0000
0000
,
0001
0000
0000
1000
0010
1000
0020
0000
0000
0030
0000
0000
,
1000
0000
0000
0001
0010
0001
0020
0000
0000
0030
0000
0000
,
0100
0000
0000
1000
0001
1000
0010
0000
0000
0100
0001
1000
,
0001
0000
0000
0010
0100
1000
0001
0000
0000
1000
0010
0100
,
0001
0000
0000
1000
0100
1000
0200
0000
0000
0310
0000
0000
,
0001
0000
0001
1000
0010
0100
0001
0000
0000
0000
0001
0000
,
0010
0000
0000
0000
1000
0000
0200
0000
0000
0000
0000
0000
,
0000
0000
0300
0000
;

//---------------dance-single - ----------------
#NOTEDATA:;
#CHARTNAME:;
#STEPSTYPE:dance-single;
#DESCRIPTION:;
#CHARTSTYLE:;
#DIFFICULTY:Hard;
#METER:15;
#RADARVALUES:0.720826,0.848151,0.298233,0.322414,1.096208,626.000000,589.000000,37.000000,40.000000,10.000000,0.000000,0.000000,0.000000,0.000000,0.720826,0.848151,0.298233,0.322414,1.096208,626.000000,589.000000,37.000000,40.000000,10.000000,0.000000,0.000000,0.000000,0.000000;
#CREDIT:princefatso;
#NOTES:
// measure 0
0000
0000
0000
0000
,  // measure 1
0000
0000
0000
0000
,  // measure 2
0000
0000
0000
0000
,  // measure 3
0000
0000
0000
0000
,  // measure 4
1000
0000
1000
0010
0000
0000
0010
0000
0010
0100
0000
0000
,  // measure 5
0100
0000
0100
0001
0000
0000
0001
0000
0001
1000
0000
0000
,  // measure 6
0001
0010
1000
0010
,  // measure 7
0100
0000
0100
0000
0000
0100
2000
0000
0000
3002
0000
0000
,  // measure 8
1003
0000
0010
1000
0000
0010
0000
0000
0000
0000
0000
0010
,  // measure 9
0100
0000
0001
1000
0000
0001
0000
0000
0000
0000
0000
0000
,  // measure 10
0010
0000
0100
1000
0000
0000
0001
0000
0000
1000
0000
0010
,  // measure 11
0100
0000
0100
0001
0000
0001
2000
0000
0000
3100
0000
0010
,  // measure 12
0001
0000
0001
0100
0000
0000
1M00
0000
1000
0100
0000
0000
,  // measure 13
0M01
0000
0001
1000
0100
0010
0001
0000
1000
0010
0000
0100
,  // measure 14
0001
0000
0000
1001
0000
0000
1000
0100
1000
0002
0000
0000
,  // measure 15
0013
0000
0010
0100
0010
0001
1000
0000
0010
0100
0000
0001
,  // measure 16
1000
0000
0000
1100
0000
0100
0010
0000
0010
0001
0000
0000
,  // measure 17
1000
0000
0010
1000
0000
1000
0001
0000
0001
0010
0000
0000
,  // measure 18
0001
0000
0001
0010
0100
1000
0001
0000
0000
1000
0000
0010
,  // measure 19
0100
0000
0100
0001
0000
1000
0100
0000
0000
1001
0000
0000
,  // measure 20
1000
0000
1000
0010
0000
0000
00M1
0000
0001
0010
0000
0000
,  // measure 21
10M0
0000
1000
0010
0000
0000
0001
0000
0000
0010
0000
0000
,  // measure 22
0100
0000
0100
0001
1000
0001
0010
0100
1000
0001
0000
0201
,  // measure 23
0000
0000
0310
1000
0000
1000
0001
0000
0001
0010
0100
1000
,  // measure 24
0002
1000
1003
0101
,  // measure 25
2000
0001
3001
1100
,  // measure 26
0200
0000
0000
0000
0300
0010
0200
0000
0000
0000
0300
0010
,  // measure 27
0001
0000
0001
0100
0000
0100
0010
0000
0000
0101
0000
0000
,  // measure 28
1000
0000
1000
0001
0000
0000
1000
0000
1000
0100
0000
0000
,  // measure 29
1000
0000
1000
0001
0000
0000
0001
0000
0001
0100
0000
0000
,  // measure 30
0010
0100
0010
1000
0001
1000
0100
0010
0001
1000
0010
0100
,  // measure 31
0001
0000
0000
1010
0000
0000
1000
0000
0100
0001
0000
0100
,  // measure 32
0010
0000
0012
0000
0000
1003
0010
0000
0000
2010
0000
0000
,  // measure 33
3001
0000
0100
0010
0000
0010
1000
0000
0000
0001
0010
0100
,  // measure 34
1000
0000
0100
0010
0000
0001
1000
0010
1000
0001
0100
0001
,  // measure 35
1000
0100
0010
1000
0010
0001
1000
0010
0100
0002
0000
0000
,  // measure 36
1003
0000
0100
0010
0000
0100
1000
0000
0100
0010
0000
0100
,  // measure 37
1000
0000
1000
0010
0000
0010
0001
0000
0000
0110
0000
0000
,  // measure 38
0010
0000
1000
0001
0000
0020
0000
0000
0030
0110
0000
0000
,  // measure 39
0100
0000
1000
0001
0000
0200
0000
0000
0300
0101
0000
0000
,  // measure 40
0001
0000
1000
0010
0000
1000
0001
0000
1000
0100
0000
0100
,  // measure 41
0010
0001
0010
0001
0000
0200
0000
0000
0300
0101
0000
0001
,  // measure 42
1000
0010
1000
0001
0000
0001
1000
0000
0100
0010
0000
0001
,  // measure 43
1000
0010
00M1
0100
,  // measure 44
1M00
0000
0010
0100
0000
0001
0010
0000
0100
1000
0000
0001
,  // measure 45
1000
0000
1000
0100
0000
0100
0001
0000
0000
0110
0000
0000
,  // measure 46
0100
0000
1000
0001
0000
0200
0000
0000
0300
0110
0000
0000
,  // measure 47
0010
0000
1000
0001
0000
0020
0000
0000
0030
0011
0000
0000
,  // measure 48
0001
0000
1000
0010
0000
1000
0001
0000
0010
0100
0000
1000
,  // measure 49
0001
1000
0001
0100
0000
0110
0000
0000
0000
0010
1000
0001
,  // measure 50
1000
0100
0010
0001
1000
0001
0100
0000
0000
0010
0000
0000
,  // measure 51
1000
0000
1000
0001
0000
0000
010M
0000
0000
0010
0000
0000
,  // measure 52
0002
0203
2300
3002
,  // measure 53
0023
0000
0000
0130
0000
0100
0001
0000
1000
0001
0000
0010
,  // measure 54
0100
1001
0100
1001
,  // measure 55
1000
0010
1000
0001
0100
0001
1000
0000
0000
1000
0100
0010
,  // measure 56
0001
0000
0001
0100
0000
0010
0001
0000
0010
0100
0000
0001
,  // measure 57
1000
0000
0100
0010
0000
0010
0002
0000
0000
0203
0000
0000
,  // measure 58
0310
1000
0010
1000
0000
1200
0000
0000
0300
0010
0000
0001
,  // measure 59
0100
0001
0100
0010
0000
2001
0000
0000
0000
3001
0000
0010
,  // measure 60
0100
1000
0001
1000
0010
0100
0001
1000
0001
0010
0000
0100
,  // measure 61
0001
0000
0100
1000
0000
1002
0000
0000
0103
0010
0000
1000
,  // measure 62
0001
0100
0001
0100
1000
0100
0001
0010
0001
0010
1000
0010
,  // measure 63
0001
1000
0001
1000
0000
1000
0200
0000
0000
0310
0000
0000
,  // measure 64
0001
0000
0010
0100
0000
0010
1000
0000
0010
0100
0000
0010
,  // measure 65
0001
0000
1000
0010
0000
0100
0001
0000
0000
1010
0000
0000
,  // measure 66
1000
0001
1000
0100
0000
0020
0000
0000
0000
0031
0000
0000
,  // measure 67
0001
0000
1000
0000
0001
0000
0100
0000
0000
0000
0020
0000
0000
0000
0000
0030
0000
0000
1010
0000
0000
0000
0000
0000
,  // measure 68
1000
0000
0001
0010
0000
0001
0100
0000
1000
0100
0000
0001
,  // measure 69
0010
0001
1000
0100
0000
2100
0000
0000
0000
3001
0000
0001
,  // measure 70
0100
0000
0010
1000
0000
0100
0010
0000
0100
1000
0000
1000
,  // measure 71
0001
0100
1M00
0010
,  // measure 72
00M1
0000
0001
2000
0000
0000
3100
0000
0100
0010
0000
0001
,  // measure 73
1000
0000
0010
0100
0000
0100
0001
0000
0000
1010
0000
1000
,  // measure 74
0001
1000
0001
0010
0000
0200
0000
0000
0000
1300
0000
1000
,  // measure 75
0001
1000
0001
0100
0000
0020
0000
0000
0030
1010
0000
1000
,  // measure 76
0001
0000
0001
0010
0000
0010
0100
0000
0100
0001
0000
0100
,  // measure 77
1000
0001
0100
0010
0000
2000
0000
0000
0000
3001
0010
0001
,  // measure 78
1000
0000
1000
0001
0100
0010
1000
0000
0001
0010
0001
1000
,  // measure 79
0100
0M01
1001
0110
,  // measure 80
0100
0000
0010
0000
1000
0000
0001
0000
0000
0021
0000
0000
,  // measure 81
0130
0000
1000
0000
1000
0000
0001
0000
0000
0101
0000
0000
,  // measure 82
1000
0000
0100
0000
0100
0000
0001
0000
0100
0000
0100
0000
,  // measure 83
0010
0000
0010
0001
0000
0001
1000
0000
0000
0010
0100
0001
,  // measure 84
2000
0100
0001
3010
,  // measure 85
0100
0000
0000
0001
1000
0001
2000
0000
0000
3100
0000
0010
,  // measure 86
0001
0000
0000
0001
0100
0001
1000
0000
0000
1000
0100
1000
,  // measure 87
0001
0000
0000
0010
0100
1000
0001
0000
0000
0100
0010
1000
,  // measure 88
0001
0010
0001
0010
0100
1000
0001
0100
1000
0100
0001
1000
,  // measure 89
0100
0000
0010
0100
1000
0001
0101
0000
0000
0000
0101
0000
,  // measure 90
1100
0000
0000
0000
1010
0000
0022
0000
0000
0000
0000
0000
,  // measure 91
0000
0000
0033
0000
;
