#VERSION:0.83;
#TITLE:Swarm Of Scarabs;
#SUBTITLE:;
#ARTIST:C-Show;
#TITLETRANSLIT:;
#SUBTITLETRANSLIT:;
#ARTISTTRANSLIT:;
#GENRE:;
#ORIGIN:;
#CREDIT:;
#BANNER:;
#BACKGROUND:;
#PREVIEWVID:;
#JACKET:;
#CDIMAGE:;
#DISCIMAGE:;
#LYRICSPATH:;
#CDTITLE:;
#MUSIC:Swarm Of Scarabs.ogg;
#OFFSET:-0.989091;
#SAMPLESTART:18.443638;
#SAMPLELENGTH:18.000000;
#SELECTABLE:YES;
#DISPLAYBPM:110.000000:220.000000;
#BPMS:0.000=110.000,
64.500=330.000,
65.000=110.000,
120.000=220.000,
184.000=110.000,
192.000=220.000,
208.000=110.000,
216.000=220.000,
233.000=110.000,
240.000=220.000;
#STOPS:64.500=0.182,
232.000=0.273,
240.000=0.205,
240.750=0.205;
#DELAYS:;
#WARPS:;
#TIMESIGNATURES:0.000=4=4;
#TICKCOUNTS:0.000=4;
#COMBOS:0.000=1;
#SPEEDS:0.000=1.000=0.000=0;
#SCROLLS:0.000=1.000;
#FAKES:;
#LABELS:0.000=Song Start;
#BGCHANGES:;
#KEYSOUNDS:;
#ATTACKS:
;

//---------------dance-single - ----------------
#NOTEDATA:;
#CHARTNAME:;
#STEPSTYPE:dance-single;
#DESCRIPTION:;
#CHARTSTYLE:;
#DIFFICULTY:Hard;
#METER:16;
#RADARVALUES:0.733699,0.867356,0.511794,0.538730,0.700349,572.000000,515.000000,57.000000,60.000000,0.000000,0.000000,0.000000,0.000000,0.000000,0.733699,0.867356,0.511794,0.538730,0.700349,572.000000,515.000000,57.000000,60.000000,0.000000,0.000000,0.000000,0.000000,0.000000;
#CREDIT:complainlegend;
#DISPLAYBPM:110.000000:220.000000;
#NOTES:
0000
0000
0000
0000
,
0000
0000
0000
0000
,
0000
0000
0000
0000
,
0000
0000
0000
0000
,
1001
0001
0100
0010
0100
2000
0000
3100
0000
0001
1000
0200
0000
0000
0300
0000
,
1001
1000
0100
0010
0100
0002
0000
0103
0000
1000
0001
0200
0000
0000
0300
0000
,
0101
1000
1100
0001
0011
1000
1010
0001
,
0101
0000
1010
0000
1100
0000
0011
0000
0001
1000
0100
0010
0220
0000
0330
0000
,
1001
1000
0200
0000
1300
0001
0100
0100
1000
0001
0010
0010
2000
0000
3001
0000
,
0010
0100
0100
0100
0010
0001
2000
0000
3010
0001
0010
0100
0001
0010
0100
1000
,
0002
0000
0000
0000
0203
0000
0000
0000
0310
0000
1000
0000
1000
0000
1000
0000
0000
0000
0001
1000
0001
0000
1000
0000
0100
0000
0010
0000
0001
0000
1000
0000
,
0020
0000
0000
0000
0230
0000
0000
0000
0301
0000
1000
0001
1000
0000
0001
0000
0010
0000
0010
0000
0100
0000
0100
0000
1000
0000
0001
0000
0100
0000
0000
0000
,
1001
0001
0200
0000
0301
1000
0100
0100
0001
1000
0010
0100
2000
0000
3001
0000
,
1000
0010
0010
0010
0100
1000
0001
0020
0000
1030
0001
0010
0100
1000
0001
0100
,
0010
0000
0000
0000
1000
0000
1000
0000
0001
0000
0010
0000
0010
0000
0010
0000
0000
0000
0001
1000
0001
0000
1000
0000
0020
0000
0000
0000
0230
0000
0000
0000
,
0301
0000
1000
0000
0100
0000
0000
0000
0010
0000
0001
1000
0001
0000
1000
0000
0010
0000
0010
0000
0100
0000
0100
0000
0001
0000
1000
0000
0100
0000
0000
0000
,
0220
0000
0330
0000
0001
1000
0010
0001
0000
0001
0010
1000
1001
0000
0002
0000
,
1003
0100
0000
0001
0000
1000
0010
0001
0000
0001
0100
1000
0100
0010
1000
0001
,
0020
0030
0000
2200
3300
0000
0202
0303
0000
0000
0011
0000
2010
0000
3001
0000
,
2002
3003
0000
2020
3030
0000
0022
0033
0000
0000
0101
0000
2100
0000
3001
0000
,
0010
0001
0010
0001
1000
0010
0002
0000
0013
1000
0010
1000
0001
0010
2000
0000
,
3010
0000
0000
0000
0000
0000
0001
0000
0000
0100
0000
0000
0000
0000
0000
1000
0000
0000
0100
0000
0000
0000
0000
0000
0001
0000
0000
0000
0100
0000
0000
0000
1000
0000
0000
0000
1001
0000
0000
0000
0001
0000
0000
0000
0010
0000
0000
0000
,
2000
0000
0000
3001
,
0220
0000
0000
0000
0000
0000
0000
0000
0330
0000
0000
1001
0000
0000
1100
0000
,
0102
1000
0000
0013
,
2100
0000
0000
0000
0001
0000
0000
0000
3010
0001
0000
0010
0000
1000
0001
0000
,
1001
1000
0010
0100
0010
0002
0000
0013
0000
1000
0100
0001
1000
0010
0001
1000
,
1001
0001
0010
0100
0010
2000
0000
3010
0000
0001
0100
1000
0001
0010
1000
0001
,
0011
1000
1010
0001
0101
1000
1100
0001
,
1000
1000
0001
0001
0010
0010
0100
0100
2000
0000
3002
0000
0103
0000
0100
0000
,
1001
0001
0010
0100
0010
1000
0010
0001
,
0000
0100
0010
1000
0001
0010
1000
0010
,
0001
1000
0010
0100
0010
0001
0010
1000
,
0000
0001
1000
0010
0001
0010
0200
0000
,
0301
1000
1100
0000
1000
0001
0101
0000
,
0001
1000
1010
0000
1000
0001
0021
0000
,
0130
1000
1001
0000
0001
0100
0110
0000
,
0010
2000
0000
3100
0001
0100
0110
0000
,
1001
0001
0100
1000
0100
0001
0100
2000
,
0000
3001
0010
0100
0010
1000
0001
0000
,
1001
1000
0100
0001
0100
1000
0100
0002
,
0000
1003
0010
0001
0100
0000
0110
0000
,
1001
0001
0010
1000
0010
0001
0010
2000
,
0000
3001
0100
0010
0100
1000
0001
0000
,
0101
0010
1000
0000
1100
0010
0001
0000
,
2001
0000
3001
0100
1000
0100
0001
0000
,
2001
0000
0000
0000
3001
1000
0100
0100
0001
1000
0010
0010
0001
0100
1000
0100
,
0001
1000
1000
1000
0100
0010
0001
1000
0000
0001
0100
0010
0001
0010
0200
0000
,
0301
1000
0100
0010
0100
0001
0100
1000
,
0000
0001
0100
0020
0000
0000
0130
0000
,
1001
0001
0010
1000
0010
0001
0010
2000
,
0000
3001
0100
1000
0010
0000
0110
0000
,
1001
0000
0000
0000
0001
0000
0000
0000
0010
0000
0100
0000
0100
0000
0100
0000
0000
0000
1000
0001
1000
0000
0001
0000
0100
0000
0010
0000
0001
0000
0010
0000
,
0000
0000
0100
0000
0100
0000
0100
0000
0010
0000
1000
0001
1000
0000
0001
0000
0010
0000
0010
0000
0100
0000
0100
0000
0001
0000
0100
0000
0020
0000
0000
0000
,
0031
1000
0010
0100
0010
0001
0010
1000
,
0000
0001
0010
0200
0000
0000
0310
0000
,
1001
1000
0010
0001
0010
1000
0010
0001
,
1000
0100
0001
0010
0200
0000
0310
0000
,
1001
0000
0000
0000
1000
0001
0010
0010
1000
0001
0100
0100
2000
0000
3001
0000
,
0100
0010
0010
0010
0100
1000
0001
0010
0100
0001
1000
0100
0001
0100
1000
0010
,
0100
0000
0000
0100
0000
0000
0100
0000
0000
0000
0000
0000
0000
0000
0000
0000
;

//---------------dance-single - ----------------
#NOTEDATA:;
#CHARTNAME:;
#STEPSTYPE:dance-single;
#DESCRIPTION:;
#CHARTSTYLE:;
#DIFFICULTY:Medium;
#METER:13;
#RADARVALUES:0.504098,0.704726,0.368132,0.278344,0.305280,393.000000,352.000000,41.000000,31.000000,0.000000,0.000000,0.000000,0.000000,0.000000,0.504098,0.704726,0.368132,0.278344,0.305280,393.000000,352.000000,41.000000,31.000000,0.000000,0.000000,0.000000,0.000000,0.000000;
#CREDIT:complainlegend;
#DISPLAYBPM:110.000000:220.000000;
#NOTES:
0000
0000
0000
0000
,
0000
0000
0000
0000
,
0000
0000
0000
0000
,
0000
0000
0000
0000
,
1001
0001
0100
1000
0100
0010
1000
0000
,
1001
1000
0100
0001
0100
0010
0001
0000
,
1001
0110
1001
0110
,
0001
0000
0001
0000
1000
0000
1000
0000
0001
1000
0001
1000
0001
0000
0000
0000
,
1001
0000
0000
0000
1000
0010
0100
0000
0001
0010
0100
0000
2000
0000
0000
0000
,
3001
0000
0001
0000
0100
0010
0100
0000
0001
0000
1000
0000
0200
0000
0000
0000
,
0310
0000
0001
0000
1000
0001
1000
0001
0000
0100
0010
0100
0010
0000
0000
0000
,
1000
0000
0001
0000
0010
0100
0010
0000
0001
1000
0001
1000
0001
0000
0000
0000
,
1001
0000
0000
0000
1000
0100
1000
0100
0000
0010
0001
0010
0001
0000
1000
0000
,
0010
0000
0010
0000
0100
0010
0100
0000
0001
1000
0100
0000
0020
0000
0000
0000
,
0031
0000
1000
0000
0010
0100
0010
0100
0000
0001
1000
0001
1000
0000
1000
0000
,
0002
0000
0000
0000
0013
0100
0010
0000
0001
1000
0001
2000
0000
0000
0000
0000
,
3001
0000
0000
0000
1001
0000
0000
0000
1000
0010
0100
0000
0110
0000
0000
0000
,
0001
1000
0000
0001
1000
0100
0000
0010
0000
0001
1000
0001
2000
0000
0000
0000
,
3001
0000
0000
0100
0000
0000
1000
0000
0000
0000
0100
0000
0110
0000
1001
0000
,
0001
0000
0000
0010
0000
0000
1000
0000
0000
0000
0010
0000
0002
0000
1003
0000
,
1100
0000
0000
0000
0001
0100
0001
0000
0101
0000
0000
0000
1000
0100
1000
0000
,
1100
0000
0000
0000
0000
0000
0000
0000
0000
1001
0000
0000
0000
0000
0000
0000
0000
0000
0101
0000
0000
0000
0000
0000
0001
0000
0000
0000
1000
0000
0000
0000
0100
0000
0000
0000
0010
0000
0000
0000
0001
0000
0000
0000
1000
0000
0000
0000
,
0020
0000
0000
0230
,
0302
0000
0000
0000
0000
0000
0000
0000
0000
0000
0000
1003
0000
0000
1000
0000
,
1002
0010
0000
0013
,
2001
0000
0000
0000
0010
0000
0000
0000
3010
0000
0000
0010
0000
0000
0010
0000
,
1001
0000
1000
0000
0100
0000
0001
0000
0100
0000
0010
0000
0001
1000
0001
0000
,
1001
0000
1000
0000
0010
0000
0001
0000
0010
0000
0100
0000
0001
1000
0001
0000
,
1001
0110
1001
0110
,
0002
2003
3002
2003
3200
0000
0310
0000
,
0001
0000
1000
0000
0010
0100
0000
0010
,
0000
0000
1000
0000
0001
0010
0001
0010
,
0000
0000
0100
0000
1000
0001
0000
1000
,
0000
0010
0100
0000
1000
0000
0100
0000
,
0001
0101
1000
1100
,
0001
0011
0010
1001
,
1000
1010
0001
0101
,
1000
1100
0200
0310
,
0001
0000
1000
0010
0000
0001
0000
0010
,
0000
1000
0001
0000
0010
0000
0010
0000
,
0001
0000
1000
0100
0000
0001
0000
0100
,
0000
1000
0001
0000
1000
0000
1001
0000
,
0001
0000
0100
0010
0000
0001
0000
0010
,
0000
1000
0001
0000
1000
0000
1000
0000
,
2002
3003
0220
0330
,
2001
0000
3100
0010
,
0001
0000
0000
0000
1000
0010
0100
0000
0001
0010
0100
0000
2000
0000
0000
0000
,
3001
0100
0001
0100
0010
1000
0010
0000
1000
0100
0010
0000
0002
0000
0000
0000
,
1003
0000
0010
0000
0100
0010
0000
0100
,
0000
0001
1000
0002
0000
0000
0003
0000
,
1001
0000
1000
0100
0000
0001
0000
0100
,
0000
1000
0001
0000
0200
0000
0300
0000
,
1001
0000
0000
0000
0001
0010
0001
0010
0000
0100
1000
0100
1000
0001
0100
0010
,
1000
0000
0001
0000
1000
0100
1000
0000
0001
0100
0010
1000
0001
0000
1000
0000
,
1001
0000
0001
0000
0010
0100
0000
0010
,
0000
0001
1000
0002
0000
0000
1003
0000
,
1001
0000
0001
0100
0000
1000
0000
0100
,
0000
0001
1000
0000
0200
0000
0310
0000
,
1001
0000
0000
0000
0001
0100
0010
1000
0001
0010
0100
0000
2000
0000
0000
0000
,
3001
0100
0010
0100
0001
1000
0100
0000
0010
0001
1000
0000
0020
0000
0000
0000
,
0130
0000
0000
0100
0000
0000
0100
0000
0000
0000
0000
0000
0000
0000
0000
0000
;

//---------------dance-single - ----------------
#NOTEDATA:;
#CHARTNAME:;
#STEPSTYPE:dance-single;
#DESCRIPTION:;
#CHARTSTYLE:;
#DIFFICULTY:Easy;
#METER:9;
#RADARVALUES:0.315542,0.406573,0.350175,0.206513,0.017958,246.000000,207.000000,39.000000,23.000000,0.000000,0.000000,0.000000,0.000000,0.000000,0.315542,0.406573,0.350175,0.206513,0.017958,246.000000,207.000000,39.000000,23.000000,0.000000,0.000000,0.000000,0.000000,0.000000;
#CREDIT:complainlegend;
#DISPLAYBPM:110.000000:220.000000;
#NOTES:
// measure 0
0000
0000
0000
0000
,  // measure 1
0000
0000
0000
0000
,  // measure 2
0000
0000
0000
0000
,  // measure 3
0000
0000
0000
0000
,  // measure 4
1001
0001
0010
0010
,  // measure 5
1001
1000
0010
0010
,  // measure 6
1001
1001
1001
1001
,  // measure 7
0002
2003
3100
0110
,  // measure 8
0001
0000
1000
0010
1000
0000
1001
0000
,  // measure 9
0002
0000
1003
0000
0100
0010
0100
0000
,  // measure 10
2001
0000
0001
0000
3001
0100
0001
0000
,  // measure 11
1002
0000
1000
0000
1003
0100
1000
0000
,  // measure 12
1001
0000
0001
0010
0001
0000
1001
0000
,  // measure 13
2000
0000
3010
0000
0100
0001
0100
0000
,  // measure 14
1002
0000
1000
0000
1003
0100
1000
0000
,  // measure 15
2001
0000
0001
0000
3001
0100
0001
0000
,  // measure 16
2002
0000
3003
0000
0001
1000
0100
0000
,  // measure 17
0001
0100
1000
0000
0001
0100
0010
0000
,  // measure 18
0100
0000
0000
0100
0000
0000
0100
0000
0000
0000
0000
0000
0001
0000
0001
0000
,  // measure 19
0010
0000
0000
0010
0000
0000
0010
0000
0000
0000
0000
0000
0100
0000
0100
0000
,  // measure 20
0110
0001
1001
1000
,  // measure 21
0001
0000
0000
0100
0000
0000
1000
0000
0200
0000
0000
0000
0320
0000
0000
0000
,  // measure 22
2030
0000
0000
0000
,  // measure 23
3002
0000
0000
0010
,  // measure 24
0023
0100
0000
0100
,  // measure 25
0200
0000
0000
0000
0330
0000
0000
0000
0100
0000
0000
0100
0000
0000
0100
0000
,  // measure 26
1001
0000
0001
0000
0100
0010
0100
0000
,  // measure 27
1001
0000
1000
0000
0100
0010
0100
0000
,  // measure 28
1001
1001
1001
1001
,  // measure 29
0002
0000
0000
0000
1003
1000
1000
0000
,  // measure 30
1001
0000
0001
0000
,  // measure 31
1000
0010
1000
0010
,  // measure 32
0100
0000
0001
0000
,  // measure 33
1000
0100
1000
0000
,  // measure 34
0001
1001
0000
1001
,  // measure 35
0000
1001
0000
0110
,  // measure 36
0000
1001
0000
1001
,  // measure 37
0000
1000
0001
0000
,  // measure 38
0020
0000
0130
0000
,  // measure 39
1000
0010
0100
0010
,  // measure 40
2000
0000
3001
0000
,  // measure 41
0010
0001
1000
1000
,  // measure 42
0002
0000
0103
0000
,  // measure 43
0010
1000
0001
0000
,  // measure 44
1001
0000
1001
0000
,  // measure 45
1000
0100
0001
0000
,  // measure 46
0110
0000
0000
0000
1000
0001
0100
0000
,  // measure 47
0001
0100
1000
0000
0100
0010
1000
0000
,  // measure 48
1001
0000
0001
0000
,  // measure 49
1000
0100
0010
0000
,  // measure 50
1001
0000
0001
0000
,  // measure 51
1000
0010
0001
0000
,  // measure 52
0110
0000
0000
0001
0000
0001
1000
0001
,  // measure 53
0010
0000
0100
1000
0000
1000
0001
0000
,  // measure 54
1001
0000
1000
0000
,  // measure 55
0001
0010
0100
0000
,  // measure 56
1001
0000
0001
0000
,  // measure 57
1000
0010
0001
0000
,  // measure 58
0220
0000
0330
0000
0001
1000
0100
0000
,  // measure 59
0010
0001
0010
0001
1000
0010
0001
0000
,  // measure 60
0020
0000
0000
0030
0000
0000
0000
0000
;
