#VERSION:0.83;
#TITLE:Say Yeah Yeah;
#SUBTITLE:;
#ARTIST:uno a.k.a. RoughSketch;
#TITLETRANSLIT:;
#SUBTITLETRANSLIT:;
#ARTISTTRANSLIT:;
#GENRE:;
#ORIGIN:;
#CREDIT:;
#BANNER:;
#BACKGROUND:;
#PREVIEWVID:;
#JACKET:;
#CDIMAGE:;
#DISCIMAGE:;
#LYRICSPATH:;
#CDTITLE:;
#MUSIC:Say Yeah Yeah.ogg;
#OFFSET:0.000000;
#SAMPLESTART:63.098999;
#SAMPLELENGTH:15.000000;
#SELECTABLE:YES;
#BPMS:0.000=150.000;
#STOPS:53.000=0.400,
227.000=0.400,
243.000=0.400;
#DELAYS:;
#WARPS:;
#TIMESIGNATURES:0.000=4=4;
#TICKCOUNTS:0.000=4;
#COMBOS:0.000=1;
#SPEEDS:0.000=1.000=0.000=0;
#SCROLLS:0.000=1.000;
#FAKES:;
#LABELS:0.000=Song Start;
#BGCHANGES:;
#KEYSOUNDS:;
#ATTACKS:
;

//---------------dance-single - ----------------
#NOTEDATA:;
#CHARTNAME:;
#STEPSTYPE:dance-single;
#DESCRIPTION:;
#CHARTSTYLE:;
#DIFFICULTY:Easy;
#METER:10;
#RADARVALUES:0.420583,0.444079,0.287829,0.139803,0.156250,358.000000,323.000000,35.000000,17.000000,0.000000,0.000000,0.000000,0.000000,0.000000,0.420583,0.444079,0.287829,0.139803,0.156250,358.000000,323.000000,35.000000,17.000000,0.000000,0.000000,0.000000,0.000000,0.000000;
#CREDIT:hooliganshit;
#NOTES:
0000
0000
0000
0000
,
0000
0000
0000
0000
,
0000
0000
0000
0000
,
0000
0000
0000
0000
,
0001
0100
0101
0000
,
0100
0010
0110
0000
,
0010
1000
1100
0000
,
1000
0000
0000
0001
0000
0000
0001
0000
2000
0000
0000
0000
0010
0000
0000
0000
,
3010
0100
0000
0100
0010
0000
1010
0000
,
0000
2010
3020
1000
,
1030
0000
0000
0010
0000
0000
0100
0000
0001
0000
0000
0100
0000
0000
0010
0000
,
1000
0000
0000
0100
0000
0000
0010
0000
0001
0000
0000
0010
0000
0000
0100
0000
,
1000
0000
0001
0000
0000
0000
0001
0000
0100
0000
0000
0010
0000
0000
0100
0000
,
0010
0000
0000
0000
1001
0000
0000
0000
0000
0000
0000
0000
1000
0000
0000
0010
,
0000
0000
0100
0000
0010
0000
0000
1000
0000
0000
0100
0000
2000
0000
0000
0000
,
0000
0000
0000
3001
,
0001
0001
0001
0001
,
0001
0000
0000
0000
0001
0000
0000
0010
0000
0000
0100
0000
1000
0000
0000
0000
,
1000
1000
1000
1000
,
1000
0000
0000
0000
1000
0000
0000
0010
0000
0000
0100
0000
0001
0000
0000
0010
,
0000
0000
0100
0000
1000
0000
0000
0010
0000
0000
0100
0000
0001
0000
0000
0010
,
0000
0000
0100
0000
1000
0000
0000
0010
0000
0000
0100
0000
0001
0000
0010
0000
,
0100
1000
0001
0100
0010
1000
0001
0000
,
0100
0000
0000
0000
0002
0000
0000
0000
1003
0000
0000
0000
0001
0000
0000
0100
,
0000
0000
0000
0000
0101
0000
0000
0000
0000
0000
0000
0000
0100
0000
0000
0010
,
0000
0000
0000
0000
0110
0000
0000
0000
0000
0000
0010
0000
1000
0000
0000
0001
,
0000
0000
0201
0000
0000
0301
0000
0100
,
0000
0200
0000
0000
0001
0000
0000
0301
0000
0000
0100
0000
0010
0000
0000
1000
,
0000
0000
0000
0000
1010
0000
0000
0000
0000
0000
0000
0000
1000
0000
0000
0010
,
0000
0000
0000
0000
1010
0000
0000
0000
0000
0000
0010
0000
1000
0000
0000
0100
,
0000
0000
1200
0000
0000
1300
0000
0100
,
0000
0200
0000
0000
1000
0000
0000
1300
0000
0000
0010
0000
0100
0000
0000
0000
,
0001
0101
0100
0010
,
1000
1010
1000
0100
,
2000
0000
3010
0100
0000
0100
0010
1000
,
0010
0000
0000
0000
0100
0000
0000
0010
0000
0000
0100
0000
0010
0000
0000
0000
,
1000
1010
1000
0100
,
1000
1001
0001
0010
,
0001
0201
0000
0310
,
0000
0000
0000
0020
0000
0000
0000
0000
0000
0000
0000
0000
1030
0000
0000
0000
,
0010
0000
0110
0000
0010
1000
0010
0100
,
0001
0000
0011
0000
0010
0100
1000
0000
,
0010
0000
1010
0000
1000
0100
0010
0001
,
1000
0000
0000
0000
1001
0000
0000
0001
0000
0000
1000
0000
0001
0000
0000
0000
,
1000
0000
1100
0000
1000
0010
1000
0001
,
0100
0000
0110
0000
0100
0010
1000
0000
,
0100
0000
1100
0000
1000
0001
0100
0010
,
1000
0000
0000
0000
1010
0000
0000
1000
0000
0000
0100
0000
2000
0000
0000
0000
,
3010
0000
0110
0000
0100
0001
0100
0010
,
1000
0000
1100
0000
1000
0100
1000
0000
,
0010
0000
0110
0000
0100
0010
1000
0100
,
1000
0000
0100
1000
0001
0100
0020
0000
,
1030
0000
1001
0000
0001
0010
0100
0010
,
0001
0000
0011
0000
0001
0100
0010
0000
,
1000
0000
1010
0000
1000
0010
0100
0010
,
1000
0000
0000
0000
1001
0000
0000
0001
0000
0000
1000
0000
0001
0000
0100
0000
,
0000
0100
0010
0000
1010
0000
1001
0000
,
0000
0000
0000
0000
0000
0000
0000
0000
1000
0000
0000
0010
0000
0000
0100
0000
,
0010
0000
0000
1000
0000
0000
0100
0000
0010
0000
0000
0100
0000
0000
1000
0000
,
0001
0000
0000
0100
0000
0000
0010
0000
1000
0000
0100
0000
0000
0000
0100
0000
,
1000
0000
0000
0100
0000
0000
1000
0000
0001
0000
0000
0000
1001
0000
0000
0000
,
0000
0000
0000
0000
0001
0000
0000
0010
0000
0000
0100
0000
0010
0000
0000
0001
,
0000
0000
0100
0000
0010
0000
0000
1000
0000
0000
0001
0000
0100
0000
0000
0010
,
0000
1000
0001
0000
0100
0010
0000
0010
,
0100
0010
0000
1000
0100
1000
0001
0000
,
1000
0000
0100
0000
1000
0100
0000
0100
,
1000
0100
0000
1000
0001
0100
0000
0100
,
0001
1000
0010
0000
0100
0001
0000
0001
,
0100
0001
0000
0010
0100
0000
1000
0000
,
0001
0000
1000
0001
2000
0000
0000
0000
,
0000
0000
0000
0000
0000
0000
0000
3001
,
0010
0001
2000
0000
0000
0000
0002
0000
,
3003
0000
0000
0000
;

//---------------dance-single - ----------------
#NOTEDATA:;
#CHARTNAME:;
#STEPSTYPE:dance-single;
#DESCRIPTION:;
#CHARTSTYLE:;
#DIFFICULTY:Medium;
#METER:13;
#RADARVALUES:0.534540,0.653577,0.600329,0.337171,0.304276,455.000000,382.000000,73.000000,41.000000,0.000000,0.000000,0.000000,0.000000,0.000000,0.534540,0.653577,0.600329,0.337171,0.304276,455.000000,382.000000,73.000000,41.000000,0.000000,0.000000,0.000000,0.000000,0.000000;
#CREDIT:hooliganshit;
#NOTES:
0000
0000
0000
0000
,
0000
0000
0000
0000
,
0000
0000
0000
0000
,
0000
0000
0000
0000
,
0011
0000
0000
0000
0011
0000
0000
0000
0010
0000
0000
0010
0000
0000
0010
0000
,
0110
0000
0000
0000
1100
0000
0000
0000
1000
0000
0000
1000
0000
0000
1000
0000
,
1010
0000
0000
0000
0110
0000
0000
0000
0010
0000
0000
0010
0000
0000
0010
0000
,
0100
0000
0010
1000
0000
0000
0001
0000
0020
0000
0000
0000
0230
0000
0000
0000
,
1300
0000
0000
1010
0000
0000
0110
0000
,
0000
0101
0002
0000
,
0103
0000
0000
0001
0000
0000
0100
0000
0110
0000
0000
0010
0000
0000
1000
0000
,
1001
0000
0000
1000
0000
0000
0010
0000
1010
0000
0000
0010
0000
0000
1000
0000
,
1001
0000
0000
0000
0000
0000
1000
0010
0100
0000
0000
0100
0000
0000
0100
0000
,
0100
0000
0000
0000
0110
0000
0000
0100
0000
0000
0100
0000
0101
0000
0000
0001
,
0000
0000
0010
0000
0011
0000
0000
0001
0000
0000
1000
0000
1002
0000
0000
1000
,
0000
0000
1000
0000
1000
0000
0000
1000
0000
0000
1000
0000
1003
0000
0000
0000
,
1010
0110
0101
0011
,
0101
0000
0000
0000
0110
0000
0000
0110
0000
0000
0010
0000
1010
0000
0000
0000
,
1100
1001
0011
1001
,
1100
0000
0000
0000
1010
0000
0000
1010
0000
0000
0010
0000
0110
0000
0000
0101
,
0000
0000
0001
0000
0011
0000
0000
0110
0000
0000
0100
0000
1100
0000
0000
1001
,
0000
0000
0001
0000
0011
0000
0000
0101
0000
0000
0100
0000
0001
0000
0100
0000
,
1000
0000
0000
0100
0000
0000
0010
0000
0000
1000
0000
0000
0001
0000
0000
0010
0000
0000
0001
0000
0010
0000
0100
0000
,
0010
0000
0000
0000
0100
0000
0000
0000
1000
0000
0000
0000
0002
0000
0000
0000
0000
0000
0000
0000
0000
0000
0000
0000
1003
0000
0000
0000
0000
0000
0000
0000
0000
0000
0000
0000
0010
0000
0000
0000
0000
0000
0000
0000
0000
0100
0000
0000
,
0000
0000
0000
0000
0110
0000
0000
0000
0000
0000
0000
0000
0010
0000
0000
1000
,
0000
0000
0000
0000
1010
0000
0000
0000
0000
0000
1000
0100
1000
0000
0000
0001
,
0000
0000
0100
0100
0100
0100
0000
0100
,
0000
0000
0100
0000
0100
0000
0001
0100
0000
0000
0100
0000
0010
0000
0000
1000
,
0000
0000
0000
0000
1010
0000
0000
0000
0000
0000
0000
0000
1000
0000
0000
0001
,
0000
0000
0000
0000
1001
0000
0000
0000
0000
0000
0001
0010
0001
0000
0000
1000
,
0000
0000
0100
0100
0100
0100
0000
0100
,
0000
0000
0100
0000
0100
0000
1000
0100
0000
0000
0100
0000
1000
0000
0000
0000
,
0010
0000
0000
0000
1010
0000
0000
1000
0000
0010
0000
1000
0000
0000
0001
0000
,
0010
0000
0000
0000
0011
0000
0000
0001
0000
0000
0100
0000
0010
0000
0000
0000
,
0020
0000
0000
0000
1030
0100
1000
0000
0020
0000
0230
0000
0301
0010
0002
0000
,
0203
0000
0010
0000
0320
0000
0000
0130
0000
0000
0100
0000
0001
0000
0000
0000
,
1000
0000
0000
0000
1010
0000
0000
0010
0000
0100
0000
0010
0000
0000
1000
0000
,
0001
0000
0000
0000
0011
0000
0000
0010
0000
0000
0001
0000
2000
0000
0000
0000
,
0001
0000
0100
0100
0100
0100
3001
0000
,
0000
0000
0000
0002
0000
0000
0023
0000
0000
0230
0000
0000
1300
0000
0010
0000
,
0100
0000
0010
0000
0110
0000
0000
0100
0000
0000
0100
0000
0001
0000
0010
0000
,
0100
0000
1000
0000
1100
0000
0000
0100
0000
0000
0100
0000
2000
0000
0000
0000
,
3010
0000
0100
0000
0110
0000
0000
0100
0000
0000
0100
0000
0001
0000
0010
0000
,
0001
0000
0010
0000
0110
0000
0000
0100
0000
0000
0100
0000
2000
0000
0000
0000
,
3001
0000
0100
0000
0101
0000
0000
0100
0000
0000
0100
0000
0010
0000
1000
0000
,
0100
0000
1000
0000
1100
0000
0000
0100
0000
0000
0100
0000
0020
0000
0000
0000
,
0130
0000
1000
0000
1100
0000
0000
0100
0000
0000
0100
0000
1000
0000
0010
0000
,
0100
0000
0001
0000
0101
0000
0000
0100
0000
0000
0100
0000
0020
0000
2030
0000
,
3001
0000
0020
0000
0000
0000
0000
0000
0230
0000
0000
1000
0000
0000
1000
0000
,
1300
0000
2000
3020
0130
0002
2003
0000
,
0010
0000
0000
0000
3010
0000
0000
0100
0000
0001
0000
0100
0000
0000
0010
0000
,
1000
0000
0000
0000
1100
0000
0000
0100
0000
0000
0100
0000
2000
0000
3002
0000
,
0013
0000
0200
0000
0000
0000
0000
0000
2300
0000
0000
0010
0000
0000
0010
0000
,
3010
0000
0200
0302
0013
0200
1300
0002
,
0100
0100
2000
0000
,
3003
0000
0000
0000
1010
0000
0000
0110
0000
0000
0100
0000
0101
0000
0000
0000
,
0000
0011
0000
0000
0101
0000
1001
0000
,
2000
0000
0000
0000
0000
0000
0000
0000
3001
0000
0000
0010
0000
0000
0100
0000
,
0110
0000
0000
0100
0000
0000
1000
0000
1100
0000
0000
1000
0000
0000
0010
0000
,
0110
0000
0000
0100
0000
0000
0001
0000
0101
0000
0000
0000
0000
0000
0001
0010
,
0100
0000
0000
0100
0000
0000
0100
0000
0100
0000
0000
0000
1100
0000
0000
0100
,
0000
0000
0100
0000
1100
0000
0000
1000
0000
0000
0010
0000
0110
0000
0000
0100
,
0000
0000
0001
0000
0011
0000
0000
0010
0000
0000
0100
0000
0110
0000
0000
0100
,
0000
1000
1001
0001
0100
0010
0100
0010
,
1000
0100
1000
0010
0001
0010
1000
0001
,
1000
0100
0001
0100
1000
0010
1000
0100
,
0001
0100
1000
0010
0100
0001
0100
0010
,
1000
0100
2000
0000
3002
0000
0103
0010
,
1000
0010
1000
0010
0001
0010
1000
0001
,
0100
0010
1000
0001
0200
0000
0000
0000
,
0000
0000
0000
0000
0000
0000
0000
0301
,
0010
0100
2000
0000
0000
0000
0002
0000
,
0000
3003
0000
0000
;

//---------------dance-single - ----------------
#NOTEDATA:;
#CHARTNAME:;
#STEPSTYPE:dance-single;
#DESCRIPTION:;
#CHARTSTYLE:;
#DIFFICULTY:Hard;
#METER:16;
#RADARVALUES:0.715460,0.772410,0.748355,0.106908,0.567434,609.000000,518.000000,91.000000,13.000000,22.000000,0.000000,4.000000,0.000000,0.000000,0.715460,0.772410,0.748355,0.106908,0.567434,609.000000,518.000000,91.000000,13.000000,22.000000,0.000000,4.000000,0.000000,0.000000;
#CREDIT:hooliganshit;
#NOTES:
// measure 0
0000
0000
0000
0000
,  // measure 1
0000
0000
0000
0000
,  // measure 2
0000
0000
0000
0000
,  // measure 3
0000
0000
0000
0000
,  // measure 4
1001
0000
0000
0000
0011
0000
0000
0000
0001
0000
0000
0100
0000
0000
0001
0000
,  // measure 5
0011
0000
0000
0000
1001
0000
0000
0000
1000
0000
0000
0100
0000
0000
1000
0000
,  // measure 6
1010
0000
0000
0000
1001
0000
0000
0000
0001
0000
0000
0100
0000
0000
0001
0000
,  // measure 7
1001
0000
1000
0010
0000
0000
0100
0000
0004
0000
0000
0000
0000
0000
0000
0000
,  // measure 8
1003
0010
0001
1000
0100
0001
0101
0000
,  // measure 9
0000
0000
0000
0000
1001
0000
0000
0000
1100
0000
0000
1001
0000
0000
1010
0000
,  // measure 10
1200
0000
0000
0010
0000
0000
1000
0000
0001
0000
0000
2300
0000
0000
0100
0000
,  // measure 11
3020
0000
0000
1000
0000
0000
0001
0000
0130
0000
0000
0110
0000
0000
1001
0000
,  // measure 12
0001
0000
0010
0000
1000
0000
0001
0100
1000
0000
0000
1100
0000
0000
1100
0000
,  // measure 13
1100
0000
0000
0000
1010
0000
0000
1010
0000
0000
1010
0000
1010
0000
0000
1001
,  // measure 14
0000
0000
1000
0010
0100
0010
1000
0001
0000
1000
0100
0010
0002
0000
0000
0100
,  // measure 15
0000
0000
0100
0000
0010
0000
0000
0010
0000
0000
0010
0000
0103
0000
0100
0001
,  // measure 16
0100
0000
0010
0100
0001
0000
0010
0000
0010
0100
0000
0000
0110
0000
0010
0001
,  // measure 17
0100
0000
0001
0000
0011
0000
0000
0011
0000
0000
0011
0000
1001
0000
1000
0010
,  // measure 18
0100
0000
0010
1000
0100
0000
1000
0000
0010
0100
0000
0000
0110
0000
0010
0100
,  // measure 19
0001
0000
1000
0000
1001
0000
0000
1010
0000
0000
1010
0000
0110
0000
0100
0010
,  // measure 20
0000
0000
1010
0000
1100
0000
0100
0000
0010
0100
0000
0000
1100
0000
1000
0010
,  // measure 21
0000
0000
0110
0000
0101
0000
0001
0000
0010
0100
0000
0000
0110
0000
0100
0000
,  // measure 22
1100
0000
0000
1000
0000
0000
1001
0000
0000
0001
0000
0000
0101
0000
0000
0100
0000
0000
0110
0000
0010
0000
1000
0000
,  // measure 23
0100
0000
0000
0000
0010
0000
0000
0000
0100
0000
0000
0000
1000
0000
0000
0000
0000
0000
0002
0000
0000
0000
0000
0000
1003
0000
0000
0000
0000
0000
0000
0000
0000
0000
0000
0000
1000
0000
0000
0000
0000
0000
0000
0000
0000
0010
0000
0000
,  // measure 24
0000
0000
0000
0000
0110
0000
0000
0000
0000
0000
0000
0000
0100
0000
0000
0001
,  // measure 25
0000
0000
0000
0000
0011
0000
0000
0000
0000
0000
0001
0100
0010
0000
0000
1000
,  // measure 26
0000
0000
0000
0000
M100
0100
0100
0100
0100
0100
0100
0000
0000
0000
M100
0000
,  // measure 27
0000
M100
0100
0100
0100
0000
0001
0100
0000
0000
010M
0000
1000
0000
0000
0010
,  // measure 28
0000
0000
0000
0000
0110
0000
0000
0000
0000
0000
0000
0000
0010
0000
0000
1000
,  // measure 29
0000
0000
0000
0000
1100
0000
0000
0000
0000
0000
1000
0010
0100
0000
0000
0001
,  // measure 30
0000
0000
0000
0000
010M
0100
0100
0100
0100
0100
0100
0000
0000
0000
010M
0000
,  // measure 31
0000
010M
0100
0100
0100
0000
1000
0100
0000
0000
M100
0000
0010
0000
0000
0000
,  // measure 32
0010
0000
0000
0000
MM10
0000
0000
0001
0010
0000
0001
0000
0010
0000
0100
0000
,  // measure 33
0010
0000
0000
0000
0M1M
0000
0000
1000
0010
0000
0100
0000
0010
0000
0000
0000
,  // measure 34
0010
0000
0000
0000
MM10
0000
0001
0100
0010
0000
1000
0100
0010
0001
1000
0001
,  // measure 35
0010
0001
0010
0000
0M1M
0000
1000
0100
0010
0000
0001
0000
0100
0000
0000
0000
,  // measure 36
0100
0000
0000
0000
01MM
0000
0000
1000
0100
0000
0010
0000
0100
0000
1000
0000
,  // measure 37
0100
0000
0000
0000
M1M0
0000
0000
0001
0100
0000
0010
0000
0100
0000
0000
0000
,  // measure 38
0100
0000
0000
0000
01MM
0000
1000
0001
0100
0001
1000
0001
0000
0000
0000
0000
,  // measure 39
0000
0000
0000
2000
0000
0000
0000
0000
3004
0000
0000
0000
1003
0000
0010
0100
,  // measure 40
0010
0000
1000
0100
0010
0000
0100
1000
0000
0010
0100
0000
0101
0000
0100
0000
,  // measure 41
0110
0000
0010
1000
0001
0000
0100
0010
0000
1000
0100
0000
1100
0000
1000
0010
,  // measure 42
0100
0000
0001
0010
0001
0000
0100
0010
0000
1000
0001
0000
1001
0000
1000
0000
,  // measure 43
1010
0000
0010
0100
0010
0000
1000
0100
0000
1000
0010
0000
1010
0000
0010
0100
,  // measure 44
0001
0000
0010
0001
0010
0000
0001
0010
0000
0100
1000
0000
1100
0000
1000
0000
,  // measure 45
1001
0000
0001
0100
0001
0000
0001
0100
0000
0010
1000
0000
1010
0000
1000
0100
,  // measure 46
0010
0000
0010
0100
1000
0000
0001
0010
0000
0001
0100
0000
0110
0000
0100
0000
,  // measure 47
0101
0000
0001
0010
0001
0000
0000
0011
0000
0000
1001
0000
0004
0000
0000
0000
,  // measure 48
1003
0000
0100
0010
0100
0000
1000
0010
0000
1000
0100
0000
1100
0000
0100
0000
,  // measure 49
0110
0000
0010
0001
0010
0000
0001
0100
0000
0001
0010
0000
0011
0000
0001
0100
,  // measure 50
0010
0000
0100
0010
1000
0000
0100
0010
0000
0100
0010
0000
0110
0000
0100
0000
,  // measure 51
1100
0000
1000
0010
0100
0000
0000
0110
0000
0000
1001
0000
4000
0000
0000
0000
,  // measure 52
3010
0000
0100
0001
1000
0000
0100
0010
0000
0010
0100
0000
1100
0000
1000
0000
,  // measure 53
1010
0000
0010
0100
0001
0000
1000
0010
0000
0010
1000
0000
1010
0000
0010
1000
,  // measure 54
0001
0000
0010
0001
1000
0000
0010
0100
0000
0100
0010
0000
0110
0000
0100
0000
,  // measure 55
0101
0000
0001
0000
0011
0000
0000
0110
0000
0000
1100
0000
1000
0000
0010
0000
,  // measure 56
0001
1000
0100
0001
0101
0000
1001
0000
,  // measure 57
1001
0000
0000
1010
0000
0000
1010
0000
1020
0000
0000
1000
0000
0000
0001
0000
,  // measure 58
1000
0000
0000
0230
0000
0000
0001
0000
0302
0000
0000
0010
0000
0000
0100
0000
,  // measure 59
1003
0000
0000
1010
0000
0000
0101
0000
0001
0000
0010
0000
1000
0000
0001
0100
,  // measure 60
1000
0000
0000
1100
0000
0000
1100
0000
1001
0000
0000
0000
1001
0000
0000
1010
,  // measure 61
0000
0000
1100
0000
1100
0000
0000
1010
0000
0000
1000
0100
0010
0100
1000
0001
,  // measure 62
0000
0100
0010
1000
0002
0000
0000
0010
0000
0000
0010
0000
0100
0000
0000
0010
,  // measure 63
0000
0100
0103
0100
1000
0100
0001
0010
,  // measure 64
1000
0010
0001
0010
1000
0001
0100
1000
,  // measure 65
0001
0010
1000
0010
0001
0100
1000
0100
,  // measure 66
0001
0100
0010
1000
0010
0001
0010
0100
,  // measure 67
0010
1000
0001
0010
1000
0010
0001
0100
,  // measure 68
1000
0100
0001
0100
1000
0001
0010
1000
,  // measure 69
0100
0001
0100
1000
0002
0000
0100
0000
,  // measure 70
0100
0000
0100
0000
0100
0000
1000
1003
,  // measure 71
0100
0010
0002
0000
0000
0000
2000
0000
,  // measure 72
0000
3003
0000
0000
;
