#VERSION:0.83;
#TITLE:Rise Circuit;
#SUBTITLE:;
#ARTIST:COSIO;
#TITLETRANSLIT:;
#SUBTITLETRANSLIT:;
#ARTISTTRANSLIT:;
#GENRE:;
#ORIGIN:;
#CREDIT:;
#BANNER:;
#BACKGROUND:;
#PREVIEWVID:;
#JACKET:;
#CDIMAGE:;
#DISCIMAGE:;
#LYRICSPATH:;
#CDTITLE:;
#MUSIC:Rise Circuit.ogg;
#OFFSET:-0.489769;
#SAMPLESTART:31.258923;
#SAMPLELENGTH:15.000000;
#SELECTABLE:YES;
#BPMS:0.000=195.000;
#STOPS:95.750=0.923,
272.500=0.923;
#DELAYS:;
#WARPS:;
#TIMESIGNATURES:0.000=4=4;
#TICKCOUNTS:0.000=4;
#COMBOS:0.000=1;
#SPEEDS:0.000=1.000=0.000=0;
#SCROLLS:0.000=1.000;
#FAKES:;
#LABELS:0.000=Song Start;
#BGCHANGES:;
#KEYSOUNDS:;
#ATTACKS:
;

//---------------dance-single - ----------------
#NOTEDATA:;
#CHARTNAME:;
#STEPSTYPE:dance-single;
#DESCRIPTION:;
#CHARTSTYLE:;
#DIFFICULTY:Easy;
#METER:9;
#RADARVALUES:0.405183,0.560486,0.165381,0.297686,0.086825,343.000000,323.000000,20.000000,36.000000,0.000000,0.000000,0.000000,0.000000,0.000000,0.405183,0.560486,0.165381,0.297686,0.086825,343.000000,323.000000,20.000000,36.000000,0.000000,0.000000,0.000000,0.000000,0.000000;
#CREDIT:cactusrifle;
#NOTES:
0000
0000
0000
0000
,
0000
0000
0000
0000
,
0000
0000
0000
0000
,
0000
0000
0000
0000
,
0000
0000
0000
0000
,
0000
0000
0000
0000
,
0000
0000
0000
0000
,
0001
0000
0001
0100
0000
0000
0001
0000
,
1000
0000
0010
0000
1000
0000
0000
0001
,
0000
1000
0100
0010
,
0000
0100
0000
0000
1000
0000
0010
0000
,
0100
0001
1000
0100
,
2002
0000
0000
0000
,
0000
0000
3003
0000
0002
0000
0000
0023
,
0000
0032
0000
0203
0000
0000
0320
0000
,
0000
2030
0000
3002
0000
0023
0000
0030
,
0001
0000
1000
0100
0000
0000
1001
0000
,
1000
0000
0001
0100
0000
0000
1001
0000
,
0010
0000
0100
0010
0000
0000
1001
0000
,
0000
0000
0110
0000
0000
1000
0001
1000
,
0001
0101
1000
1100
,
0001
0011
1000
1010
,
0100
1000
0100
1000
0001
0100
0001
0100
,
0010
0000
0010
0000
1000
0001
1000
0001
,
0000
0000
0000
0000
1000
0000
0000
0100
0000
0000
1000
0000
0000
0100
0000
0000
,
1000
0001
0100
0010
,
0000
0000
0000
0000
1000
0000
0000
0001
0000
0000
1000
0000
0000
0001
0000
0000
,
1000
0010
0100
0001
,
0000
0000
0000
0000
0010
0000
0000
0001
0000
0000
0010
0000
0000
0001
0000
0000
,
0010
0100
1000
0010
,
0000
0000
0000
0000
0100
0000
0000
0001
0000
0000
0100
0000
0000
0001
0000
0000
,
0100
0010
1000
0001
,
0000
0000
2000
0000
0000
3200
0000
0000
,
0010
0000
0320
0032
,
1003
0001
0000
0100
0000
0100
0000
0010
,
0000
0010
0000
1000
0000
0001
0000
0000
,
1000
0000
0200
0000
0000
0320
0000
0000
,
0001
0000
0100
0032
,
1003
0020
0000
0000
0100
0000
0001
0000
,
1000
0000
0230
0000
0010
0000
0310
0100
,
0010
0000
0100
0000
0000
1001
0000
0000
,
0010
0000
0000
1001
0000
0000
1000
0000
,
0001
0100
0100
0010
,
0010
0000
1000
0001
1000
0001
0000
0010
,
0100
0000
0010
0001
0010
0000
0100
1000
,
0100
0000
0000
0000
1000
0000
0010
0000
1000
0000
0000
0010
0000
0000
0100
0000
,
0001
0000
0100
0000
0000
0000
0000
0000
0001
0000
0000
1000
0000
0000
0001
0000
,
1000
0000
0000
0001
0000
0000
1000
0000
0010
0000
0100
0000
0000
0000
0001
0000
,
0000
1000
0200
0000
0000
0000
0000
0000
,
0000
0000
0000
0000
,
0000
0000
0000
0000
,
0000
0000
0000
0000
,
0300
0000
0010
0000
0001
0010
0000
0000
,
0100
1000
0000
0000
0001
0010
0000
0000
,
0100
1000
0100
0000
1000
0010
0000
0000
,
0100
0001
0000
0000
1000
0010
0000
0000
,
0100
0001
0100
0000
0001
1000
0000
0100
,
0000
0010
0000
0001
0000
0100
0000
0010
,
0000
1000
0001
0000
0010
0100
0000
1000
,
0000
0010
0000
0100
0000
0001
0000
1000
,
0100
2002
0000
0000
,
0000
0000
3003
2000
,
0000
3020
0000
2030
0000
3200
0000
0000
,
0320
0000
0000
0032
0000
0203
0000
0320
,
0000
0030
1000
0000
1000
0100
0000
0000
,
1001
0000
0001
0000
0001
0100
0000
0000
,
1001
0000
0010
0000
0010
0100
0000
0000
,
1001
0000
0000
0000
0110
0000
0000
0001
,
1000
0000
0001
0000
0000
0000
0000
0000
1000
0000
0000
0010
0000
0000
0100
0000
,
0000
0001
0000
0000
1000
0000
0000
0000
0010
0000
0000
0000
0100
0000
0000
0000
,
0001
0000
0000
0000
1000
0000
0000
0000
0001
0000
0000
0010
0000
0000
0100
0000
,
0000
1000
0000
0000
0001
0000
0000
0000
0100
0000
0000
0000
0010
0000
0000
0000
,
1000
0000
0000
0000
0001
0000
0000
0000
1000
0000
0000
0100
0000
0000
0010
0000
,
0000
0001
0000
0000
0100
0000
0000
0000
0010
0000
0000
0000
1000
0000
0000
0000
,
0001
0000
0000
0000
0010
0000
0000
0000
0100
0000
0000
0010
0000
0000
0001
0000
,
0000
0100
0000
0000
0010
0000
0000
0000
1000
0000
0000
0000
0001
0000
0000
0000
,
1000
0010
1000
0000
0002
0000
0000
0100
,
0000
0000
0010
0000
2003
0000
0000
0100
,
0000
0000
0010
0000
3200
0000
0000
1000
,
0000
0001
0310
0110
,
0100
1001
2000
0010
,
0001
0100
3002
0010
,
1000
0000
0100
0000
0023
0000
0000
1000
,
0000
0031
0010
0100
,
1000
0001
1000
0001
0100
0000
0000
1001
,
0000
0000
0010
0000
0000
1001
0000
0000
,
1000
0001
1000
0001
0100
0000
0000
0100
,
0000
0100
0010
0000
0000
1000
0000
0001
,
0000
1000
0000
0000
0001
0000
0000
0000
1000
0000
0100
0000
1000
0000
0000
0000
,
0001
0000
0100
0000
0001
0000
0000
0000
1000
0000
0001
0000
1000
0000
0000
0001
,
0000
0100
0010
0100
0000
0000
0000
0000
;

//---------------dance-single - ----------------
#NOTEDATA:;
#CHARTNAME:;
#STEPSTYPE:dance-single;
#DESCRIPTION:;
#CHARTSTYLE:;
#DIFFICULTY:Medium;
#METER:12;
#RADARVALUES:0.574108,0.709949,0.256340,0.305955,0.144708,486.000000,455.000000,31.000000,37.000000,0.000000,0.000000,0.000000,0.000000,0.000000,0.574108,0.709949,0.256340,0.305955,0.144708,486.000000,455.000000,31.000000,37.000000,0.000000,0.000000,0.000000,0.000000,0.000000;
#CREDIT:cactusrifle;
#NOTES:
0000
0000
0000
0000
,
0000
0000
0000
0000
,
0000
0000
0000
0000
,
0000
0000
0000
0000
,
0000
0000
0000
0000
,
0000
0000
0000
0000
,
0000
0000
0000
0000
,
0001
0000
0100
0001
0000
1000
0010
0000
,
1000
0100
1000
0000
0010
0000
0100
0001
,
0000
1000
0010
1000
0001
0100
0001
1000
,
0000
0001
0010
0100
1000
0100
0010
0001
,
0000
0100
0010
1000
0001
0010
0100
0010
,
0002
0000
0000
0000
,
0000
0000
0000
0000
0103
0020
0000
2030
,
0000
3002
0000
2003
0000
0000
3100
0020
,
0000
0230
0000
2300
0000
3020
0000
0030
,
0100
0001
0000
1000
0000
0100
0010
0000
,
0100
1000
0000
0001
0000
0100
0010
0000
,
0100
0000
1001
0000
0010
1000
0001
0000
,
0010
0000
0110
0000
0000
0100
0100
0100
,
1001
1001
0101
0101
,
1001
1001
1100
1100
,
1000
0100
1000
0100
0010
0001
0010
0001
,
0100
0000
0000
0000
0001
0000
0000
0000
0100
0000
0000
0000
0001
0000
0000
0000
0000
0000
0000
0000
0000
0000
0000
0000
1000
0000
0000
0000
0010
0000
0000
0000
1000
0000
0000
0000
0001
0000
0000
1000
0000
0000
0001
0000
0000
1000
0000
0000
,
0000
0000
0000
0000
0001
0000
0000
0100
0000
0000
0010
0000
0000
1000
0000
0000
,
0001
0000
1000
0100
1000
0010
0100
0001
,
0010
0000
0000
0000
0100
0000
0000
0001
0000
0000
0100
0000
0000
0010
0000
0000
,
0001
0000
1000
0010
1000
0001
0010
0001
,
1000
0000
0000
0000
0100
0000
0000
0010
0000
0000
0100
0000
0000
1000
0000
0000
,
0010
0000
0100
0001
0100
0010
1000
0001
,
1000
0000
0000
0000
0100
0000
0000
0010
0000
0000
0001
0000
0000
0100
0000
0000
,
0010
0000
0100
0001
1000
0100
0010
0001
,
0100
0000
0002
0000
0013
0200
0000
0310
,
0001
0000
0100
0010
1000
0000
0200
0000
,
0301
0200
0000
1300
0010
0200
0000
0301
,
0010
0100
1000
0100
0010
0001
0000
0100
,
0010
1000
0002
0000
0103
0020
0000
1030
,
0100
0020
0000
0130
1000
0000
0002
0000
,
1003
0020
0000
0130
0001
1000
0000
0100
,
0010
0001
0200
0000
1000
0000
0301
0100
,
0001
0100
0110
0000
1000
1001
0000
0010
,
0110
0000
0001
1001
0000
1000
0100
0010
,
0001
0010
0001
0010
0001
0000
0000
0000
0101
0000
0000
0000
1000
0000
0000
0000
,
1100
0000
0001
0100
0010
1000
0000
0100
,
0010
0000
0000
0000
0100
0000
1000
0000
0100
1000
0000
0000
0001
0000
0100
0000
,
0001
0100
0000
0000
0001
0000
1000
0000
0001
1000
0000
0001
0000
0000
0100
0000
,
0010
0000
0100
0000
0010
0000
0000
0000
1000
0000
0000
0001
0000
0000
0100
0000
,
0001
0000
0000
1000
0000
0000
0100
0000
0010
0000
0001
0000
0000
0000
1000
0000
,
0000
0010
2002
0000
0000
0000
0000
0000
,
0000
0000
0000
0000
,
0000
0000
0000
0000
,
0000
0000
0000
0000
,
3003
0000
0001
0000
0100
0010
0000
1000
,
0001
1000
0000
0100
0010
0100
0000
1000
,
0001
0100
0010
0000
1000
0100
0000
0010
,
0100
1000
0000
0001
0100
0010
0000
1000
,
0001
0010
0001
0000
1000
0100
0000
0001
,
0100
1000
0000
0001
0100
1000
0000
0100
,
0010
1000
0001
0000
0100
0010
0000
0001
,
0010
1000
0000
0001
0010
1000
0010
0100
,
1000
0001
0200
0000
0000
0000
0000
0000
,
0000
0000
0000
0000
0000
0000
0310
2000
,
0000
3002
0000
0023
0000
0230
0000
0000
,
1300
0002
0000
0203
0000
0320
0000
2030
,
0000
3000
0100
1000
0000
1100
0000
0001
,
0100
0000
0100
0001
0000
0101
0000
1000
,
0100
0010
1001
0100
,
1001
0000
1000
0001
0100
0000
0001
1000
,
0100
0000
0100
0000
0000
0000
0000
0000
0010
0000
0000
0001
0000
0000
0010
0000
,
0000
0100
0000
0000
1000
0000
0000
0000
0010
0000
1000
0000
0001
0000
0100
0000
,
0010
0000
1000
0000
0001
0000
0000
0000
1000
0000
0000
0100
0000
0000
0010
0000
,
0000
0001
0000
0000
0100
0000
0000
0000
0010
0000
1000
0000
0100
0000
0010
0000
,
0001
0000
0100
0000
0010
0000
0000
0000
1000
0000
0000
0100
0000
0000
0001
0000
,
0000
0100
0000
0000
1000
0000
0000
0000
0010
0000
1000
0000
0001
0000
1000
0000
,
0100
0000
0010
0000
0001
0000
0000
0000
1000
0000
0000
0010
0000
0000
0001
0000
,
0000
0010
0000
0000
0100
0000
0000
0000
0001
0000
1000
0000
0100
0000
0010
0000
,
0100
1000
0010
0000
0201
0000
0310
1000
,
0001
0010
0100
0000
0012
0000
0103
0010
,
1000
0001
0010
0000
2001
0000
3100
1000
,
0010
0100
0001
0100
1000
0100
0010
1000
,
0001
1000
0100
0000
2100
0000
3010
0100
,
0001
1000
0100
0000
0012
0000
0103
0010
,
0001
0010
1000
0000
0102
0000
1003
0010
,
1000
0100
0001
0100
0010
0001
1000
0010
,
0100
0001
1000
0001
0101
0000
1000
1100
,
0000
0001
0011
0000
1000
1010
0000
0010
,
0100
0010
0100
0010
0100
0000
0000
0100
,
0000
0001
1000
0000
0000
0100
0000
0010
,
0000
0001
0000
0000
1000
0000
0000
0000
0010
0000
1000
0000
0010
1000
0000
0000
,
0001
0000
0010
0000
0001
0010
0000
0000
0001
0000
1000
0000
0001
1000
0000
0001
,
0000
0010
0100
0010
0000
0000
0000
0000
;

//---------------dance-single - ----------------
#NOTEDATA:;
#CHARTNAME:;
#STEPSTYPE:dance-single;
#DESCRIPTION:;
#CHARTSTYLE:;
#DIFFICULTY:Hard;
#METER:15;
#RADARVALUES:0.679243,0.822046,0.165381,0.471335,0.396914,575.000000,555.000000,20.000000,57.000000,0.000000,0.000000,0.000000,0.000000,0.000000,0.679243,0.822046,0.165381,0.471335,0.396914,575.000000,555.000000,20.000000,57.000000,0.000000,0.000000,0.000000,0.000000,0.000000;
#CREDIT:cactusrifle;
#NOTES:
// measure 0
0000
0000
0000
0000
,  // measure 1
0000
0000
0000
0000
,  // measure 2
0000
0000
0000
0000
,  // measure 3
0000
0000
0000
0000
,  // measure 4
0000
0000
0000
0000
,  // measure 5
0000
0000
0000
0000
,  // measure 6
0000
0000
0000
0000
,  // measure 7
0001
0000
0000
0000
0001
0000
0100
0000
0000
0000
0001
0000
0010
0000
0100
1000
,  // measure 8
0100
0010
0001
1000
0001
0100
1000
0100
,  // measure 9
0000
0010
1000
0100
0001
0100
1000
0001
,  // measure 10
0000
0010
0001
0001
0100
1000
1000
0100
,  // measure 11
0010
0000
0010
0000
1000
0000
1000
0000
0001
0000
0001
0010
0100
0000
1000
0001
,  // measure 12
2000
0000
0000
0000
,  // measure 13
0001
0000
0000
0000
3200
0320
0032
0203
,  // measure 14
0000
0320
0000
0032
0000
0023
2030
3002
,  // measure 15
0000
0023
0000
2030
0000
3020
0000
0030
,  // measure 16
0110
1000
0000
0001
0000
0100
1001
0000
,  // measure 17
0110
0001
0000
1000
0000
0100
1001
0000
,  // measure 18
0102
0000
1000
2003
0000
0100
0100
0000
,  // measure 19
0000
0001
0001
0000
0000
0010
0010
3010
,  // measure 20
1010
1010
0101
0101
,  // measure 21
0011
0011
1100
1100
,  // measure 22
1000
0000
0100
0000
1000
0000
0001
0000
0100
0000
0001
0000
1000
0000
0010
1000
,  // measure 23
0010
0000
0000
0000
1000
0000
0000
0000
0001
0000
0000
0000
1000
0000
0000
0000
0000
0000
0000
0000
0100
0000
0000
0000
0010
0000
0000
0000
0001
0000
0000
0000
0010
0000
0000
0000
0001
0000
0000
1000
0000
0000
0001
0000
0000
1000
0000
0000
,  // measure 24
0000
0000
0000
0000
0001
0100
0000
0100
0010
0000
0010
1000
0000
1000
0001
0000
,  // measure 25
0001
0010
0000
0000
0100
0000
0001
0000
0100
0000
1000
0000
0001
0000
1000
0000
,  // measure 26
0010
0000
0000
0000
0100
0001
0000
0001
1000
0000
1000
0100
0000
0100
0010
0000
,  // measure 27
0010
0001
0000
0000
0100
0000
1000
0000
0100
0000
0010
0000
0100
0000
0001
1000
,  // measure 28
0001
0000
0000
0000
1000
0100
0000
0010
0100
0000
0010
0001
0000
1000
0001
0000
,  // measure 29
1000
0010
0000
0000
0100
0000
0001
0000
0010
0000
1000
0000
0010
0000
0001
0000
,  // measure 30
0100
0000
0000
0000
0010
1000
0000
0001
1000
0000
0001
0010
0000
0100
0010
0000
,  // measure 31
0100
1000
0000
0000
0010
0000
0100
0000
1000
0000
0100
0000
0001
0000
0010
0000
,  // measure 32
0010
0000
0010
0100
2000
0000
0000
0000
0010
0000
3002
0000
0000
0000
0100
0000
,  // measure 33
1000
0010
0100
2003
,  // measure 34
3200
0302
0000
1003
0010
0001
0000
1000
,  // measure 35
0010
0000
0001
0000
0010
0000
0100
0000
0001
0000
1000
0000
0100
0000
0010
0001
,  // measure 36
0010
0000
0200
0000
2300
3002
0000
0203
,  // measure 37
2300
3200
0000
0010
0010
0000
0302
0000
,  // measure 38
0023
0230
0000
0301
0100
1000
0000
0001
,  // measure 39
0100
1000
0100
0001
1000
0100
0010
0001
,  // measure 40
0001
0000
1000
0010
1000
0001
0000
0000
0100
0000
0001
1000
0000
0000
0100
0000
,  // measure 41
1000
0010
0000
0000
0100
0000
0001
0010
0000
0000
0100
0000
1000
0000
0001
0000
,  // measure 42
0100
0001
0100
0001
0200
0000
0000
0000
0320
0000
0000
0000
2030
0000
0000
0000
,  // measure 43
3002
1000
1003
0010
0001
0020
0000
0130
,  // measure 44
0001
0000
1000
0000
0100
0000
0010
0000
0010
0001
0000
0000
0100
0000
0010
0000
,  // measure 45
0010
1000
0000
0000
0100
0000
0010
0000
0010
0100
0000
1000
0000
0000
0001
0000
,  // measure 46
0001
0000
0001
0000
0001
0000
0000
0000
2001
0000
0000
3200
0000
0000
0320
0000
,  // measure 47
0032
0000
0000
0203
0000
0000
0320
0000
1030
0000
0001
0000
0000
0000
0110
0000
,  // measure 48
0000
0100
2002
0000
0000
0000
0000
0000
,  // measure 49
0000
0000
0000
0000
,  // measure 50
0000
0000
0000
0000
,  // measure 51
0000
0000
0000
0000
,  // measure 52
3003
0000
0001
0000
0010
1000
0000
0001
,  // measure 53
0100
0010
0000
0001
0100
1000
0000
0001
,  // measure 54
0010
0100
0001
0000
1000
0100
0000
0010
,  // measure 55
1000
0001
0000
0100
1000
0010
0000
0100
,  // measure 56
0100
0100
0101
0000
0001
0010
0000
1000
,  // measure 57
0001
0100
0000
1000
0001
0100
0000
0010
,  // measure 58
0100
0001
1000
0000
0100
0001
0000
1000
,  // measure 59
0010
0100
0000
1000
0010
0100
1000
0001
,  // measure 60
0010
0100
0201
0000
0000
0000
0000
0000
,  // measure 61
0000
0000
1000
0000
0000
0000
0320
2030
,  // measure 62
3002
0023
0000
2030
0000
3020
0000
0032
,  // measure 63
0203
0320
0000
2030
0000
3002
0000
0023
,  // measure 64
0000
0030
0001
1000
0001
0100
0000
0010
,  // measure 65
1010
0000
1000
0001
1000
0100
0000
0010
,  // measure 66
0011
0000
2000
0000
0001
3002
0000
0100
,  // measure 67
0100
0000
0000
1000
1000
0000
0000
0010
,  // measure 68
0010
0000
0013
0000
0000
0000
0000
0000
0001
0100
0000
0001
1000
0000
0001
0010
,  // measure 69
0000
0001
1000
0000
0001
0100
0000
0000
0010
0000
0001
0000
0010
0000
0100
0000
,  // measure 70
0001
0000
1000
0000
0010
0000
0000
0000
1000
0100
0000
1000
0001
0000
1000
0010
,  // measure 71
0000
1000
0001
0000
1000
0100
0000
0000
0010
0000
1000
0000
0010
0000
0001
0000
,  // measure 72
1000
0000
0001
0100
0001
0000
0000
0000
0100
1000
0000
0100
0010
0000
0100
0001
,  // measure 73
0000
0100
0010
0000
0100
1000
0000
0000
0100
0000
0001
0000
0010
0000
1000
0000
,  // measure 74
0010
0000
0100
0000
1000
0000
0000
0000
0010
0001
0000
0010
0100
0000
0010
1000
,  // measure 75
0000
0010
0100
0000
0010
0001
0000
0000
0010
0000
1000
0000
0001
0000
1000
0000
,  // measure 76
0100
0000
0010
0000
0010
0000
0010
0001
1000
0000
0010
0000
0100
0000
0001
0000
,  // measure 77
1000
0000
0100
0010
0001
0000
0000
0000
0100
0000
0010
0000
0001
0000
0010
0000
,  // measure 78
0100
0000
0001
1000
0100
0000
0000
0000
0010
0000
0100
0000
0010
0000
0001
0000
,  // measure 79
1000
0000
0000
0000
0000
0000
0010
0000
0000
1000
0000
0000
0001
0000
0000
0000
0000
0000
0100
0000
0000
0000
0000
0000
0001
0000
0000
0000
0010
0000
0000
0000
0001
0000
0000
0000
1000
0000
0000
0000
0100
0000
0000
0000
1000
0000
0000
0000
,  // measure 80
0010
0010
0100
0000
0001
1000
0100
0010
,  // measure 81
0001
0000
0100
0010
1000
0000
0000
0000
0010
0000
0100
0000
1000
0000
0100
0000
,  // measure 82
0001
0000
1000
0010
0100
0000
0000
0000
0001
0000
1000
0000
0100
0000
0001
0000
,  // measure 83
0100
0000
0000
0000
0000
0000
0010
0000
0000
0001
0000
0000
1000
0000
0000
0000
0000
0000
0000
0000
0000
0000
0000
0000
0010
0000
0000
0000
0100
0000
0000
0000
0001
0000
0000
0000
0010
0000
0000
0000
0100
0000
0000
0000
1000
0000
0000
0000
,  // measure 84
0010
0000
0100
0000
0100
0000
0100
0001
1000
0100
0000
0000
0010
0000
0001
0100
,  // measure 85
0000
0000
0010
0000
1000
0001
0000
0000
0010
0000
0001
1000
0000
0000
0010
0000
,  // measure 86
0100
0000
0100
0000
0001
1000
0001
1000
0001
0000
0010
0000
0010
0000
0100
0000
,  // measure 87
1000
0001
1000
0000
0010
0100
1000
0100
,  // measure 88
0000
0001
0000
1000
0010
0000
0010
0000
0100
0000
0001
0000
1000
0010
0000
0000
,  // measure 89
1000
0000
0100
0000
0010
0001
0000
0000
0100
0000
0010
0000
1000
0001
0000
0010
,  // measure 90
0000
0100
0100
0100
0000
0000
0000
0000
;
