#VERSION:0.83;
#TITLE:レンジで好吃☆電子調理器使用中華料理四千年歴史瞬間調理完了武闘的料理長☆;
#SUBTITLE:;
#ARTIST:かめりあ feat. ななひら;
#TITLETRANSLIT:;
#SUBTITLETRANSLIT:Renji de kochi denshi choriki shiyu chukaryori yonsennen rekishi shunkan chori kanryo butoteki;
#ARTISTTRANSLIT:Camellia feat. Nanahira;
#GENRE:;
#ORIGIN:;
#CREDIT:;
#BANNER:;
#BACKGROUND:;
#PREVIEWVID:;
#JACKET:;
#CDIMAGE:;
#DISCIMAGE:;
#LYRICSPATH:;
#CDTITLE:;
#MUSIC:Renji de kochi denshi choriki shiyu chukaryori yonsennen rekishi shunkan chori.ogg;
#OFFSET:-0.023000;
#SAMPLESTART:31.625832;
#SAMPLELENGTH:12.000000;
#SELECTABLE:YES;
#BPMS:0.000=190.018;
#STOPS:;
#DELAYS:;
#WARPS:;
#TIMESIGNATURES:0.000=4=4;
#TICKCOUNTS:0.000=4;
#COMBOS:0.000=1;
#SPEEDS:0.000=1.000=0.000=0;
#SCROLLS:0.000=1.000;
#FAKES:;
#LABELS:0.000=Song Start;
#BGCHANGES:;
#KEYSOUNDS:;
#ATTACKS:
;

//---------------dance-single - ----------------
#NOTEDATA:;
#CHARTNAME:;
#STEPSTYPE:dance-single;
#DESCRIPTION:;
#CHARTSTYLE:;
#DIFFICULTY:Easy;
#METER:6;
#RADARVALUES:0.224427,0.470082,0.307720,0.072881,0.000000,194.000000,156.000000,38.000000,9.000000,0.000000,0.000000,0.000000,0.000000,0.000000,0.224427,0.470082,0.307720,0.072881,0.000000,194.000000,156.000000,38.000000,9.000000,0.000000,0.000000,0.000000,0.000000,0.000000;
#CREDIT:rainbowreligion;
#NOTES:
0000
0000
0000
0000
,
0000
0000
0000
0000
,
0000
0000
0000
0000
,
0000
0000
0000
0000
,
0000
0000
0000
0000
,
0000
0000
0000
0000
,
0000
0000
0000
0000
,
0000
0000
0000
0000
,
0000
0000
0000
0000
,
0000
0000
0000
0000
,
0000
0000
0000
0000
,
0000
0000
0000
0000
,
0000
0000
0000
0000
,
0000
0000
0000
1000
,
0000
0000
0000
1000
,
0000
0000
0000
1000
,
0000
1000
0000
2000
,
0000
0000
3000
0001
,
0000
0000
0000
0001
,
0000
0000
0000
0001
,
0000
0001
0000
0002
,
0000
0000
0003
0100
,
0000
0100
0000
0100
,
0100
0100
0000
0010
,
0000
0010
0000
0010
,
0010
0010
0000
1000
,
0000
1000
0000
1000
,
1000
1000
0000
0001
,
0000
0001
0000
0001
,
0001
0001
0001
1001
,
0000
0000
0000
1001
,
0000
0000
0000
1001
,
0000
0000
0000
1001
,
0000
1001
0000
0110
,
0000
0000
0000
0110
,
0000
0000
0000
0110
,
0000
0110
0000
0110
,
0000
1001
0000
0100
,
0000
0000
0000
0100
,
0100
0100
0000
0001
,
0000
0000
0000
0001
,
0001
0001
0000
1010
,
0000
0000
0000
0101
,
0000
0000
0000
1010
,
0000
0101
0000
1010
,
0101
1010
0000
0000
,
0000
0000
0000
0000
,
0000
0000
0000
0000
,
0000
0000
0000
0000
,
0000
0000
0000
0001
,
0000
0000
0000
0001
,
0000
0000
0000
1000
,
0000
0000
0000
1000
,
0000
0000
0000
0010
,
0000
0000
0000
0010
,
0000
0000
0000
0100
,
0000
0000
0000
0100
,
0000
0000
0000
0110
,
0000
0000
0000
0000
,
0000
0000
0000
0011
,
0000
0000
0000
0000
,
0000
0000
0000
1100
,
0000
0000
0000
1100
,
0000
0000
0000
1001
,
0000
0000
0000
0101
,
0000
0000
0000
0010
,
0010
0010
0010
0100
,
0100
0100
0100
0010
,
0010
0010
0010
0100
,
0100
0100
0000
0001
,
0001
0001
0001
1000
,
1000
1000
1000
1001
,
0000
0110
0000
0000
,
1001
1001
0000
0010
,
0010
0010
0010
0100
,
0100
0100
0100
0010
,
0010
0010
0010
0100
,
0100
0100
0000
1000
,
1000
1000
1000
0001
,
0001
0001
0001
1001
,
0000
0110
0000
1000
,
0100
0010
0001
1000
,
1000
1000
1000
0001
,
0001
0001
0001
1010
,
0000
0101
0000
0110
,
0110
0110
0000
1000
,
0000
0001
0000
1000
,
0000
0001
0000
1000
,
0000
0001
0000
2000
,
0000
0000
3000
0001
,
0000
1000
0000
0001
,
0000
1000
0000
0001
,
0000
1000
0000
0202
,
0000
0000
0303
2020
,
0000
0000
3030
2002
,
0000
0000
0000
0000
,
0000
0000
0000
3003
;

//---------------dance-single - ----------------
#NOTEDATA:;
#CHARTNAME:;
#STEPSTYPE:dance-single;
#DESCRIPTION:;
#CHARTSTYLE:;
#DIFFICULTY:Medium;
#METER:13;
#RADARVALUES:0.529833,0.744297,0.267230,0.161958,0.093126,458.000000,425.000000,33.000000,20.000000,0.000000,0.000000,0.000000,0.000000,0.000000,0.529833,0.744297,0.267230,0.161958,0.093126,458.000000,425.000000,33.000000,20.000000,0.000000,0.000000,0.000000,0.000000,0.000000;
#CREDIT:rainbowreligion;
#NOTES:
0000
0000
0000
0000
,
0000
0000
0000
0000
,
0000
0000
0000
0000
,
0000
0000
0000
0000
,
0000
0000
0000
0000
,
0000
0000
0000
0000
,
0000
0000
0000
0000
,
0000
0000
0000
0000
,
0000
0000
0000
0000
,
0000
0000
0000
0000
,
0000
0000
0000
0000
,
0000
0000
0000
0000
,
0000
0000
0000
0000
,
0000
0000
0000
1000
,
0100
1000
0010
0000
0100
0010
1000
0000
,
0001
0010
0100
0000
1000
0000
0001
0000
,
0100
0001
0010
0000
0100
0010
0002
0000
,
0000
0000
0003
1000
,
0100
1000
0010
0000
0100
0001
1000
0100
,
0001
0000
0100
0000
1000
0000
0000
0000
0010
0000
0100
0000
0001
1000
0000
0001
,
1000
0100
1000
0010
0001
0010
2000
0000
,
0000
0000
0000
3001
,
1000
0000
0010
0000
1000
0000
0100
0010
,
0001
0100
0010
1000
0100
0000
1000
0000
,
0001
0000
0010
0000
0001
0000
0100
0010
,
1000
0100
0010
0001
0100
0000
0001
1000
,
0010
0000
0100
0000
0001
0000
0010
0100
,
1000
0010
0100
0001
0010
0100
1001
0000
,
0000
0000
0000
0000
0110
0000
0000
0000
0000
0000
0000
0000
2000
0000
0000
3100
,
1000
0010
0100
0110
0000
0000
0001
0010
,
0100
1000
0010
0100
0000
0100
0000
0010
,
0100
0001
0010
0100
0000
0100
0000
1000
,
0001
0010
0100
1000
0000
1000
0000
0001
,
0100
0010
0100
0001
1000
0010
0000
0010
,
1000
0100
0001
0100
0010
0001
0000
0100
,
0010
1000
0100
0001
0100
0010
0000
0001
,
1000
0010
0100
0001
0000
1001
0000
0000
,
0000
0000
0000
1000
,
1000
1000
0100
0010
0000
0010
0011
0001
,
0011
0010
0011
0000
0000
0000
0001
0000
,
0001
0000
0100
0010
0000
0010
1010
1000
,
1010
0010
1010
0000
0100
0000
0220
0000
,
0000
0330
1000
2002
,
0000
3003
0001
0220
,
0330
0000
2002
0000
3003
0000
2020
3030
,
0022
0033
2020
3030
0000
0000
0000
0000
,
0000
0000
0000
0000
,
0000
0000
0000
0000
,
0000
0000
0000
0000
,
0000
0000
0000
0000
0000
0000
0001
1000
,
0100
0000
1000
0001
0100
0000
0010
0000
,
1000
0001
0010
0000
0011
0000
0010
0000
,
0001
1000
0010
0000
1010
0000
0010
0000
,
0010
1000
0001
0000
0011
0000
0100
0000
,
0100
1000
0010
0100
0001
0100
0010
0000
,
1000
0001
0100
0000
0101
0000
0100
0000
,
0001
1000
0100
0000
1100
0000
0100
0000
,
1000
0001
0100
0000
0100
0010
1000
0000
,
0000
0000
0000
0000
,
0000
0000
0000
1100
0000
0000
0101
0000
,
0000
0000
0000
0000
,
0000
0000
0000
0000
0000
0000
0101
0000
0000
0000
0000
0000
0100
0001
0000
0001
,
0010
0000
0010
0000
0110
0000
0000
0000
0000
0000
0000
0000
0100
1000
0000
1000
,
0010
0000
0010
0000
0110
0000
0000
0000
0000
0000
0000
0000
0100
0001
0000
1000
,
0010
0000
0100
0000
0001
0010
0000
0100
1000
0000
0010
0000
0100
0000
0001
0000
,
0010
0100
1000
0000
0000
0000
1000
0100
,
0010
0001
1000
0010
0100
0001
0001
0100
,
0010
1000
0001
0010
0100
1000
0100
1000
,
0010
0000
0100
0000
0001
0000
0010
0000
0100
0000
1000
0000
0001
0100
0000
0001
,
0100
0001
1001
0000
0000
0000
0001
0100
,
0010
0000
1000
0100
0010
0000
0001
0100
,
0010
1000
0100
1000
0010
0100
0101
0000
,
0000
0000
1100
0000
0000
0000
0000
0100
,
1000
0001
0101
0000
0010
0000
0010
1000
,
0100
0010
0001
0100
0010
1000
0100
1000
,
0010
0100
0001
0010
0001
0100
0010
1000
,
0100
0000
0010
0000
0001
0000
0100
0000
0010
0000
1000
0000
0001
1000
0000
0001
,
1000
0100
0110
0000
0000
0000
0010
0000
,
0001
0000
0100
0010
1000
0000
0001
0010
,
0100
1000
0001
0100
1000
0100
0001
0000
,
0001
0000
1000
0000
1000
0000
0010
0010
,
0100
0000
0100
0000
0001
0000
0001
0000
0010
0000
0010
0000
0100
1000
0000
1000
,
0100
1000
0010
0100
0001
0010
0100
1000
,
0010
0001
0010
0100
0001
0010
0100
1000
,
0010
0100
0001
0010
0100
1000
0010
0000
,
0010
0100
0001
0000
0000
0000
1000
0000
,
0100
1000
0010
0000
0100
0010
1000
0000
,
0001
0010
0100
0000
1000
0000
0001
0000
,
0100
0001
0010
0000
0100
0010
0002
0000
,
0000
0000
0003
1000
,
0100
1000
0010
0000
0100
0001
1000
0100
,
0001
0000
0100
0000
1000
0000
0000
0000
0010
0000
0100
0000
0001
1000
0000
0001
,
1000
0000
0100
0000
1000
0000
0010
0000
0001
0000
0010
0000
1000
0001
0000
1000
,
0001
0000
0100
0000
0010
0000
0000
0000
0100
0000
0000
0000
0001
1000
0000
0001
,
1000
0100
0010
0000
0000
0000
2002
0000
,
0000
0000
0000
0000
,
0000
0000
0000
3003
;

//---------------dance-single - ----------------
#NOTEDATA:;
#CHARTNAME:;
#STEPSTYPE:dance-single;
#DESCRIPTION:;
#CHARTSTYLE:;
#DIFFICULTY:Hard;
#METER:16;
#RADARVALUES:0.667497,1.057685,0.380601,0.340111,0.319867,577.000000,530.000000,47.000000,42.000000,0.000000,0.000000,0.000000,0.000000,0.000000,0.667497,1.057685,0.380601,0.340111,0.319867,577.000000,530.000000,47.000000,42.000000,0.000000,0.000000,0.000000,0.000000,0.000000;
#CREDIT:rainbowreligion;
#NOTES:
// measure 0
0000
0000
0000
0000
,  // measure 1
0000
0000
0000
0000
,  // measure 2
0000
0000
0000
0000
,  // measure 3
0000
0000
0000
0000
,  // measure 4
0000
0000
0000
0000
,  // measure 5
0000
0000
0000
0000
,  // measure 6
0000
0000
0000
0000
,  // measure 7
0000
0000
0000
0000
,  // measure 8
0000
0000
0000
0000
,  // measure 9
0000
0000
0000
0000
,  // measure 10
0000
0000
0000
0000
,  // measure 11
0000
0000
0000
0000
,  // measure 12
0000
0000
0000
0000
,  // measure 13
0000
0000
0000
0000
0000
0000
0000
0000
0000
0000
0000
0000
2000
0000
0000
3100
,  // measure 14
1000
0000
0010
0000
0001
0000
0010
0000
1000
0000
0100
0000
0001
0000
0100
0010
,  // measure 15
0001
0000
0100
0000
0010
0000
0000
0000
0010
0000
0100
0000
0002
0000
0000
0103
,  // measure 16
0001
0000
0010
0000
1000
0000
0010
0000
0001
0000
0100
0000
0010
1000
0100
1000
,  // measure 17
0010
0000
0100
0000
0010
0000
1000
0100
0010
0000
0000
0000
0002
0000
0000
0103
,  // measure 18
0001
0000
0010
0000
1000
0000
0010
0000
0100
0000
1000
0000
0010
0000
0100
0010
,  // measure 19
1000
0000
0100
0000
0010
0000
0000
0000
0001
0000
1000
0000
0100
0010
0000
0010
,  // measure 20
0001
0000
0100
0000
0001
0000
0010
0000
0100
0000
1000
0000
0010
0100
0000
0100
,  // measure 21
0001
0010
0220
0000
0330
0000
0100
0000
,  // measure 22
1000
0000
0010
0000
0100
0000
0001
0010
,  // measure 23
0001
0100
0010
1000
0000
1000
0010
0000
,  // measure 24
1000
0000
0100
0000
0010
0000
0001
0100
,  // measure 25
0001
0010
0100
1000
0000
1000
0010
1000
,  // measure 26
0100
0000
0010
0001
0100
0000
0010
1000
,  // measure 27
0100
1000
0010
0100
0001
0010
0110
0000
,  // measure 28
0100
0000
0000
0000
1001
0000
0000
0000
1000
0000
0000
0000
1020
0000
0000
1030
,  // measure 29
0100
0000
0010
0000
1000
0000
0010
0000
0001
0100
0010
0000
1000
0000
0100
0000
,  // measure 30
0001
0100
1000
2002
3003
0110
0000
0100
,  // measure 31
0010
0000
0001
0000
0010
0000
0220
0000
0330
0000
0101
0000
0000
0000
0010
0100
,  // measure 32
0001
0000
0100
0000
1000
0000
2020
0000
3030
0000
1100
0000
0000
0000
0100
0010
,  // measure 33
1000
0000
0010
0000
0001
0000
0100
1000
0100
0000
0002
0000
0000
0000
0013
0000
,  // measure 34
0001
0000
0100
0000
0001
0000
0010
0000
0100
0000
2000
0000
0000
0000
3010
0100
,  // measure 35
0010
0001
0010
1000
0100
0020
0000
0130
,  // measure 36
1000
0010
0100
0101
0000
1001
0000
1100
,  // measure 37
0000
0000
0100
0010
0100
0000
1000
0001
1000
0000
0000
0000
0001
0000
0100
0000
,  // measure 38
0010
0001
0010
1000
0100
0010
0011
0001
,  // measure 39
0101
0100
0110
0000
0000
0000
1000
0000
,  // measure 40
0100
0000
1000
0010
0000
0010
0110
0100
,  // measure 41
0101
0001
0012
0000
0103
0000
0220
0000
,  // measure 42
0000
0000
0000
0030
0000
0000
0000
0000
0301
0000
0000
0000
2002
0000
0000
0000
,  // measure 43
0000
3000
0013
0220
,  // measure 44
0030
1300
2020
0000
3000
0130
0101
0001
,  // measure 45
0011
0010
0220
0000
0330
0000
2000
0000
,  // measure 46
0000
0000
0000
0000
,  // measure 47
0000
0000
0000
0000
,  // measure 48
0000
0000
0000
0000
,  // measure 49
0000
0000
3000
0001
,  // measure 50
0001
0100
0001
0100
0000
0100
0020
0000
,  // measure 51
0000
0130
0001
0000
1100
0000
0020
0000
,  // measure 52
0000
0130
1000
0000
0101
0000
0020
0000
,  // measure 53
0000
0130
0001
0000
1100
0000
2000
3000
,  // measure 54
1000
0010
0100
0001
0010
0001
0200
0000
,  // measure 55
0000
0310
1000
0000
0101
0000
0020
0000
,  // measure 56
0000
0130
0001
0000
1100
0000
0200
0000
,  // measure 57
0000
0310
0001
0100
1000
0100
0110
0000
,  // measure 58
0000
0000
0000
0000
0000
0000
0000
0001
,  // measure 59
0000
0010
1100
1000
0000
0000
0110
0000
,  // measure 60
0000
0000
0000
0000
0000
0000
0000
1000
,  // measure 61
0000
0000
0010
0000
0101
0000
0001
0000
0000
0000
0000
0000
0001
0010
0000
0010
,  // measure 62
0100
0000
1000
0000
1001
0000
0000
0000
0000
0000
0000
0000
1000
0010
0000
0010
,  // measure 63
0100
0000
0001
0000
1001
0000
0000
0000
0000
0000
0000
0000
0001
0100
0000
0100
,  // measure 64
0010
0000
1000
0000
0100
1000
0000
1000
0010
0000
0100
0000
0001
0010
0001
0100
,  // measure 65
0010
1000
0100
1000
0100
0010
0001
0010
0001
0000
0000
0000
1000
0000
0010
0000
,  // measure 66
0100
0000
0001
0000
1000
0000
0100
0000
0001
0000
0100
0000
0010
0000
0100
0001
,  // measure 67
0010
0000
0100
1000
0010
0000
0100
0001
0010
0000
0100
0000
1000
0000
1000
0000
,  // measure 68
0100
0000
0100
0000
1000
0000
1000
0000
0010
0000
0010
0000
0100
0001
0000
0001
,  // measure 69
0010
0000
0100
0000
1001
0000
0010
0100
0010
0000
0000
0000
1000
0100
0000
0100
,  // measure 70
0001
0000
0100
0000
1000
0010
0000
0010
0001
0000
0010
0000
1000
0100
0000
0100
,  // measure 71
0001
0000
0100
0000
1000
0000
0010
0100
0010
0000
1000
0000
1001
0000
0000
0000
,  // measure 72
0000
0000
0110
0000
0000
0000
0000
0001
,  // measure 73
1000
0001
1001
0000
1000
0000
0001
0100
,  // measure 74
0010
0000
1000
0000
0001
0000
0100
0000
1000
0000
0100
0000
0001
0000
0010
0100
,  // measure 75
0010
0000
0001
0000
0100
0000
1000
0000
0001
0000
1000
0000
0100
0000
0010
1000
,  // measure 76
0100
0000
0100
0000
0010
0000
0010
0001
0100
0000
0100
0000
0100
0001
0000
0001
,  // measure 77
0010
0100
1000
0001
1001
0000
0002
0000
,  // measure 78
0203
0000
0310
0100
0002
0000
0103
0001
,  // measure 79
0010
0100
0001
0100
1000
0010
0100
0000
,  // measure 80
0101
0000
0010
0000
1100
0000
0100
1000
,  // measure 81
0010
0100
0001
0000
0001
1000
0100
0000
,  // measure 82
0100
0010
0001
0100
0001
0000
0001
0100
,  // measure 83
0010
0000
1000
0000
0001
0000
0010
0000
1000
0000
0010
0000
0100
1000
0100
1000
,  // measure 84
0001
0100
0001
0100
0010
0100
0010
0100
1000
0100
1000
0100
0001
0010
0000
0010
,  // measure 85
0001
0000
0100
0000
0110
0000
0000
0000
0000
0000
0000
0000
0002
0000
0000
0103
,  // measure 86
0001
0000
0010
0000
1000
0000
0010
0000
0001
0000
0100
0000
1000
0000
0100
0010
,  // measure 87
1000
0000
0100
0000
0010
0000
0000
0000
0010
0000
0100
0000
2000
0000
0000
3100
,  // measure 88
1000
0000
0010
0000
0001
0000
0010
0000
1000
0000
0100
0000
0010
0001
0100
0001
,  // measure 89
0010
0000
0100
0000
0010
0000
0001
0100
0010
0000
0000
0000
2000
0000
0000
3100
,  // measure 90
1000
0000
0010
0000
0001
0000
0010
0000
0100
0000
0001
0000
0010
0000
0100
0010
,  // measure 91
0001
0000
0100
0000
0010
0000
0000
0000
1000
0000
0001
0000
0100
0010
0000
0010
,  // measure 92
1000
0000
0100
0000
1000
0010
0000
0010
0100
0000
0001
0000
0010
0100
0000
0100
,  // measure 93
1000
0000
0010
0000
0100
0000
0001
0010
0001
0000
0100
0000
0010
1000
0000
1000
,  // measure 94
0100
0001
0100
1000
1001
0000
0220
0000
,  // measure 95
0000
0000
0000
0000
,  // measure 96
0000
0000
0000
0330
;
