#VERSION:0.83;
#TITLE:Random;
#SUBTITLE:;
#ARTIST:Sobrem X Silentroom;
#TITLETRANSLIT:;
#SUBTITLETRANSLIT:;
#ARTISTTRANSLIT:;
#GENRE:;
#ORIGIN:;
#CREDIT:;
#BANNER:;
#BACKGROUND:;
#PREVIEWVID:;
#JACKET:;
#CDIMAGE:;
#DISCIMAGE:;
#LYRICSPATH:;
#CDTITLE:;
#MUSIC:Random.ogg;
#OFFSET:0.633000;
#SAMPLESTART:77.319000;
#SAMPLELENGTH:16.117001;
#SELECTABLE:YES;
#BPMS:0.000=132.000;
#STOPS:;
#DELAYS:;
#WARPS:;
#TIMESIGNATURES:0.000=4=4;
#TICKCOUNTS:0.000=4;
#COMBOS:0.000=1;
#SPEEDS:0.000=1.000=0.000=0;
#SCROLLS:0.000=1.000;
#FAKES:;
#LABELS:0.000=Song Start;
#BGCHANGES:;
#KEYSOUNDS:;
#ATTACKS:
;

//---------------dance-single - ----------------
#NOTEDATA:;
#CHARTNAME:;
#STEPSTYPE:dance-single;
#DESCRIPTION:;
#CHARTSTYLE:;
#DIFFICULTY:Easy;
#METER:9;
#RADARVALUES:0.311585,0.454056,0.192232,0.140477,0.062845,295.000000,269.000000,26.000000,19.000000,0.000000,0.000000,0.000000,0.000000,0.000000,0.311585,0.454056,0.192232,0.140477,0.062845,295.000000,269.000000,26.000000,19.000000,0.000000,0.000000,0.000000,0.000000,0.000000;
#CREDIT:coffeeaccount;
#NOTES:
0000
0000
0000
0000
,
0000
0000
0000
0000
,
0000
0000
0000
0000
,
1000
0000
0010
0000
,
0100
0000
0001
0010
,
0100
0010
0001
0100
,
0020
2030
3002
0013
,
0100
0100
0010
0010
,
0001
0001
0100
0110
,
1000
0010
1000
0010
0100
0001
1000
0010
,
0100
0001
0010
0200
,
1300
0100
0010
0002
,
1003
0001
0100
0020
,
0000
0230
0000
0020
,
0000
0330
0100
1001
,
0101
0000
1001
0000
0001
1000
0000
0100
,
1000
0100
0000
0000
0010
0000
0011
0000
,
1100
0000
0011
0001
0101
0200
0000
0000
,
0000
0000
0000
0300
,
0000
0000
0000
0001
,
0000
0000
0000
0000
,
0000
0000
1000
0100
,
0010
0000
0000
0000
0001
0000
0000
0000
0100
0000
0000
0010
0000
0000
0100
0000
,
0010
1000
0001
0010
0100
1000
0001
0000
,
1000
0011
0001
1010
,
0001
0000
0100
0000
0010
1000
0100
0000
,
0010
0001
0010
0001
0010
0100
1000
0001
,
1000
0001
0100
0020
,
1030
0100
0010
0200
,
1300
0100
1000
0020
,
0130
0010
1000
0002
,
1003
0000
0001
1000
0001
0000
0100
0000
,
0100
0000
0000
0010
0000
1000
0000
0100
,
0100
0010
0100
1100
,
0000
1000
0000
0001
0000
0000
0000
0000
0000
0100
0000
0010
0000
0000
0000
0000
,
0000
1000
0000
0010
0000
0000
0000
0000
0100
0000
0000
0000
0202
0000
0000
0000
,
0000
0000
0000
0000
,
0000
0000
0000
0303
,
0000
0000
0000
0000
,
0000
0000
0000
0000
0000
0000
0000
1000
,
0000
0100
0000
0000
0010
0000
0000
0001
0000
0000
0000
0000
0001
0000
0010
0000
,
0000
0100
0000
0000
0010
0000
0000
0001
0000
0010
0000
0100
0000
0000
1000
0000
,
0000
0000
0000
0010
0000
0000
0000
0000
0000
0000
0000
0000
1000
0000
0000
0000
0000
0000
0000
0000
0001
0000
0000
0000
0000
0000
0000
1000
0000
0000
0000
0000
0000
0000
0000
0000
0000
0000
0000
0000
0000
0000
0000
0000
0000
0000
0000
0000
,
0000
0000
0000
0010
,
2001
0000
3100
0100
,
1000
0000
0010
0100
0000
0100
0010
0000
,
1000
0000
0001
0010
0000
0200
0000
0000
,
0000
0000
0300
0010
0000
0010
0100
0000
,
1000
0000
0010
0000
0100
0001
0000
0000
,
0010
0001
0000
1000
0001
1000
0000
0001
,
0010
0100
1000
0001
0010
0100
0000
0000
,
0000
0000
0000
0100
,
2001
0000
3010
0100
,
0001
0000
0010
0100
0000
0010
0011
0000
,
0110
1100
1010
0101
,
0110
1010
0110
0010
,
1000
0000
0010
0000
0100
0001
0000
0000
,
0010
0100
0000
0000
0100
1000
0000
0001
,
1000
0001
1000
0001
1000
0001
1000
0001
,
1000
0001
1000
0001
1000
0001
0000
0000
,
0000
0000
0000
0100
,
0001
0000
0010
0001
,
0100
0000
1000
0000
0100
0000
0010
1000
,
0100
0000
0010
0001
,
0011
1100
0011
1001
,
0001
0100
0001
0010
,
0100
0010
0001
1000
,
0010
0001
0010
0000
,
0100
0010
1000
0000
,
0001
1000
0001
1000
0001
1000
0001
1000
,
0001
1000
0001
1000
0001
1000
0001
1000
,
0001
1000
0001
1000
0001
1000
0000
0000
,
0000
0020
0000
0000
0030
0000
0000
0000
0000
0000
0000
0000
0000
0000
0000
0000
;

//---------------dance-single - ----------------
#NOTEDATA:;
#CHARTNAME:;
#STEPSTYPE:dance-single;
#DESCRIPTION:;
#CHARTSTYLE:;
#DIFFICULTY:Medium;
#METER:11;
#RADARVALUES:0.395027,0.480766,0.147871,0.473187,0.118297,374.000000,354.000000,20.000000,64.000000,0.000000,0.000000,2.000000,0.000000,0.000000,0.395027,0.480766,0.147871,0.473187,0.118297,374.000000,354.000000,20.000000,64.000000,0.000000,0.000000,2.000000,0.000000,0.000000;
#CREDIT:coffeeaccount;
#NOTES:
0000
0000
0000
0000
,
0000
0000
0000
0000
,
0000
0000
0000
0000
,
1000
0000
0000
1000
0000
0000
0000
0000
0001
0000
0000
0001
0000
0000
0000
0000
,
0100
0000
0000
0100
0000
0000
0000
0000
0010
0000
1000
0000
0010
0000
0100
0000
,
0001
0000
0010
0000
1000
0000
0010
0000
0001
0000
0000
2000
0000
0000
0000
0000
,
0100
0000
0000
0000
0010
0000
0000
0000
3001
0000
0000
0000
1001
0000
0000
0001
,
0000
0000
0010
0000
0100
0000
0000
0100
0000
0000
1000
0000
0001
0000
0000
0001
,
0000
0100
0010
1000
0100
0000
0011
0000
,
0001
0100
1000
0100
0010
1000
0001
0010
,
0100
0010
0001
2010
,
3001
1000
0100
0012
,
0103
0010
1000
0002
,
0000
2003
0000
0002
,
0000
3003
0010
1001
,
0101
0000
0001
0010
0100
0110
0000
0100
,
1000
1010
0000
1000
0010
0100
0100
0001
,
0010
0000
1000
0000
0010
0000
0001
0000
0101
0000
0400
0040
0000
0000
0000
0000
,
0000
0000
0000
0000
0000
0000
0000
0330
,
0000
0000
0000
0010
,
0000
0000
0000
0100
0010
1000
0010
0100
,
0001
0010
0100
0010
0001
1000
0010
0100
,
0001
0000
0010
0000
0100
0000
0010
0000
0001
0000
1000
0001
0000
0000
2000
0000
,
3200
0320
0032
2003
3020
0230
0301
0000
,
1000
0000
0000
0100
0000
0000
0000
0000
1000
0000
0000
0001
0000
0000
0000
0000
,
0100
0001
0010
1000
0010
0001
1001
0000
,
0001
0001
0100
0010
1000
0100
0010
0100
,
1000
0000
0001
0001
0100
0010
2000
0000
,
3100
0000
0010
0100
1000
0010
0200
0000
,
0301
0000
0010
0010
0100
0100
0020
0000
,
0031
0000
0100
0001
1000
0100
0020
0000
,
0031
0000
1000
1000
1000
0000
0001
0000
,
0001
0000
0010
0001
0010
0100
0000
0010
,
0010
0001
1000
0000
0001
0000
0110
0000
,
0000
1010
0000
0011
0000
0000
0000
0000
0000
0011
0000
1100
0000
0000
0000
0000
,
0000
1001
0000
0110
0000
0000
0000
0000
1020
0000
0000
0000
0230
0000
0000
0000
,
0000
0000
0000
0000
,
0000
0000
0000
0300
,
0000
0000
0000
0000
,
0000
0000
0000
0000
0000
0000
0010
2000
,
0000
3200
0000
0000
0320
0000
0000
0031
0000
0000
0000
0000
0010
0000
0200
0000
,
0000
0320
0000
0000
0032
0000
0000
2003
0000
3020
0000
0230
0000
0000
0302
0000
,
0000
0000
0000
0023
0000
0000
0000
0000
0000
0000
0000
0000
0032
0000
0000
0000
0000
0000
0000
0000
0000
1003
0000
0000
0000
0000
0000
0000
0001
0000
0000
0000
0000
0000
0000
0000
0000
0000
0000
0000
0000
0000
0000
0000
0000
0000
0000
0000
,
0000
0000
0000
0010
,
2001
0000
0000
0000
0000
0000
3100
0000
1000
0000
0010
0000
0100
0000
0000
0100
,
0000
0100
0010
2000
0000
3100
0020
0000
,
0230
0000
1300
0002
0000
0200
0000
0000
,
0000
0000
0303
0002
0000
0013
0100
0100
,
0010
0001
0010
0100
0010
0002
0000
0000
,
1000
1003
0000
0001
0100
0020
0000
2030
,
3200
0320
0032
0023
0230
2300
3000
0000
,
0000
0000
0000
0100
,
1002
0000
0000
0000
0000
0000
0010
0000
0000
0000
0013
0000
0100
0000
0000
0010
,
0000
0100
1000
0020
0000
0130
0002
0000
,
0203
0320
2030
3002
,
0023
0000
0230
0000
2300
0000
3001
1000
,
0100
1000
0001
0010
0001
0100
0000
0000
,
0020
0200
0000
0330
0002
2003
0000
3100
,
0100
0010
0010
0001
0001
0100
0100
0010
,
0010
1000
1000
0001
0001
0001
0000
0000
,
0000
0000
0000
0000
1000
0100
0010
0100
,
1000
0000
0000
0000
0010
1000
0001
0010
,
0001
0000
0000
0100
0000
0000
0010
0000
0000
1000
0000
0000
0100
0000
0000
0010
0000
0000
0100
0000
1000
0000
0010
0000
,
0100
0000
0000
0000
0000
0010
0100
0001
,
0020
0000
0230
0000
2300
0000
3010
0100
,
0001
0010
0001
1000
0100
0010
0001
1000
,
0010
1000
0001
0010
0100
0010
0001
0100
,
0010
1000
0010
0100
0001
0010
0000
0100
,
0010
0001
0100
1000
0100
0001
0000
0000
,
1000
1000
0001
0001
1000
1000
0001
0001
,
1000
1000
0001
0001
1000
1000
0001
0001
,
1000
1000
0001
0001
1000
1000
0000
0000
,
0000
0001
0100
0010
1000
0000
0000
0000
0000
0000
0000
0000
0000
0000
0000
0000
;

//---------------dance-single - ----------------
#NOTEDATA:;
#CHARTNAME:;
#STEPSTYPE:dance-single;
#DESCRIPTION:;
#CHARTSTYLE:;
#DIFFICULTY:Hard;
#METER:16;
#RADARVALUES:0.565079,0.881404,0.170052,0.451007,0.469490,535.000000,512.000000,23.000000,61.000000,0.000000,0.000000,0.000000,0.000000,0.000000,0.565079,0.881404,0.170052,0.451007,0.469490,535.000000,512.000000,23.000000,61.000000,0.000000,0.000000,0.000000,0.000000,0.000000;
#CREDIT:coffeeaccount;
#NOTES:
// measure 0
0000
0000
0000
0000
,  // measure 1
0000
0000
0000
0000
,  // measure 2
0000
0000
0000
0000
,  // measure 3
1000
0000
0000
0100
0000
0000
0000
0000
0010
0000
0000
0100
0000
0000
0000
0000
,  // measure 4
0010
0000
0000
0001
0000
0000
0000
0000
0010
0000
0100
0000
1000
0000
0100
0000
,  // measure 5
1000
0000
0001
0000
0100
0000
0001
0000
0010
0000
0001
0200
0000
0000
0000
0000
,  // measure 6
0320
0032
0023
1030
,  // measure 7
0001
0000
0100
0010
0000
0000
0000
0000
1000
0010
0000
0100
0000
0000
0000
0000
,  // measure 8
0010
0100
0001
0010
1000
0010
1001
0000
,  // measure 9
1100
0100
0011
0001
1010
0001
1001
0010
,  // measure 10
1001
0000
0001
0100
1000
0010
0002
0000
,  // measure 11
1003
0000
1000
0100
0001
0010
2000
0000
,  // measure 12
3001
0000
0001
0100
1000
0010
0002
0000
,  // measure 13
0000
2003
0000
0002
,  // measure 14
0000
0000
3003
0000
1000
0001
0101
0100
,  // measure 15
0001
0010
0110
0100
0010
0011
0000
0010
,  // measure 16
0100
1100
0000
0000
0010
0001
1001
0010
,  // measure 17
1001
0000
0100
0000
0101
0000
0010
0000
1100
0000
0100
0010
0001
0100
0010
1000
,  // measure 18
0001
0010
1000
0010
0001
1000
0100
0001
0100
1000
0010
1000
0001
0010
0100
0000
,  // measure 19
0000
0000
0000
0000
0000
0000
0022
0033
,  // measure 20
0000
0000
0000
0000
0000
0000
1000
0100
1000
0100
0010
0001
0010
0001
0100
0010
,  // measure 21
1000
0001
0100
0010
1000
0001
0100
0010
1000
0001
0010
0001
1000
0000
0001
0000
,  // measure 22
0100
0000
0010
0000
1000
0000
0001
0000
0010
0000
0100
2000
0000
0000
3002
0003
,  // measure 23
0002
0003
0200
0300
0200
0300
0020
0030
0020
0030
2000
0000
0200
0000
3300
0000
,  // measure 24
0010
0001
0000
1100
0000
0000
0000
0000
1000
0010
0000
0101
0000
0000
0000
0000
,  // measure 25
0001
0100
1000
0100
0001
0100
1001
0000
,  // measure 26
0001
0010
1000
0010
0001
0100
1000
0100
,  // measure 27
0001
0000
1000
0100
0001
0010
2000
0000
,  // measure 28
3001
0000
0001
0100
1000
0010
0002
0000
,  // measure 29
1003
0000
1000
0100
0001
0010
2000
0000
,  // measure 30
3001
0000
0001
0100
1000
0010
0002
0000
,  // measure 31
1003
0000
0010
0010
0010
0000
1000
0000
,  // measure 32
1000
0000
1000
0100
0010
0100
0000
0010
,  // measure 33
0010
0000
0100
0000
1000
0000
0000
0000
1000
0000
0000
0000
0010
1000
0100
1000
,  // measure 34
0100
0001
0100
0010
0001
1000
0001
1000
0001
0010
0100
1000
0100
0001
1000
0010
,  // measure 35
0001
1000
0100
0010
0001
1000
0100
0001
0100
1000
0010
0100
0020
0000
0000
0000
,  // measure 36
0000
0000
0000
0000
,  // measure 37
0000
0000
0000
0030
,  // measure 38
0000
0000
0000
0000
,  // measure 39
0000
0000
0000
0000
0000
0000
0000
0000
0000
0000
0000
0000
1002
0000
0013
0001
,  // measure 40
0010
1000
0001
0010
1000
0010
0001
0100
0000
0000
0000
0000
1000
0100
0001
0100
,  // measure 41
0010
0001
0010
1000
0100
0010
1000
0001
0000
0010
0000
0010
0100
0001
0100
1000
,  // measure 42
0001
0100
0010
1000
0001
0010
1000
0010
0001
0100
0000
0000
0000
0000
0001
0000
,  // measure 43
0010
0000
0100
0000
1000
0000
0010
0000
0100
0000
0001
0020
0000
0000
0000
0000
,  // measure 44
0230
0000
0000
0000
0000
0000
0310
0000
0001
0000
1000
0000
0001
0000
0000
1010
,  // measure 45
0000
0000
1000
0001
1000
0000
0201
0000
0000
0000
0310
0000
2000
0000
0000
0000
,  // measure 46
3200
0000
0310
0002
0000
0203
0000
0000
,  // measure 47
0010
0000
0310
2000
0000
3100
0010
0010
,  // measure 48
0001
1000
0010
0001
0010
2000
0000
0000
,  // measure 49
0001
0000
0002
0000
3003
0000
1000
0000
0010
0000
0200
0000
0000
0000
0002
0300
,  // measure 50
0020
0003
0200
0030
2000
0300
0200
3000
0020
0300
0002
0000
0033
0000
1000
0000
,  // measure 51
0010
0100
0010
1000
0010
0100
0001
0010
0001
1000
0010
0100
0002
0000
0000
0000
,  // measure 52
0010
0000
0000
0000
0013
0000
1000
0000
0010
0000
0001
0010
0100
0000
0000
0010
,  // measure 53
0000
0001
0000
1020
0000
0130
0002
0000
,  // measure 54
0203
2300
3200
0320
,  // measure 55
2030
0000
3002
0000
0023
0000
0130
0010
,  // measure 56
0001
0010
0100
0010
0001
2000
0000
3010
,  // measure 57
0100
0002
0000
0013
0100
0020
0000
0100
,  // measure 58
0100
0100
0100
0100
0100
0100
0100
0100
,  // measure 59
0100
0100
0100
0100
0100
0100
0030
0000
,  // measure 60
0000
0000
0000
0000
0000
0000
0000
0000
1000
0010
0100
1000
0100
0010
0100
1000
,  // measure 61
0001
0000
0000
0000
0000
0000
0000
0000
0100
0001
0010
0001
1000
0100
1000
0001
,  // measure 62
0100
0000
0000
1000
0000
0000
0100
0000
0000
0001
0000
0000
0000
0000
0000
1000
0000
0000
0100
0000
0000
0010
0000
0000
0100
0000
0000
1000
0000
0000
0001
0000
0000
0100
0000
0000
0001
0000
0000
0000
0010
0000
0000
0000
0000
0100
0000
0000
,  // measure 63
1000
0000
0000
0000
0000
0000
0000
0000
0000
0000
0000
0000
0000
0000
0000
0000
0000
0000
0100
0000
0000
0010
0000
0000
0000
0000
0000
0000
0000
0000
0100
0000
0010
0000
0100
0000
0010
0000
0000
0001
0000
0000
0100
0000
0000
0010
0000
0000
,  // measure 64
0200
0000
0000
0000
0320
0000
0000
0000
2030
0000
0000
0000
3001
0010
0100
1000
,  // measure 65
0001
1000
0100
0000
0001
0010
0001
1000
0100
1000
0010
0100
0001
0010
0100
0010
,  // measure 66
0001
1000
0100
1000
0010
0001
0010
1000
0001
0010
1000
0010
0001
1000
0100
1000
,  // measure 67
0100
0010
0001
0100
0001
1000
0001
0010
0001
1000
0100
0010
0000
0000
0100
0000
,  // measure 68
0010
0001
1000
0010
0100
0001
0000
0000
,  // measure 69
0210
0010
0010
0010
0010
0010
0010
0010
,  // measure 70
0010
0010
0010
0010
0010
0010
0010
0010
,  // measure 71
0010
0010
0010
0010
0010
0010
0300
0000
,  // measure 72
0000
0000
1000
0100
0010
0001
1000
0000
0000
0000
0000
0000
0000
0000
0000
0000
0000
0000
0000
0000
0000
0000
0000
0000
;
