#VERSION:0.83;
#TITLE:Raining Tacos;
#SUBTITLE:;
#ARTIST:Parry Gripp;
#TITLETRANSLIT:;
#SUBTITLETRANSLIT:;
#ARTISTTRANSLIT:;
#GENRE:;
#ORIGIN:;
#CREDIT:;
#BANNER:;
#BACKGROUND:;
#PREVIEWVID:;
#JACKET:;
#CDIMAGE:;
#DISCIMAGE:;
#LYRICSPATH:;
#CDTITLE:;
#MUSIC:Raining Tacos.ogg;
#OFFSET:-0.020000;
#SAMPLESTART:20.888000;
#SAMPLELENGTH:15.000000;
#SELECTABLE:YES;
#BPMS:0.000=138.000,
140.000=69.000,
156.000=138.000;
#STOPS:;
#DELAYS:;
#WARPS:;
#TIMESIGNATURES:0.000=4=4;
#TICKCOUNTS:0.000=4;
#COMBOS:0.000=1;
#SPEEDS:0.000=1.000=0.000=0;
#SCROLLS:0.000=1.000;
#FAKES:;
#LABELS:0.000=Song Start;
#BGCHANGES:;
#KEYSOUNDS:;
#ATTACKS:
;

//---------------dance-single - ----------------
#NOTEDATA:;
#CHARTNAME:;
#STEPSTYPE:dance-single;
#DESCRIPTION:;
#CHARTSTYLE:;
#DIFFICULTY:Easy;
#METER:3;
#RADARVALUES:0.124072,0.201578,0.075056,0.182278,0.000000,81.000000,74.000000,7.000000,17.000000,0.000000,0.000000,0.000000,0.000000,0.000000,0.124072,0.201578,0.075056,0.182278,0.000000,81.000000,74.000000,7.000000,17.000000,0.000000,0.000000,0.000000,0.000000,0.000000;
#CREDIT:jumpropemayonnaise;
#NOTES:
0000
0000
0000
0000
,
0000
0000
0000
0000
,
1000
0000
0000
0000
,
0000
0000
0000
0000
,
0001
0000
0000
0000
,
0000
0000
0000
0000
,
1000
0000
0000
0000
,
1000
0000
0000
0000
,
0001
0000
0000
0000
,
0000
0000
0000
0000
,
0100
0000
0100
0000
,
0100
0100
0100
0000
,
0010
0000
0010
0000
,
0010
0010
0010
0000
,
2000
0000
0000
3000
,
2000
0000
0000
3000
,
0002
0000
0000
0000
,
0100
0000
0103
0000
,
0200
0000
0010
0010
,
0310
0000
0000
0000
,
2002
0000
0000
3003
,
0220
0330
0220
0330
,
0020
0000
0100
0100
,
0130
0000
0000
0000
,
2002
0000
0000
3003
,
0100
0100
0100
0100
,
0100
0000
0000
0000
,
0010
0010
0010
0010
,
0000
0000
0000
0000
,
0001
0001
0001
0001
,
0000
0000
0000
0000
,
1000
1000
1000
1000
,
0000
0000
0000
0000
,
1001
0000
1001
0000
,
1001
0000
0000
0000
,
0200
0000
0000
0300
,
2000
0000
0000
3000
,
0002
0000
0000
0003
,
0200
0000
0000
0300
,
0010
0000
0010
0000
,
0010
0000
0010
0000
,
1000
0000
1000
0000
,
1000
0000
1000
0000
,
0100
0000
0100
0000
,
0100
0000
0100
0000
,
0100
0000
0000
0000
,
0001
0001
0001
0001
,
0001
0000
0000
0000
;

//---------------dance-single - ----------------
#NOTEDATA:;
#CHARTNAME:;
#STEPSTYPE:dance-single;
#DESCRIPTION:;
#CHARTSTYLE:;
#DIFFICULTY:Medium;
#METER:7;
#RADARVALUES:0.286437,0.360268,0.139389,0.278779,0.000000,187.000000,174.000000,13.000000,26.000000,0.000000,0.000000,0.000000,0.000000,0.000000,0.286437,0.360268,0.139389,0.278779,0.000000,187.000000,174.000000,13.000000,26.000000,0.000000,0.000000,0.000000,0.000000,0.000000;
#CREDIT:jumpropemayonnaise;
#NOTES:
0000
0000
0000
0000
,
0000
0000
0000
0000
,
1000
0100
1000
0000
,
0001
0100
0001
0000
,
0010
0001
0100
0000
,
0010
1000
0100
0000
,
0010
0100
1000
0001
,
0100
0010
1000
0001
,
0020
0000
0032
0000
,
1003
0100
0010
0001
,
0100
0100
0100
0100
,
0100
0001
0100
0000
0010
1000
0010
1000
,
0100
0100
0100
0100
,
0100
1000
0100
0000
0010
0001
1000
0010
,
1000
0100
1000
0010
0000
0000
0100
0000
,
0010
0000
0001
0010
0000
0100
0010
0000
,
0001
0100
0010
1000
,
0100
1000
0010
0100
,
0001
0000
0001
0000
0001
1000
0001
1000
,
0000
0100
0100
1000
,
2002
0000
0000
3003
,
0220
0330
0220
0330
,
1000
0000
1000
0000
1000
0001
1000
0001
,
0000
0100
0100
0001
,
2002
0000
0000
3003
,
0001
0000
0001
0000
0001
1000
0001
0000
,
0010
0000
0010
0000
,
0010
0001
0100
0010
1000
0000
0100
1000
,
0010
0000
0010
0000
,
0010
1000
0100
0010
0001
0000
0100
0001
,
2000
3010
0002
0013
,
1000
0010
0100
0001
0010
0000
0100
0010
,
0002
0103
2000
3100
,
1001
1001
1001
1001
,
1001
0000
0000
0000
,
2001
0000
0200
3300
,
1002
0000
0200
0303
,
0120
0000
0230
0302
,
0023
0000
0230
2300
,
3010
0100
0010
1000
,
0100
0010
0001
0100
,
0001
1000
0010
0100
,
0010
1000
0001
0010
,
0100
0010
0100
1000
,
0010
0100
0001
0010
,
0001
1000
0100
0010
,
0100
1000
0001
0100
,
0220
0000
0000
0000
,
0330
0000
0000
0000
;

//---------------dance-single - ----------------
#NOTEDATA:;
#CHARTNAME:;
#STEPSTYPE:dance-single;
#DESCRIPTION:;
#CHARTSTYLE:;
#DIFFICULTY:Hard;
#METER:10;
#RADARVALUES:0.384469,0.463201,0.150112,0.225167,0.010722,251.000000,237.000000,14.000000,21.000000,0.000000,0.000000,0.000000,0.000000,0.000000,0.384469,0.463201,0.150112,0.225167,0.010722,251.000000,237.000000,14.000000,21.000000,0.000000,0.000000,0.000000,0.000000,0.000000;
#CREDIT:jumpropemayonnaise;
#NOTES:
// measure 0
0000
0000
0000
0000
,  // measure 1
0000
0000
0000
0000
,  // measure 2
1000
1000
1000
1000
,  // measure 3
1000
1000
1000
1000
,  // measure 4
0001
0001
0001
0001
,  // measure 5
0001
0001
0001
0001
,  // measure 6
0100
0100
0100
0100
,  // measure 7
0010
0010
0010
0010
,  // measure 8
1000
1000
1000
1000
,  // measure 9
0001
0001
0001
0001
,  // measure 10
1000
0001
0100
0000
0001
1000
0100
0000
,  // measure 11
1000
0001
0100
0010
0000
0010
0100
0000
,  // measure 12
0001
1000
0100
0000
1000
0001
0100
0000
,  // measure 13
0001
1000
0100
0010
0000
0010
0100
0000
,  // measure 14
1000
0010
0100
0001
0000
0001
0010
0000
,  // measure 15
0001
0000
1000
0010
0000
0010
0100
0001
,  // measure 16
1000
0000
1000
0000
1000
0000
0100
0010
,  // measure 17
0000
0010
0001
0000
1001
0000
0110
0000
,  // measure 18
1001
0000
1001
0000
0001
0010
0100
1000
,  // measure 19
0000
0000
0010
0000
0010
0000
0100
0002
,  // measure 20
0000
0000
0010
0000
0013
0001
0100
0020
,  // measure 21
0000
0130
0100
0001
1001
0000
0110
0000
,  // measure 22
1001
0000
1001
0000
1000
0010
0100
0001
,  // measure 23
0000
0000
0010
0100
0010
0001
0000
2000
,  // measure 24
0000
0000
0010
0000
3010
1000
0100
0020
,  // measure 25
0000
0130
1000
0010
0100
0001
0010
0100
,  // measure 26
1000
0000
0001
0000
,  // measure 27
1000
0001
0010
0100
1000
0001
0100
0010
,  // measure 28
1000
0000
0001
0000
,  // measure 29
1000
0001
0100
0010
1000
0001
0010
0100
,  // measure 30
2000
3010
0002
0013
,  // measure 31
1000
0001
0010
0100
1000
0001
0100
0010
,  // measure 32
2000
3010
0002
0013
,  // measure 33
0011
1100
1010
0101
,  // measure 34
1001
0000
0000
0000
,  // measure 35
2000
0000
0000
3002
0203
0000
0000
0000
,  // measure 36
0302
0000
0000
2003
3200
0000
0000
0000
,  // measure 37
0320
0000
0000
0230
2300
0000
3020
0000
,  // measure 38
0230
0000
0010
0000
0310
0000
0100
0001
0000
0001
0010
0000
0010
0000
0100
0000
,  // measure 39
1000
1000
0010
0100
0001
0010
0100
1000
,  // measure 40
0001
0100
0001
0010
0100
1000
0100
0000
,  // measure 41
0010
0001
0010
0100
1000
0010
0100
0001
,  // measure 42
1000
0100
1000
0010
0100
0001
0100
0000
,  // measure 43
0100
0001
0100
0010
1000
0100
0010
0001
,  // measure 44
1000
0010
1000
0100
0010
0001
0100
0010
,  // measure 45
0100
0000
0100
0000
0100
0000
0100
0001
,  // measure 46
0000
0001
0010
0000
0010
0000
0100
1000
,  // measure 47
0000
2002
0000
0000
0000
0000
0000
0000
,  // measure 48
3003
0000
0000
0000
;
