#VERSION:0.83;
#TITLE:Primitive Vibes;
#SUBTITLE:;
#ARTIST:lapix;
#TITLETRANSLIT:;
#SUBTITLETRANSLIT:;
#ARTISTTRANSLIT:;
#GENRE:;
#ORIGIN:;
#CREDIT:;
#BANNER:;
#BACKGROUND:;
#PREVIEWVID:;
#JACKET:;
#CDIMAGE:;
#DISCIMAGE:;
#LYRICSPATH:;
#CDTITLE:;
#MUSIC:Primitive Vibes.ogg;
#OFFSET:-1.089000;
#SAMPLESTART:92.289001;
#SAMPLELENGTH:15.000000;
#SELECTABLE:YES;
#BPMS:0.000=150.000;
#STOPS:;
#DELAYS:;
#WARPS:;
#TIMESIGNATURES:0.000=4=4;
#TICKCOUNTS:0.000=4;
#COMBOS:0.000=1;
#SPEEDS:0.000=1.000=0.000=0;
#SCROLLS:0.000=1.000;
#FAKES:;
#LABELS:0.000=Song Start;
#BGCHANGES:;
#KEYSOUNDS:;
#ATTACKS:
;

//---------------dance-single - ----------------
#NOTEDATA:;
#CHARTNAME:;
#STEPSTYPE:dance-single;
#DESCRIPTION:;
#CHARTSTYLE:;
#DIFFICULTY:Easy;
#METER:8;
#RADARVALUES:0.360121,0.504938,0.514929,0.184452,0.000000,328.000000,261.000000,67.000000,24.000000,0.000000,0.000000,0.000000,0.000000,0.000000,0.360121,0.504938,0.514929,0.184452,0.000000,328.000000,261.000000,67.000000,24.000000,0.000000,0.000000,0.000000,0.000000,0.000000;
#CREDIT:acidghost;
#NOTES:
0000
0000
0000
0000
,
0000
0000
0000
0000
,
0000
0000
0000
0000
,
0000
0000
0000
0000
,
0000
0000
0000
0000
,
0001
0100
0001
0100
,
0010
1000
0001
0010
,
0100
1000
0100
1000
,
0010
0100
2002
3003
,
0001
0010
0001
0010
,
1000
0010
0001
0001
,
1000
0010
1000
0010
,
0001
0010
1000
1000
,
0001
0001
0100
0100
,
1000
1000
0010
0010
,
0002
0000
0000
0000
,
1003
1000
0001
0001
,
0100
0101
1010
0101
,
1000
1100
0011
1100
,
1000
0110
0001
0110
,
1000
0110
0002
0003
,
0100
0101
0001
0011
,
0100
1100
1000
1010
,
0100
0110
1000
0110
,
0001
1000
2002
3003
,
1100
1010
1100
1010
,
0101
0011
0101
0011
,
0110
1000
0110
0001
,
0110
1000
0020
0230
,
0301
0011
0101
1100
,
0010
1010
1100
0101
,
0010
0011
0100
0101
,
0010
0100
0010
0110
,
1000
0000
0100
1000
0100
0000
1000
0000
,
0010
0000
0100
0010
0100
0000
0010
0000
,
0100
0000
0001
0100
0001
0000
0100
0000
,
0001
0000
0010
0001
0010
0000
0000
0000
,
0110
0000
0010
0000
0001
0000
0100
0001
,
0100
0000
0010
0000
0100
0000
0010
1000
,
0010
0000
1000
0000
0100
0000
1000
0100
,
2000
0000
3002
0000
,
0103
0000
0010
0000
,
1000
0001
1001
0000
,
0010
0000
0100
0000
,
0010
0001
1001
0000
,
0002
0000
0203
0000
,
1300
0100
0001
0100
,
0020
0000
0230
0000
,
0310
0100
0010
0110
,
1000
0100
0001
0100
,
1000
0000
0100
0000
0010
0100
0010
0000
,
0001
0100
1000
0100
,
0001
0000
0100
0000
0010
0100
0010
0000
,
1000
1100
1010
1001
,
0001
0011
0101
1001
,
0220
0000
0000
0330
,
1000
1000
0001
0001
,
1000
0101
1000
0011
,
1000
0101
0010
1000
,
0001
0110
0001
1100
,
0001
0100
0220
0330
,
0100
1001
0100
1010
,
0100
1001
0100
0001
,
0010
1100
0010
1001
,
0010
0100
0010
0000
0100
0010
0100
0000
,
2002
0003
3010
2002
,
3000
0000
0013
0000
0100
0100
0100
0000
,
1000
0000
0010
0000
1000
0100
0010
0000
,
0001
1000
2002
3003
,
1000
1100
0101
1100
,
0010
0000
0010
0000
0100
0010
0100
0000
,
1000
0010
0001
0010
,
0100
0010
1000
1001
,
0110
0000
0000
0000
;

//---------------dance-single - ----------------
#NOTEDATA:;
#CHARTNAME:;
#STEPSTYPE:dance-single;
#DESCRIPTION:;
#CHARTSTYLE:;
#DIFFICULTY:Medium;
#METER:12;
#RADARVALUES:0.528104,0.504938,0.153710,0.038428,0.215194,481.000000,461.000000,20.000000,5.000000,0.000000,0.000000,0.000000,0.000000,0.000000,0.528104,0.504938,0.153710,0.038428,0.215194,481.000000,461.000000,20.000000,5.000000,0.000000,0.000000,0.000000,0.000000,0.000000;
#CREDIT:acidghost;
#NOTES:
0000
0000
0000
0000
,
0000
0000
0000
0000
,
0000
0000
0000
0000
,
0000
0000
0000
0000
,
0000
0000
0000
0000
,
1000
0000
0100
0000
0001
0000
0100
0000
1000
0000
0000
1000
0000
0000
1000
0000
,
0001
0000
0100
0000
1000
0000
0100
0000
0001
0000
0000
0001
0000
0000
0000
0000
,
1000
0000
0010
0000
0001
0000
0010
0000
1000
0000
0000
1000
0000
0000
1000
0000
,
0100
0010
0001
0010
0100
0100
0100
0000
,
1000
0000
0010
0000
1000
0100
1000
0000
,
0001
0000
0010
0000
0001
0100
0001
0000
,
1000
0000
0100
0000
1000
0010
1000
0000
,
0001
0000
0100
0000
0001
0010
0001
0000
,
0100
0100
0010
0100
0010
0010
0100
0010
,
1000
0100
0001
0100
1000
0100
0001
0100
,
2000
0000
0000
3000
,
0001
0101
0110
1010
,
1001
0000
0000
0001
1000
0000
0000
1000
0100
0000
0000
0100
0010
0000
0000
0010
,
0001
0000
0000
0001
1000
0000
0000
1000
0010
0000
0000
0010
0100
0000
0000
0000
,
1001
0000
0000
0001
0010
0000
0100
0000
0100
0000
0000
1000
0010
0000
0010
0000
,
0100
0000
0000
0001
0010
0000
0010
0000
0200
0000
0000
0000
0300
0000
0000
0000
,
0011
0000
0000
0001
0100
0000
0000
0100
0010
0000
0000
0010
1000
0000
0000
0000
,
1010
0000
0000
1000
0100
0000
0000
0100
0010
0000
0000
0010
0001
0000
0000
0000
,
0101
0000
0000
0100
1000
0000
0000
1000
0100
0000
0000
0100
0001
0000
0000
0000
,
0001
0010
0100
1000
0001
0001
0001
0000
,
1000
0000
0000
1000
0100
0000
0000
0100
0001
0000
0000
0001
0100
0000
0000
0100
,
1000
0000
0000
1000
0010
0000
0000
0010
0001
0000
0000
0001
0010
0000
0000
0010
,
1000
0000
0000
1000
0100
0000
0000
0100
0010
0000
0000
0010
0001
0000
0000
0001
,
0100
0000
0000
0100
0010
0000
0000
0010
1000
0000
0001
0000
1000
0000
0001
0000
,
0100
0000
0000
0100
0010
0000
0000
1000
0100
0000
0000
0100
0010
0000
0000
0001
,
0100
0000
0000
0100
0010
0000
0000
0010
1000
0000
0000
0100
0010
0000
0010
0000
,
0001
0000
0000
0100
1000
0000
0100
0000
0001
0000
0000
1000
0100
0000
0001
0000
,
0100
1000
1000
0001
1000
1000
0110
0000
,
0001
0010
0100
1000
0001
0100
0010
1000
,
0010
0100
0001
0010
0100
1000
0001
0010
,
0001
1000
0010
0100
0001
0010
0100
1000
,
0001
1000
0010
0100
0001
0010
0100
1000
,
0001
0010
1000
0010
0001
0100
0010
1000
,
0001
0100
1000
0100
0001
1000
0100
0010
,
0001
0100
1000
0100
0001
0010
1000
0010
,
0001
0001
0001
0001
0002
0000
0000
0000
,
1003
0000
1000
0100
0000
0000
0010
0100
,
0010
0000
0010
0001
0000
0001
0000
0001
0000
0000
0000
0000
0100
0000
0001
0000
,
0100
0000
0010
0100
0000
0000
0010
1000
,
0010
0000
0000
0000
0000
0000
1000
0000
0000
0100
0000
0000
0000
0000
0000
0100
0000
0000
0000
0000
0000
0000
0000
0000
1000
0000
0000
0000
0001
0000
0000
0000
1000
0000
0000
0000
0001
0000
0000
0000
0000
0000
0000
0000
0000
0000
0000
0000
,
0020
0000
0130
0020
0000
0000
0031
0100
,
0010
0000
0010
0100
0000
0100
0000
0100
0000
0000
0010
0000
1000
0000
0100
0000
,
0010
0000
0001
0000
,
1000
0001
1001
0110
,
1000
0100
1000
0100
0010
0100
0010
0100
,
0010
0001
0010
0001
1000
1000
1000
0000
,
0001
0100
0001
0100
0010
0100
0010
0100
,
0010
1000
0010
1000
0001
0001
0001
0000
,
1000
0100
0001
0100
1000
0100
0010
0000
,
0001
0100
1000
0100
0001
0100
0010
0000
,
1000
0100
1000
0000
0001
0100
0001
0000
,
0010
0100
0010
0110
,
1000
0010
1000
0010
0100
0010
0100
0010
,
0001
0010
0001
0010
1000
1000
1000
0000
,
0001
0100
0001
0100
0010
1000
0010
1000
,
0001
0000
0010
0000
1000
0000
0010
0000
0001
0000
0000
1001
0000
0000
0000
0000
,
0001
0100
0001
0100
0010
0100
0010
0100
,
1000
0100
1000
0100
0001
0001
0001
0000
,
0010
0001
0010
0001
1000
0100
1000
0100
,
0010
0001
1000
0100
0010
0000
1001
0000
,
0110
1000
1000
1000
0000
0000
0110
1000
,
1000
1000
1000
1000
0100
1000
0010
0000
,
0100
0001
0001
0001
0010
0001
1000
0100
,
1000
1000
1000
1000
1000
0000
0110
0000
,
0010
0001
0100
0001
0010
1000
0010
0001
,
0001
0001
0001
0001
0100
0000
0110
0000
,
1000
0100
1000
0100
0001
0100
1000
0001
,
0100
0100
0100
0100
0010
0100
0110
0000
,
1001
0000
0000
0000
;

//---------------dance-single - ----------------
#NOTEDATA:;
#CHARTNAME:;
#STEPSTYPE:dance-single;
#DESCRIPTION:;
#CHARTSTYLE:;
#DIFFICULTY:Hard;
#METER:16;
#RADARVALUES:0.757572,0.813511,0.299735,0.099912,0.853091,690.000000,651.000000,39.000000,13.000000,0.000000,0.000000,0.000000,0.000000,0.000000,0.757572,0.813511,0.299735,0.099912,0.853091,690.000000,651.000000,39.000000,13.000000,0.000000,0.000000,0.000000,0.000000,0.000000;
#CREDIT:acidghost;
#NOTES:
// measure 0
0000
0000
0000
0000
,  // measure 1
0000
0000
0000
0000
,  // measure 2
0000
0000
0000
0000
,  // measure 3
0000
0000
0000
0000
,  // measure 4
0000
0000
0000
0000
,  // measure 5
0001
0000
0010
0000
1000
0000
0010
0000
0001
1000
0000
1000
0000
0000
0100
0000
,  // measure 6
1000
0000
0010
0000
0001
0000
0010
0000
1000
0001
0000
0001
0000
0000
0000
0000
,  // measure 7
0100
0000
0001
0000
0010
0000
0001
0000
0100
0010
0000
0010
0000
0000
1000
0000
,  // measure 8
0100
1000
0100
0000
0010
0000
0001
0100
0001
0100
0010
1000
0001
0000
0000
0000
,  // measure 9
0010
0000
0100
1000
0001
0000
0100
0000
0010
0000
0100
0001
1000
0000
0100
0000
,  // measure 10
0010
0000
0001
1000
0010
0000
0100
0000
0010
0000
1000
0001
0010
0000
0100
0000
,  // measure 11
1000
0000
0001
0100
0010
0000
0100
0000
0001
0000
1000
0100
0010
0000
0100
0000
,  // measure 12
1000
0000
0001
0100
0010
0000
1000
0000
0001
1000
0001
1000
0001
0000
0000
0000
,  // measure 13
1000
0100
1000
0000
0100
0010
0100
0000
0010
0001
0010
0000
0001
0100
0001
0000
,  // measure 14
0100
0010
0100
0010
1000
0001
1000
0001
0010
0100
0010
0100
1000
0001
1000
0001
,  // measure 15
0200
0000
0000
0000
,  // measure 16
0310
0010
0010
1001
,  // measure 17
1000
0000
0000
1000
0100
0000
0001
0000
1000
0000
0000
1000
0010
0000
0001
0000
,  // measure 18
1000
0000
0000
1000
0100
0000
0001
0000
1000
0000
0000
1000
0010
0000
0001
0000
,  // measure 19
1000
0000
0000
0001
0100
0010
1000
0000
0101
0000
0000
1000
0100
0010
0001
0000
,  // measure 20
1100
0000
0000
0001
0100
0010
1000
0000
0011
0000
0000
0000
0001
1000
0001
0000
,  // measure 21
1001
0000
0000
0001
0100
0000
1000
0000
0001
0000
0000
0001
0010
0000
1000
0000
,  // measure 22
1001
0000
0000
1000
0100
0000
0001
0000
1000
0000
0000
1000
0010
0000
0001
0000
,  // measure 23
1001
0000
0000
1000
0010
1000
0100
0000
0011
0000
0000
0001
0010
0001
0100
0000
,  // measure 24
0010
0000
1000
0100
1000
0001
1000
0100
1000
0000
0001
0100
0010
0000
0000
0000
,  // measure 25
1100
0000
0000
1000
0010
0000
0001
0000
0011
0000
0000
0001
0010
0000
1000
0000
,  // measure 26
1100
0000
0000
1000
0010
0000
0001
0000
0011
0000
0000
0010
1000
0000
0100
0000
,  // measure 27
0110
0000
0000
0001
0010
0001
0100
0000
1010
0000
0000
1000
0100
1000
0010
0000
,  // measure 28
0101
0000
0000
0001
0010
0001
0100
0000
0010
0000
0010
0000
0100
0000
0100
0000
,  // measure 29
1001
0000
0000
1000
0100
0000
0001
0000
0110
0000
0000
0001
0100
0000
1000
0000
,  // measure 30
0110
0000
0000
1000
0100
0000
0001
0000
0110
0000
0000
0001
0100
0000
1000
0000
,  // measure 31
0110
0000
0000
0001
0010
0100
1000
0000
1001
0000
0000
1000
0010
0100
0001
0000
,  // measure 32
1001
0000
1000
0010
1000
0100
1000
0000
0001
0100
0001
0010
0001
0000
0000
0000
,  // measure 33
1000
0000
0100
0000
1000
0010
1000
0000
0010
0100
0010
0000
0001
0010
0001
0000
,  // measure 34
0010
0000
0100
0000
0001
0010
0001
0000
0010
0100
0010
0000
1000
0010
1000
0000
,  // measure 35
0010
0000
0100
0000
1000
0010
1000
0000
0010
0100
0010
0000
0001
0010
0001
0000
,  // measure 36
0010
0000
1000
0000
0100
0010
0100
0000
2000
0000
3002
0000
2003
0000
3002
0000
,  // measure 37
0013
0000
0001
0000
1000
0010
0100
0000
1000
0100
0010
0000
1000
0100
0010
0000
,  // measure 38
0001
0000
0100
0000
0001
0010
0100
0000
1000
0001
0000
1000
0001
0000
0100
0000
,  // measure 39
0010
0000
0100
0000
0001
0010
0100
0000
0001
0100
0010
0000
0001
0100
0010
0000
,  // measure 40
0100
0010
0100
0010
0100
0010
0100
0010
1000
0001
1000
0001
1000
0100
0010
0001
,  // measure 41
1000
0000
0000
0000
0001
0100
0010
0000
0000
0000
0000
0000
1000
0100
0010
0001
,  // measure 42
1000
0000
0100
0010
0000
0010
0000
0110
0000
0000
0000
0000
0001
0100
0010
1000
,  // measure 43
0001
0000
0000
0000
0100
0010
0100
0000
0000
0000
0000
0000
0001
1000
0001
1000
,  // measure 44
0100
0000
0000
0000
0000
0000
0010
0000
0000
0100
0000
0000
0000
0000
0000
0110
0000
0000
0000
0000
0000
0000
0000
0000
0001
0000
0000
0000
0001
0000
0000
0000
1000
0000
0000
0000
1000
0000
0000
0000
0000
0000
0000
0000
0000
0000
0000
0000
,  // measure 45
0002
0000
0000
0000
0103
0010
0200
0000
0000
0000
0000
0000
0310
1000
0010
1000
,  // measure 46
0010
0000
0100
0001
0000
1000
0000
1001
0000
1000
0100
1000
0100
0010
0001
0100
,  // measure 47
0020
0000
0230
0000
,  // measure 48
0310
0000
1000
0000
0001
1000
1001
0000
,  // measure 49
0001
0000
1000
0100
0000
0010
0100
0000
1000
0000
0010
0100
0000
1000
0100
0000
,  // measure 50
0010
0000
1000
0100
0000
0010
0100
0000
1000
0000
0010
0100
0000
0010
0100
0000
,  // measure 51
0001
0000
0010
0100
0000
0001
0100
0000
0010
0000
0001
0100
0000
0010
0001
0000
,  // measure 52
0010
0000
0100
0001
0000
1000
0100
0000
0010
0000
0010
0000
0010
0000
0000
0000
,  // measure 53
0001
0100
0001
0100
0001
0010
0001
0010
0001
0100
0001
0100
0010
0000
0000
0000
,  // measure 54
1000
0100
1000
0100
1000
0010
1000
0010
1000
0100
1000
0100
0010
0000
0000
0000
,  // measure 55
0001
0100
1000
0100
0001
0001
0001
0010
,  // measure 56
0100
0010
0100
1001
,  // measure 57
1000
0000
0010
0001
0000
0010
1000
0010
1000
0000
0001
0100
0000
1000
0100
1000
,  // measure 58
0100
0000
0001
0010
0000
1000
0010
1000
0010
0000
0001
0000
1001
0000
0000
0000
,  // measure 59
0001
0000
0100
1000
0000
0100
0001
0100
0001
0000
1000
0010
0000
0001
0010
0001
,  // measure 60
0010
0000
0000
0000
0100
0000
0010
0000
0000
0000
1000
0000
0001
0000
1000
0000
0200
0300
0020
0030
0000
0000
0200
0300
0020
0030
0000
0000
0000
0000
0000
0000
,  // measure 61
1001
0000
0001
0100
0000
1000
0100
0010
0100
0000
0001
0010
0000
1000
0010
0100
,  // measure 62
0010
0000
0001
0100
0000
1000
0100
0010
0100
0000
0001
0000
1000
0000
0001
0000
,  // measure 63
1001
0000
1000
0100
0000
0010
0001
0100
0001
0000
0010
0001
0000
0100
0001
0100
,  // measure 64
0010
0000
1000
0100
1000
0100
0010
0001
1000
0000
0001
0000
1001
0000
0000
0000
,  // measure 65
0011
0000
0010
0001
0100
0001
0010
0001
0100
0000
0000
0000
1010
0000
0010
1000
,  // measure 66
0100
1000
0010
1000
0100
1000
0010
1000
0100
0000
0000
1000
0001
0000
0001
0000
,  // measure 67
0001
0000
0100
0000
0010
1000
0010
0100
0010
1000
0000
0001
0010
0100
0010
0000
,  // measure 68
0001
1000
0100
1000
0001
1000
0100
1000
0001
0000
0000
0000
0010
0000
0010
0000
,  // measure 69
0001
0000
0101
0000
0010
0000
1010
0000
0001
0000
0101
0000
0010
0000
1000
0001
,  // measure 70
1000
0100
0000
0010
0000
0001
0100
0001
1000
0000
0000
0100
0010
0000
0010
0000
,  // measure 71
1001
0001
0100
0010
1001
1000
0100
0010
,  // measure 72
0001
0100
0001
0100
0010
1000
0010
1000
0001
0010
0100
1000
0001
0000
0000
0000
,  // measure 73
1001
0000
0000
0000
;
