#VERSION:0.83;
#TITLE:Prenses;
#SUBTITLE:;
#ARTIST:Hadise;
#TITLETRANSLIT:;
#SUBTITLETRANSLIT:;
#ARTISTTRANSLIT:;
#GENRE:;
#ORIGIN:;
#CREDIT:;
#BANNER:;
#BACKGROUND:;
#PREVIEWVID:;
#JACKET:;
#CDIMAGE:;
#DISCIMAGE:;
#LYRICSPATH:;
#CDTITLE:;
#MUSIC:Prenses.ogg;
#OFFSET:-0.288000;
#SAMPLESTART:59.832130;
#SAMPLELENGTH:14.780007;
#SELECTABLE:YES;
#BPMS:0.000=121.000;
#STOPS:;
#DELAYS:;
#WARPS:;
#TIMESIGNATURES:0.000=4=4;
#TICKCOUNTS:0.000=4;
#COMBOS:0.000=1;
#SPEEDS:0.000=1.000=0.000=0;
#SCROLLS:0.000=1.000;
#FAKES:;
#LABELS:0.000=Song Start;
#BGCHANGES:;
#KEYSOUNDS:;
#ATTACKS:
;

//---------------dance-single - ----------------
#NOTEDATA:;
#CHARTNAME:;
#STEPSTYPE:dance-single;
#DESCRIPTION:;
#CHARTSTYLE:;
#DIFFICULTY:Hard;
#METER:14;
#RADARVALUES:0.568427,0.618428,0.147370,0.221055,0.457900,378.000000,364.000000,14.000000,21.000000,0.000000,0.000000,0.000000,0.000000,0.000000,0.568427,0.618428,0.147370,0.221055,0.457900,378.000000,364.000000,14.000000,21.000000,0.000000,0.000000,0.000000,0.000000,0.000000;
#CREDIT:frivolouscomparison;
#NOTES:
// measure 0
0000
0000
0000
0000
,  // measure 1
0000
0000
0000
0000
,  // measure 2
0000
0000
0000
0000
,  // measure 3
0000
0000
0000
0000
,  // measure 4
0001
0100
0010
1000
0001
0010
0000
0100
0010
0000
0001
0100
0010
0000
1000
0000
,  // measure 5
0100
0000
1000
0000
0010
1000
0000
0100
1000
0000
0010
0100
0001
0000
1000
0000
,  // measure 6
0100
0010
0100
0000
1000
0001
0000
0100
0001
0000
0010
0100
1000
0000
0010
0000
,  // measure 7
0100
0000
0001
0000
0010
1000
0010
0000
0001
0000
1000
0000
0010
0000
0000
0000
,  // measure 8
1000
0100
0010
0001
1000
0010
0000
0100
0010
0000
1000
0100
0010
0000
0001
0000
,  // measure 9
0100
0000
0001
0000
0010
0001
0000
0100
0001
0000
0010
0100
1000
0000
0001
0000
,  // measure 10
0100
0010
0100
0000
0001
1000
0000
0100
1000
0000
0010
0100
0001
0000
0010
0000
,  // measure 11
0100
0000
0000
0100
0000
0000
0100
0000
1000
0000
0010
0100
0010
0000
1000
0000
,  // measure 12
0200
0000
0000
0300
0100
0000
1000
0000
0010
0000
0100
0000
0002
0000
0000
0000
,  // measure 13
0023
0000
0000
0030
0010
0000
0001
0000
0100
0000
0010
0000
2000
0000
0000
0000
,  // measure 14
3002
0000
0000
1003
0001
0000
0010
0000
1000
0000
0010
0000
0002
0000
0000
0000
,  // measure 15
0203
0000
0000
0310
0100
0000
0001
0000
0010
0000
0100
0000
2000
0000
0000
0000
,  // measure 16
3020
0000
0130
0010
1000
0100
0020
0000
,  // measure 17
0130
1000
0010
0100
1000
0100
0020
0000
,  // measure 18
2030
0000
0000
3001
1000
0000
0100
0000
0010
0000
0001
0000
0100
0000
1000
0000
,  // measure 19
0200
0000
0310
1000
0200
0000
0320
0000
,  // measure 20
0130
0000
1000
0000
0010
1000
0000
0000
0100
0000
0010
0000
0001
0000
0100
0000
,  // measure 21
0000
0000
0010
0000
1000
0100
0010
0100
1000
0000
0001
0000
0000
0000
0100
0000
,  // measure 22
0001
0000
0010
0001
0000
0100
0001
0000
1000
0000
0010
0100
0000
0001
0100
0000
,  // measure 23
0010
0000
1000
0100
0000
0010
0100
0000
1000
0000
0010
0000
0001
0000
0010
0000
,  // measure 24
2000
0000
0000
0100
0000
0000
3100
0000
0010
0000
0001
0000
0100
0000
0001
0000
,  // measure 25
0020
0000
0000
0100
0000
0000
0130
0000
1000
0000
0010
0000
0100
0000
0010
0000
,  // measure 26
1000
0000
0100
0010
0000
0001
0010
0000
0100
0000
1000
0010
0000
0100
0010
0000
,  // measure 27
1000
0000
0010
0001
0000
0010
0100
0000
0001
0000
0010
0000
0100
0000
1000
0000
,  // measure 28
0010
0000
0000
0000
0000
0000
0000
0000
0000
0010
0000
0000
0000
0000
0000
0000
0000
0000
0100
0000
0001
0000
1000
0000
0100
0000
0000
0000
0000
0000
0000
0000
0000
0000
0000
0000
0000
0000
0000
0000
0000
0000
0000
0000
0000
0000
0000
0000
,  // measure 29
0010
0000
0000
0000
0000
0000
0000
0000
0000
0010
0000
0000
0000
0000
0000
0000
0000
0000
0100
0000
1000
0000
0001
0000
0100
0000
0000
0000
0000
0000
0000
0000
0000
1000
0000
0000
0100
0000
0000
0000
0000
0000
0001
0000
0000
0000
0000
0000
,  // measure 30
1001
1000
0010
0100
1000
0100
0001
0010
,  // measure 31
0100
0000
0001
0000
0100
0000
1000
0000
0010
1000
0010
0100
0010
0000
1000
0000
,  // measure 32
0100
0000
0010
0000
0001
0000
0100
0000
0001
0010
0000
0100
0010
0000
0001
0000
,  // measure 33
1000
0000
0010
0001
0000
0010
0100
0000
0001
0000
0010
1000
0000
0010
0001
0000
,  // measure 34
0100
0000
1000
0100
0000
0001
0010
0000
0100
0000
1000
0000
0010
0000
0100
0000
,  // measure 35
0001
0000
0010
1000
0000
0010
0001
0000
0101
0000
0101
0000
0110
0000
1010
0000
,  // measure 36
1000
0000
0010
0100
0000
0001
0010
0000
0100
0000
1000
0000
0010
0000
1000
0000
,  // measure 37
1200
0000
0000
0010
0000
0000
0310
0000
0100
0000
1000
0000
0010
0000
0100
0000
,  // measure 38
1001
0000
0001
0000
0010
0000
0100
0000
0001
0100
1000
0000
0010
0000
0100
0000
,  // measure 39
1000
0100
0001
0000
0010
0000
0100
0000
0001
0100
0001
0100
1000
0000
0010
0000
,  // measure 40
0100
0000
0010
0000
1000
0000
0100
0000
1000
0010
0000
0100
0010
0000
1000
0000
,  // measure 41
0001
0000
0010
1000
0000
0010
0100
0000
1000
0000
0010
0001
0000
0001
0010
0000
,  // measure 42
1000
0000
0001
0100
0000
0001
0010
0000
0100
0000
0001
0000
0100
0000
0010
0000
,  // measure 43
0001
0000
0100
0010
0000
1000
0100
0000
1100
0000
1100
0000
0110
0000
0011
0000
,  // measure 44
0001
0000
0100
0010
0000
0100
0001
0000
0010
0000
0100
1000
0010
0000
0100
0000
,  // measure 45
1020
0000
0000
0100
0000
0000
0100
0000
0130
0000
0001
0000
0010
0000
0100
0000
,  // measure 46
2200
0000
0000
3300
,  // measure 47
0110
0000
0000
0000
;

//---------------dance-single - ----------------
#NOTEDATA:;
#CHARTNAME:;
#STEPSTYPE:dance-single;
#DESCRIPTION:;
#CHARTSTYLE:;
#DIFFICULTY:Medium;
#METER:9;
#RADARVALUES:0.380455,0.470005,0.294740,0.421057,0.126317,253.000000,225.000000,28.000000,40.000000,0.000000,0.000000,0.000000,0.000000,0.000000,0.380455,0.470005,0.294740,0.421057,0.126317,253.000000,225.000000,28.000000,40.000000,0.000000,0.000000,0.000000,0.000000,0.000000;
#CREDIT:frivolouscomparison;
#NOTES:
0000
0000
0000
0000
,
0000
0000
0000
0000
,
0000
0000
0000
0000
,
0000
0000
0000
0000
,
1000
0001
0100
0100
,
0001
1000
0010
0010
,
0100
0001
0010
0010
,
0100
0000
1000
0000
0001
0010
0001
0000
,
0001
1000
0100
0100
,
1000
0001
0010
0010
,
0100
1000
0010
0010
,
0120
0000
0000
0100
0000
0000
0130
0000
0002
0000
0000
0000
0003
0000
0000
0000
,
0020
0000
0031
0100
0020
0000
0130
0000
,
0020
0000
1030
0100
0020
0000
0130
0000
,
2000
0000
3001
0100
0010
1000
0100
0000
,
2000
0000
0000
3001
0100
0000
0010
0000
2000
0000
0000
0000
3100
0000
0000
0000
,
0200
0000
1300
0010
0200
0000
0310
0000
,
0200
0000
0301
0010
0200
0000
0310
0000
,
0002
0000
0000
0013
1000
0000
0010
0000
0001
0000
0100
0000
0010
0000
0000
0000
,
0200
0000
0301
0010
0200
0000
1300
0000
,
0010
1000
0100
0000
0010
0001
0100
0010
,
0000
0100
0001
1000
0100
0001
0000
0100
,
2200
0000
3300
1000
2020
0000
3030
0010
,
0220
0000
0330
0100
0202
0000
0303
0100
,
0001
0000
0000
0001
0000
0000
0100
0000
0010
0000
1000
0000
0000
0000
0100
0000
,
1000
0000
0000
1000
0000
0000
0100
0000
0010
0000
0001
0000
0000
0000
0100
0000
,
0010
0000
0000
0010
0000
0000
0010
0000
1000
0000
0000
1000
0000
0000
1000
0000
,
0100
0000
0000
0100
0000
0000
0100
0000
1000
0000
0000
0000
0010
0000
0100
0000
,
0001
0000
1001
0000
,
1000
0000
1001
1001
,
0000
0100
1000
0010
0100
0000
0001
0010
,
0100
0000
0000
0000
1000
0000
0010
0000
0100
0010
0100
0000
0001
0000
0000
0000
,
0010
0000
0000
0000
0010
0000
0001
0000
0100
0010
0000
0100
0010
0000
1000
0000
,
2100
0000
0000
0010
0000
0000
3010
0000
0102
0000
0000
0010
0000
0000
0013
0000
,
0021
0000
0000
0100
0000
0000
0130
0000
1000
0000
0000
0000
0010
0000
0100
0000
,
0102
0000
0000
0010
0000
0000
0013
0000
0011
0000
1001
0000
1010
0000
0000
0000
,
1020
0000
0000
0100
0000
0000
0130
0000
0001
0000
0010
0000
0100
0000
0000
0000
,
2002
0000
0000
0000
3003
1000
0001
0100
,
0010
0100
0001
0010
0100
0000
1000
0010
,
0100
0000
0000
0000
0001
0000
0010
0000
0100
0010
0100
0000
1000
0000
0000
0000
,
0010
0000
0000
0000
0010
0000
1000
0000
0100
0010
0000
0100
0010
0000
0001
0000
,
0102
0000
0000
0010
0000
0000
0013
0000
2100
0000
0000
0010
0000
0000
3010
0000
,
1200
0000
0000
0010
0000
0000
0310
0000
0001
0000
0000
0000
0100
0000
0010
0000
,
2010
0000
0000
0100
0000
0000
3100
0000
1100
0000
1001
0000
0101
0000
0000
0000
,
0201
0000
0000
0010
0000
0000
0310
0000
1000
0000
0100
0000
0010
0000
0000
0000
,
2002
0000
0000
3003
,
0220
0000
0000
0330
,
1001
0000
0000
0000
;

//---------------dance-single - ----------------
#NOTEDATA:;
#CHARTNAME:;
#STEPSTYPE:dance-single;
#DESCRIPTION:;
#CHARTSTYLE:;
#DIFFICULTY:Easy;
#METER:3;
#RADARVALUES:0.157896,0.197897,0.084211,0.000000,0.000000,105.000000,97.000000,8.000000,0.000000,0.000000,0.000000,0.000000,0.000000,0.000000,0.157896,0.197897,0.084211,0.000000,0.000000,105.000000,97.000000,8.000000,0.000000,0.000000,0.000000,0.000000,0.000000,0.000000;
#CREDIT:frivolouscomparison;
#NOTES:
0000
0000
0000
0000
,
0000
0000
0000
0000
,
0000
0000
0000
0000
,
0000
0000
0000
0000
,
1000
0000
1000
0000
,
0001
0000
0001
0000
,
1000
0000
1000
0000
,
0100
0100
0100
0000
,
1000
0000
1000
0000
,
0001
0000
0001
0000
,
0010
0000
0010
0000
,
0110
0000
0000
0000
,
0100
0000
0100
0100
,
1000
0000
1000
1000
,
0010
0000
0010
0010
,
0100
0000
0100
0100
,
0001
0000
1000
0100
,
1000
0000
0001
0100
,
0001
0000
0010
0010
,
0001
0100
0010
1000
,
0100
0000
0000
0000
,
0100
0000
0000
0000
,
0010
0000
0010
0000
,
0001
0000
0001
0000
,
0100
0000
0000
0000
,
0100
0000
0000
0000
,
0010
0000
0010
0000
,
1000
0000
1000
0000
,
1001
0000
0000
0000
,
1001
0000
0000
0000
,
1000
0000
0001
0000
,
1000
1000
1000
1000
,
0100
0000
0010
0000
,
0100
0100
0100
0000
,
1000
0001
1000
0000
,
0010
0000
0110
0000
,
0100
0000
0001
0001
,
1001
0000
0000
0000
,
1000
0000
0001
0000
,
1000
1000
1000
1000
,
0100
0000
0010
0000
,
0100
0100
0100
0000
,
1000
0001
1000
0000
,
0010
0000
0110
0000
,
0100
0000
0001
0001
,
1001
0000
0000
0000
,
0100
0000
0000
0000
,
0110
0000
0000
0000
;
