#VERSION:0.83;
#TITLE:Part 1;
#SUBTITLE:;
#ARTIST:Kill The Zo;
#TITLETRANSLIT:;
#SUBTITLETRANSLIT:;
#ARTISTTRANSLIT:;
#GENRE:;
#ORIGIN:;
#CREDIT:;
#BANNER:;
#BACKGROUND:;
#PREVIEWVID:;
#JACKET:;
#CDIMAGE:;
#DISCIMAGE:;
#LYRICSPATH:;
#CDTITLE:;
#MUSIC:Part 1.ogg;
#OFFSET:-0.050022;
#SAMPLESTART:22.700224;
#SAMPLELENGTH:12.000000;
#SELECTABLE:YES;
#BPMS:0.000=172.000;
#STOPS:;
#DELAYS:;
#WARPS:;
#TIMESIGNATURES:0.000=4=4;
#TICKCOUNTS:0.000=4;
#COMBOS:0.000=1;
#SPEEDS:0.000=1.000=0.000=0;
#SCROLLS:0.000=1.000;
#FAKES:;
#LABELS:0.000=Song Start;
#BGCHANGES:;
#KEYSOUNDS:;
#ATTACKS:
;

//---------------dance-single - ----------------
#NOTEDATA:;
#CHARTNAME:;
#STEPSTYPE:dance-single;
#DESCRIPTION:;
#CHARTSTYLE:;
#DIFFICULTY:Hard;
#METER:16;
#RADARVALUES:0.642154,0.957187,0.498614,0.347519,0.373960,595.000000,529.000000,66.000000,46.000000,0.000000,0.000000,0.000000,0.000000,0.000000,0.642154,0.957187,0.498614,0.347519,0.373960,595.000000,529.000000,66.000000,46.000000,0.000000,0.000000,0.000000,0.000000,0.000000;
#CREDIT:attractivepretty;
#NOTES:
0000
0000
0000
0000
,
0000
0000
0000
0000
,
0000
0000
0000
0000
,
0000
0000
0000
0000
,
0001
0002
0010
0100
,
1000
1000
0010
0013
,
1000
2000
0100
0010
,
0001
0001
0100
3100
,
0012
0000
0103
0000
0000
0001
0101
0000
,
2010
0000
3100
0000
0000
1000
1100
0000
,
0110
0000
2002
0000
3003
1000
1010
0000
,
0110
0000
2002
0000
3003
0001
0011
0000
,
1000
0100
0001
1000
0010
0100
1000
0010
,
0100
1000
0100
0001
0010
0100
1000
0010
,
1000
0010
0100
0010
0001
0010
0100
0010
1000
0100
0001
0100
1000
0010
0100
0001
,
1000
0000
0000
0000
,
0000
0000
0000
0000
1001
0000
1000
0000
0100
1000
0100
0000
0010
0000
0100
0000
,
0001
0100
0001
0000
0100
1000
0100
0000
0010
0000
0100
0010
0100
0000
0110
0000
,
0000
0000
0000
0000
1001
0000
0001
0000
0100
0001
0100
0000
0010
0000
0100
0000
,
1000
0100
1000
0000
0100
0001
0100
0000
0010
0000
0100
0010
0200
0000
0300
0000
,
0200
0000
0300
0000
1001
0000
1000
0000
0100
0010
0001
0000
1000
0000
1000
0000
,
0100
0000
0100
0000
0010
0001
1000
0000
0001
0000
0100
0010
1000
0000
0200
0000
,
0000
0000
0300
0000
1001
0000
0001
0000
0100
0010
1000
0000
0001
0000
0001
0000
,
0100
0000
0100
0000
0010
1000
0001
0000
1000
0000
0100
0000
1000
0000
0100
0000
,
1100
0000
0000
0000
0010
0000
0001
0000
0100
1000
0100
0000
0010
0000
1000
0000
,
0100
0001
0100
0000
0100
1000
0100
0000
0010
0000
0001
0100
0001
0000
2000
3200
,
2300
3002
2003
3000
0010
0000
0010
0000
0000
0000
0101
0000
0101
0000
0000
0000
,
1100
0000
0000
0110
0000
1000
0001
1000
,
0000
0000
0000
0000
0010
0000
1000
0000
0100
0001
0100
0000
0010
0000
0001
0000
,
0100
1000
0100
0000
0100
0001
0100
0000
0010
0000
1000
0100
1000
0000
0002
0000
,
0000
0000
0013
0010
0000
1100
1100
0000
,
0220
0000
0330
0000
0001
1000
0001
1000
,
0220
0000
0000
0000
,
0330
0000
0000
0000
,
0102
0020
0000
0000
,
0033
0000
0000
0000
,
2100
0020
0000
0000
,
3030
0000
0000
0000
,
0220
0000
0000
0000
0000
0000
0000
0000
0330
0000
0000
0000
1000
0010
0100
0001
,
1000
0000
0000
0000
0001
0100
1000
0100
,
2001
0100
0010
0010
,
0100
0100
0001
3010
,
1002
0100
0010
0010
,
0100
0100
1000
0013
,
2010
3010
0100
1000
0100
0001
0010
1000
,
0010
0100
0001
0100
1000
0001
0010
0100
,
0010
0001
1000
0010
0100
0001
1000
0100
0010
0001
1000
0010
0100
0010
1000
0100
,
0220
0000
0330
0000
,
0000
0000
1001
0000
0000
1100
1010
0000
,
1001
0000
0000
0000
1000
0010
0100
0000
0001
0000
0001
0010
1000
0000
0010
0000
,
0001
0000
0100
0000
1001
0000
0000
0000
0100
0001
0010
0000
0011
0000
0000
0000
,
1001
0000
1000
0000
0100
0010
0100
0000
0001
0000
0100
0000
2000
0000
3000
0000
,
2000
0000
3000
0000
0110
0000
0001
0000
1000
0010
0100
0000
1000
0000
0100
0000
,
0100
0000
0001
0000
0001
0010
1000
0000
0010
0000
0100
1000
0001
0000
0001
0000
,
2000
0000
3000
0000
0110
0000
1000
0000
0001
0010
0100
0000
0100
0000
1000
0000
,
1000
0010
0001
0000
0010
0000
0100
0001
1000
0000
1000
0000
0001
0100
0001
0000
,
0220
0000
0330
0000
1000
0100
1100
0000
,
0002
0000
0000
0000
0103
0001
0100
0000
0010
0000
0010
1000
0100
0000
0010
0000
,
0200
0300
0110
0000
0000
0110
0110
0000
,
1001
0000
0000
0000
1000
0010
0100
0001
2000
0000
0000
0000
0000
0000
0000
0000
,
3000
0000
0000
0000
0100
0001
0010
0000
0010
0100
1000
0000
0001
0000
0100
0000
,
0110
0000
1000
0000
0010
0100
0001
0000
1000
0000
0010
0000
0100
0000
0010
1000
,
0001
0010
1000
0001
0100
0010
0001
0100
,
0010
1000
0100
0001
0100
0010
0001
1000
0100
1000
0001
0010
0100
1000
0010
0100
,
0001
0000
0000
0000
0101
0000
1000
0100
1000
0100
1000
0000
0101
0000
0000
0000
,
1000
0000
0000
0000
1100
0000
0100
1000
0100
0010
0001
0000
0100
0000
0010
0000
,
0110
0000
0000
0000
1100
0000
0001
0100
0001
0100
0001
0000
1100
0000
0000
0000
,
0001
0000
0000
0000
0101
0000
0100
0010
1000
0001
0010
0000
0100
0000
0010
0000
,
0110
0000
0000
0000
1001
0000
1000
0010
0100
0001
1000
0000
1001
0000
0000
0000
,
1000
0000
0000
0000
0110
0000
0001
0100
0001
0100
0001
0000
0010
0000
0100
0000
,
1000
0000
0000
0000
1001
0000
0001
0010
0100
1000
0001
0000
1001
0000
0000
0000
,
0010
0000
0100
0000
0001
0000
0010
0100
1000
0010
0100
0001
1000
0100
0010
0001
,
0101
0000
0100
0000
0010
0000
1000
0100
0001
0100
1000
0000
0010
0000
0100
0000
,
0001
0000
0100
0000
0010
0000
1000
0100
0001
0100
1000
0000
0010
0000
0000
0000
,
1100
0000
0100
0000
0010
0000
0001
0100
1000
0100
0001
0000
0010
0000
0100
0000
,
1000
0000
0010
0000
0100
0000
0001
0100
1000
0100
0001
0000
0010
0000
0000
0000
,
1100
0000
1000
0000
0001
0000
0100
0001
0010
0100
1000
0000
0010
0000
0000
0000
,
1100
0000
1000
0000
0001
0000
0100
0001
0010
0100
1000
0000
0010
0000
0000
0000
,
0110
1000
0001
0000
0000
0100
0101
0000
,
1000
0000
1000
0000
0000
0001
1000
0000
,
0002
0000
0000
0000
,
0000
0000
0000
0000
0000
0000
0000
2000
,
0000
0000
0000
0000
0000
3000
0000
0020
,
0000
0000
0030
2000
,
0000
0000
0000
0000
,
0000
0000
0000
0000
,
0000
0003
0020
0000
,
0000
0000
0000
0030
0000
0002
0000
0000
,
0000
0000
0000
0000
,
0000
0000
0000
0000
,
0000
0000
3003
0000
;

//---------------dance-single - ----------------
#NOTEDATA:;
#CHARTNAME:;
#STEPSTYPE:dance-single;
#DESCRIPTION:;
#CHARTSTYLE:;
#DIFFICULTY:Medium;
#METER:13;
#RADARVALUES:0.479187,0.615335,0.506168,0.219088,0.007555,444.000000,377.000000,67.000000,29.000000,0.000000,0.000000,0.000000,0.000000,0.000000,0.479187,0.615335,0.506168,0.219088,0.007555,444.000000,377.000000,67.000000,29.000000,0.000000,0.000000,0.000000,0.000000,0.000000;
#CREDIT:attractivepretty;
#NOTES:
0000
0000
0000
0000
,
0000
0000
0000
0000
,
0000
0000
0000
0000
,
0000
0000
0000
0000
,
0200
1000
0010
0001
,
0010
1000
0010
0301
,
0020
0001
0100
1000
,
0100
0001
0100
1030
,
0110
0000
1001
0000
0000
0100
0001
0000
,
0110
0000
1001
0000
0000
0100
1000
0000
,
0110
0000
1001
0000
0000
0010
0100
0000
,
1001
0000
0110
0000
0000
0010
0100
0000
,
1000
0100
0001
0100
1000
0010
0001
0010
,
1000
0100
0010
0001
1000
0100
0010
0001
,
0100
0100
0010
0010
1000
1000
0001
0001
,
1000
0000
0000
0000
,
0000
0000
1010
0000
1000
0001
0100
0000
,
1001
0000
0010
0001
1000
0000
1001
0000
,
0000
0000
0110
0000
0001
0010
1000
0000
,
0110
0000
1000
0100
0001
0000
0220
0330
,
0220
0330
0011
0000
0001
1000
0100
0000
,
1001
0000
0010
1000
0001
0000
1001
0000
,
0000
0000
0110
0000
1000
0010
0001
0000
,
0110
0000
0001
0100
1000
0000
0110
0000
,
0000
0000
1000
0010
1000
0100
0001
0010
,
0001
0100
1000
0010
1000
0100
1000
0000
,
0000
0000
0001
0010
0001
0100
1000
0010
,
1000
0100
0001
0010
0001
0000
0000
0000
,
0000
0000
1000
0010
0001
1000
0100
0001
,
0010
0100
0001
0100
1000
0000
0000
0000
,
0000
0000
0001
0010
1000
0001
0100
1000
,
1001
0000
0000
0000
,
0210
0002
0000
0000
,
0303
0000
0000
0000
,
0120
2000
0000
0000
,
3030
0000
0000
0000
,
2002
0000
0000
0000
,
3003
0000
0000
0000
,
0120
0000
0000
0000
0200
0000
0000
0000
0330
0000
0000
0000
0100
0010
0100
0010
,
0100
0000
0000
0000
0010
0100
0010
0100
,
1100
1000
1010
0001
,
0011
0001
0101
1000
,
1001
0010
1001
0100
,
1100
0100
0101
0100
,
0001
0010
0100
1000
0001
0010
0100
1000
,
0001
0100
0010
1000
0001
0100
0010
1000
,
0100
0001
1000
0010
0100
1000
0001
0100
,
0110
0000
0000
0000
,
0000
0000
1001
0000
0000
1001
1001
0000
,
1001
0000
0100
0001
0010
0001
0100
0010
,
2000
0000
3100
0000
0000
0011
0011
0000
,
0001
0001
0010
0010
0100
0100
2000
3000
,
2000
3000
0110
0100
0001
0100
0010
1000
,
0100
1000
0001
0010
0100
0010
0001
1000
,
0000
0000
1001
0000
0000
1001
1001
0000
,
0210
0010
0310
2000
0001
3001
1000
0000
,
2200
0000
3300
0000
0011
0010
0001
0000
,
0100
0000
1000
1000
1000
0001
0100
0000
,
0110
0000
0001
1000
0100
1000
1000
0001
,
1000
0110
2002
0000
,
3003
0000
0100
0001
0010
0100
0001
0100
,
1000
0100
0010
0001
0100
0010
1000
0010
,
0100
0100
0001
0001
1000
1000
0100
0100
,
0010
0010
0001
0001
1000
1000
0001
0000
,
1001
0000
0110
0000
0001
1000
0010
0000
,
0010
1000
0100
1000
0001
0010
1000
0000
,
0110
0000
1001
0000
1000
0100
0001
0000
,
0001
0100
1000
0100
0010
0001
0100
0000
,
0110
0000
1001
0000
0001
0100
1000
0000
,
1000
0100
0010
0100
0001
0100
0010
0010
,
0000
0000
1001
0000
1000
0100
0010
0000
,
0001
0010
0100
1000
0001
0100
0010
0000
,
1000
0000
1100
0000
0000
0001
0101
0000
,
1000
0000
0101
0000
0000
1000
1100
0000
,
0010
0000
0110
0000
0000
0001
1001
0000
,
0100
0000
0110
0000
0000
0010
1010
0000
,
0101
0000
1000
0000
0010
0010
0100
0000
,
0001
0000
0010
0000
0100
0100
1000
0000
,
0001
0000
0010
0000
0100
0010
0001
0000
,
1000
0000
0001
0000
0000
0001
1000
0000
,
0002
0000
0000
0000
,
0000
0000
0000
0000
0000
0000
0000
0020
,
0000
0000
0000
0000
0000
0030
0000
0200
,
0000
0000
0300
2000
,
0000
0000
0000
0000
,
0000
0000
0000
0000
,
0000
0003
0200
0000
,
0000
0000
0000
0300
0000
0002
0000
0000
,
0000
0000
0000
0000
,
0000
0000
0000
0000
,
0000
0000
3003
0000
;

//---------------dance-single - ----------------
#NOTEDATA:;
#CHARTNAME:;
#STEPSTYPE:dance-single;
#DESCRIPTION:;
#CHARTSTYLE:;
#DIFFICULTY:Easy;
#METER:8;
#RADARVALUES:0.268733,0.410223,0.135986,0.151095,0.000000,249.000000,231.000000,18.000000,20.000000,0.000000,0.000000,0.000000,0.000000,0.000000,0.268733,0.410223,0.135986,0.151095,0.000000,249.000000,231.000000,18.000000,20.000000,0.000000,0.000000,0.000000,0.000000,0.000000;
#CREDIT:attractivepretty;
#NOTES:
// measure 0
0000
0000
0000
0000
,  // measure 1
0000
0000
0000
0000
,  // measure 2
0000
0000
0000
0000
,  // measure 3
0000
0000
0000
0000
,  // measure 4
1000
1000
1000
1000
,  // measure 5
1000
1000
1000
1000
,  // measure 6
0001
0001
0001
0001
,  // measure 7
0001
0001
0001
0001
,  // measure 8
0010
0000
0010
0000
0000
0010
0000
0000
,  // measure 9
0100
0000
0100
0000
0000
0100
0000
0000
,  // measure 10
1000
0000
1000
0000
0000
1000
0000
0000
,  // measure 11
0001
0000
0001
0000
0000
0001
0000
0000
,  // measure 12
0100
0010
1000
0100
,  // measure 13
0010
0001
0100
0010
,  // measure 14
2000
3200
0320
0032
,  // measure 15
0203
0000
0000
0000
,  // measure 16
0300
0000
1001
0000
0000
1001
0000
0000
,  // measure 17
1001
0000
0110
1001
,  // measure 18
0000
0000
0010
0000
0000
0100
0000
0000
,  // measure 19
0010
0000
0100
0000
,  // measure 20
0000
0000
0001
0000
0000
1000
0000
0000
,  // measure 21
0001
0000
1000
1000
,  // measure 22
0000
0000
0001
0000
0000
1000
0000
0000
,  // measure 23
0001
0000
0100
0000
,  // measure 24
0000
0000
0010
0000
0000
0010
0000
0000
,  // measure 25
0010
0000
0010
0000
,  // measure 26
0000
0000
0100
0000
0000
0100
0000
0000
,  // measure 27
0100
0000
0000
0100
0000
0000
0000
0000
,  // measure 28
0000
0000
1000
0000
0000
1000
0000
0000
,  // measure 29
1000
0000
0000
1000
0000
0000
0000
0000
,  // measure 30
0000
0000
0001
0000
0000
0001
0000
0000
,  // measure 31
1001
0000
0000
0000
,  // measure 32
0220
0000
0000
0000
,  // measure 33
0330
0000
0000
0000
,  // measure 34
2002
0000
0000
0000
,  // measure 35
3003
0000
0000
0000
,  // measure 36
0020
0000
0000
0000
,  // measure 37
0030
0000
0000
0000
,  // measure 38
0220
0000
0300
0200
,  // measure 39
0000
0000
0330
0000
,  // measure 40
1000
0010
0001
0100
,  // measure 41
1000
0010
0001
0100
,  // measure 42
1000
0100
0010
0001
,  // measure 43
1000
0100
0010
0001
,  // measure 44
1000
1000
0001
0001
,  // measure 45
1000
1000
0001
0001
,  // measure 46
0100
0010
0100
0000
0010
0100
0010
0000
,  // measure 47
1001
0000
0000
0000
,  // measure 48
0000
0000
1000
0000
0000
1000
0100
0000
,  // measure 49
1000
0100
0100
1000
,  // measure 50
0000
0000
0001
0000
0000
0001
0100
0000
,  // measure 51
0001
0100
0100
0001
,  // measure 52
0000
0000
1000
0000
0000
1000
0010
0000
,  // measure 53
1000
0010
0010
1000
,  // measure 54
0000
0000
0001
0000
0000
0001
0010
0000
,  // measure 55
0010
0001
0010
0110
,  // measure 56
2002
0000
0000
3003
1000
0010
1000
0000
,  // measure 57
1010
0000
1100
0000
,  // measure 58
0000
0000
0000
0000
0001
0010
0001
0000
,  // measure 59
0011
0000
0101
0000
,  // measure 60
0000
0000
0000
0000
0001
1000
0001
0000
,  // measure 61
1001
0000
0110
0000
,  // measure 62
0002
0100
1000
0013
,  // measure 63
2000
0100
0001
3010
,  // measure 64
0001
0000
0100
0001
0000
0100
0001
0000
,  // measure 65
0100
0010
0010
1000
,  // measure 66
0001
0000
1000
0100
0000
1000
0100
0000
,  // measure 67
0010
0010
0100
1000
,  // measure 68
0001
0000
0010
0100
0000
0010
0100
0000
,  // measure 69
1000
0010
0010
0100
,  // measure 70
0001
0000
1000
0010
0000
1000
0010
0000
,  // measure 71
0100
0010
0010
1000
,  // measure 72
0001
0000
0100
0010
0000
0100
0010
0000
,  // measure 73
1000
0100
0010
0001
,  // measure 74
1000
0000
0100
0000
0000
0001
1000
0000
,  // measure 75
0100
0000
0010
0000
0000
1000
0001
0000
,  // measure 76
0100
0000
0010
0000
0000
0001
0100
0000
,  // measure 77
0000
0000
1000
0000
0000
0001
1000
0000
,  // measure 78
0100
0000
0010
0000
0000
0001
0100
0000
,  // measure 79
0000
0010
0000
1000
,  // measure 80
0002
0000
0000
0000
,  // measure 81
0000
0000
0000
0000
,  // measure 82
0000
0000
0000
0000
,  // measure 83
0000
0000
0000
2000
,  // measure 84
0000
0000
0000
0000
,  // measure 85
0000
0000
0000
0000
,  // measure 86
0000
0000
0000
0000
,  // measure 87
3003
0000
0000
0000
0000
0200
0000
0000
,  // measure 88
0000
0000
0000
0000
,  // measure 89
0000
0000
0000
0000
,  // measure 90
0000
0000
0300
0000
;
