#VERSION:0.83;
#TITLE:PLATONIC-XXX;
#SUBTITLE:;
#ARTIST:platoniX (RB Style);
#TITLETRANSLIT:;
#SUBTITLETRANSLIT:;
#ARTISTTRANSLIT:;
#GENRE:;
#ORIGIN:;
#CREDIT:;
#BANNER:;
#BACKGROUND:;
#PREVIEWVID:;
#JACKET:;
#CDIMAGE:;
#DISCIMAGE:;
#LYRICSPATH:;
#CDTITLE:;
#MUSIC:PLATONIC-XXX.ogg;
#OFFSET:-0.049000;
#SAMPLESTART:49.028000;
#SAMPLELENGTH:15.000000;
#SELECTABLE:YES;
#BPMS:0.000=98.000;
#STOPS:31.000=0.306;
#DELAYS:;
#WARPS:;
#TIMESIGNATURES:0.000=4=4;
#TICKCOUNTS:0.000=4;
#COMBOS:0.000=1;
#SPEEDS:0.000=1.000=0.000=0;
#SCROLLS:0.000=1.000;
#FAKES:;
#LABELS:0.000=Song Start;
#BGCHANGES:;
#KEYSOUNDS:;
#ATTACKS:
;

//---------------dance-single - ----------------
#NOTEDATA:;
#CHARTNAME:;
#STEPSTYPE:dance-single;
#DESCRIPTION:;
#CHARTSTYLE:;
#DIFFICULTY:Easy;
#METER:6;
#RADARVALUES:0.232347,0.478710,0.472800,0.160752,0.018912,172.000000,122.000000,50.000000,17.000000,0.000000,0.000000,0.000000,0.000000,0.000000,0.232347,0.478710,0.472800,0.160752,0.018912,172.000000,122.000000,50.000000,17.000000,0.000000,0.000000,0.000000,0.000000,0.000000;
#CREDIT:burritosmolecule;
#NOTES:
0000
0000
0000
0000
,
0000
0000
0000
0000
,
0000
0000
0000
0000
,
0000
0000
0000
0000
,
1001
0000
0000
0000
,
1010
0010
1000
0000
0000
0000
0000
0000
,
1001
0011
1001
1010
,
1001
1001
1001
1001
1001
1001
1001
1001
,
0000
0000
0000
0000
0000
0000
0000
0110
,
0000
0000
0000
0000
0000
0000
0000
1010
,
0000
0000
0000
0000
0000
0000
0000
0101
,
0000
0000
0000
0000
0000
0000
0000
1001
,
0000
1000
0000
0100
0000
0010
0000
1001
,
0000
0001
0000
0010
0000
0100
0000
1100
,
0000
1000
0000
0010
0000
0100
0000
0101
,
0000
0001
0000
0010
0000
0100
0000
0110
,
0000
0010
0000
0001
0000
1000
0000
1010
,
0000
0010
0000
0100
0000
0001
0000
0011
,
0000
0001
0000
0010
0000
1000
0000
0010
,
0000
0001
0000
0100
0000
0010
0000
1001
,
0000
1000
0000
0010
0000
0100
0000
0110
,
0000
0010
0000
1000
0000
0100
0000
0110
,
0000
0001
0000
0110
0000
1000
0000
0110
,
0000
0001
0000
1000
0000
0010
0000
1001
,
0000
0001
0000
0010
0000
0100
0000
0110
,
0000
0010
0000
0001
0000
0100
0000
0110
,
0000
1000
0000
0110
0000
0001
0000
0110
,
0000
1000
0000
0001
0000
0010
0000
1001
,
0000
1000
0000
0001
0000
1000
0000
1001
,
0000
0001
0000
1000
0000
0001
0000
0011
,
0000
0010
0000
0100
0000
1000
0000
1010
,
0000
0010
0000
0100
0000
0001
0000
2002
,
0000
0000
0000
0000
3003
0000
0000
0220
,
0000
0000
0000
0000
0330
0000
0000
1010
,
0000
0010
0000
0100
0000
0001
0000
0101
,
0000
0110
0000
1010
0000
1001
0000
2200
,
0000
0000
0000
0000
0000
0000
0000
0000
3300
0000
0000
0000
0000
0022
0000
0000
,
0000
0000
0000
0000
0000
0000
0033
0000
0000
0000
0000
0000
0000
0202
0000
0000
,
0000
0000
0000
0000
0000
0000
0000
0303
0000
0000
0000
0000
0000
2020
0000
0000
,
0000
0000
0000
0000
0000
0000
0000
3030
0000
0000
0000
0000
0000
0000
1001
0000
,
0000
1000
0000
0100
0000
0010
0002
0000
,
0203
0000
0000
0320
0000
0000
2030
0000
0000
0000
0002
0000
0000
0000
0000
0000
,
3000
0000
0000
0003
0000
0000
0000
0000
0000
0000
0000
0000
0000
0000
0000
0000
;

//---------------dance-single - ----------------
#NOTEDATA:;
#CHARTNAME:;
#STEPSTYPE:dance-single;
#DESCRIPTION:;
#CHARTSTYLE:;
#DIFFICULTY:Medium;
#METER:9;
#RADARVALUES:0.324206,0.378979,0.349872,0.368784,0.198576,240.000000,203.000000,37.000000,39.000000,0.000000,0.000000,0.000000,0.000000,0.000000,0.324206,0.378979,0.349872,0.368784,0.198576,240.000000,203.000000,37.000000,39.000000,0.000000,0.000000,0.000000,0.000000,0.000000;
#CREDIT:burritosmolecule;
#NOTES:
// measure 0
0000
0000
0000
0000
,  // measure 1
0000
0000
0000
0000
,  // measure 2
0000
0000
0000
0000
,  // measure 3
0000
0000
0000
0000
,  // measure 4
1001
0000
0000
0000
0000
0000
0000
0000
0000
0000
0100
0010
0000
0000
0100
0000
,  // measure 5
0110
0110
0000
0000
0000
0000
0000
0010
,  // measure 6
0011
0101
1100
1010
,  // measure 7
1001
0001
1000
0010
0100
0001
1000
1001
,  // measure 8
0001
0010
0100
1000
0010
0000
0000
1000
,  // measure 9
0010
0100
0001
1000
0100
0000
0000
0010
,  // measure 10
0001
2000
0000
3010
0200
0000
0000
0301
,  // measure 11
0000
1000
0000
1001
0000
1001
0000
1010
,  // measure 12
0010
0100
0001
1000
0200
0000
0000
0310
,  // measure 13
0100
1000
0001
0100
0020
0000
0000
1030
,  // measure 14
0010
0100
0010
1000
0002
0000
0000
0013
,  // measure 15
0000
0100
0000
0110
0000
0110
0000
1001
,  // measure 16
0000
1000
0000
0010
0100
0001
0000
0010
,  // measure 17
0000
0100
0000
1000
0001
0100
0000
0010
,  // measure 18
0100
0010
0100
0000
0001
0100
0000
0010
,  // measure 19
1000
0100
0020
0000
0200
0030
0310
1002
,  // measure 20
0000
0010
0000
0010
0000
0010
0000
0013
0000
0000
0000
0000
0000
0000
2001
0000
,  // measure 21
0000
0010
0000
0010
0000
0010
0000
3010
0000
0000
0000
0000
0000
0000
1001
0000
,  // measure 22
0000
0001
0000
0000
0010
0000
0100
0000
0000
0010
0000
0000
0001
0000
1000
0000
,  // measure 23
0000
0000
1010
0000
0000
0000
0010
0100
0000
0010
0000
1000
0001
0000
1002
0000
,  // measure 24
0000
0100
0000
0100
0000
0100
0000
0103
0000
0000
0000
0000
0000
0000
2001
0000
,  // measure 25
0000
0100
0000
0100
0000
0100
0000
3100
0000
0000
0000
0000
0000
0000
1001
0000
,  // measure 26
0000
0011
0000
1001
0000
1010
0000
1001
,  // measure 27
0001
1000
0000
0001
0000
0000
2000
0000
0000
0000
3010
0000
1000
0000
1020
0000
,  // measure 28
0000
2030
0000
3200
0000
0302
0000
0203
,  // measure 29
0000
2300
0000
3020
0000
0130
0001
0021
,  // measure 30
0000
0032
0000
0203
0000
2300
0000
3200
,  // measure 31
0000
0302
0000
0023
0000
0130
1000
1001
,  // measure 32
0001
1000
0000
0010
0100
0001
0000
0010
,  // measure 33
0100
1000
0000
0001
1000
0010
0000
1000
,  // measure 34
0100
0000
0001
0000
0000
0000
0001
0000
0100
0000
1000
0000
0000
0000
0001
1000
,  // measure 35
0000
0001
0000
1000
0000
0010
0000
0100
0000
0010
0000
0100
0001
0000
2002
0000
,  // measure 36
0000
0000
0000
0000
3003
0000
0000
0000
1001
0000
0001
1000
0000
0000
2200
0000
,  // measure 37
0000
0000
0000
0000
3300
1000
0001
0000
1001
0000
0000
0011
0000
0202
0000
0000
,  // measure 38
0000
0000
0000
0000
0000
0000
0303
0001
0100
0000
0010
1000
0000
2020
0000
0000
,  // measure 39
0000
3000
0000
0000
0000
1030
0001
1000
0000
0002
0000
0000
1003
0000
1001
0000
,  // measure 40
0000
0001
0010
0100
0000
1000
0010
0100
,  // measure 41
0002
0000
0000
2003
0000
0000
3200
0000
0000
0000
0020
0000
0000
0000
0000
0000
,  // measure 42
0300
0000
0000
0030
0000
0000
0000
0000
0000
0000
0000
0000
0000
0000
0000
0000
;

//---------------dance-single - ----------------
#NOTEDATA:;
#CHARTNAME:;
#STEPSTYPE:dance-single;
#DESCRIPTION:;
#CHARTSTYLE:;
#DIFFICULTY:Hard;
#METER:12;
#RADARVALUES:0.441730,0.478710,0.283680,0.472800,0.591000,327.000000,297.000000,30.000000,50.000000,0.000000,0.000000,0.000000,0.000000,0.000000,0.441730,0.478710,0.283680,0.472800,0.591000,327.000000,297.000000,30.000000,50.000000,0.000000,0.000000,0.000000,0.000000,0.000000;
#CREDIT:burritosmolecule;
#NOTES:
0000
0000
0000
0000
,
0000
0000
0000
0000
,
0000
0000
0000
0000
,
0000
0000
0000
0000
,
1001
0000
0000
0000
0000
0000
0000
0000
0000
0000
1000
0010
0000
0000
0100
0000
,
0110
0000
0010
0000
0000
0000
0000
0100
0000
0001
2000
0000
0000
3100
0010
0001
,
1001
0011
1001
1010
,
1001
1000
0100
0001
0011
1010
1100
0011
,
0001
0010
0100
1000
0001
1000
0000
0010
,
1000
0010
0100
0001
1000
0100
0000
0010
,
0001
0000
1000
0000
0001
0000
0100
0000
0010
0000
0000
0000
1000
0000
0001
1000
,
0000
0100
0000
0010
0000
0001
0000
1000
0000
0010
0100
0010
0000
0000
1001
0000
,
1000
0100
0001
0100
1000
0020
0000
0130
,
0001
0000
0100
0000
1000
0000
0100
0000
0002
0000
0000
0013
0000
0010
0100
0000
,
1000
0000
0001
0000
0010
0000
0100
1000
0020
0000
0000
1030
0010
0100
0001
0010
,
0000
1000
0000
0010
0000
0100
0000
0010
0000
0001
0000
0011
0000
0010
0100
1000
,
0001
0000
0010
0000
0100
1000
0000
0010
0000
0200
0000
0000
0301
0000
1001
0000
,
1000
0001
0000
0001
0100
0000
0010
1000
0000
0100
0000
0010
0001
0000
1001
0000
,
1000
0010
0120
0000
1030
1000
0001
0011
,
0010
0000
0100
0000
2100
0000
0000
0000
0001
0000
3002
0000
0000
0000
1003
0100
,
0000
0001
0000
0100
0000
1000
0000
0020
0000
0000
0000
1000
1030
0000
0001
0010
,
0000
1000
0000
0010
0000
0001
0000
0200
0000
0000
0000
0010
0310
1000
0010
0000
,
0100
0010
0000
1000
0010
0000
0100
0000
0001
0100
0000
0100
0010
0000
1000
0010
,
0000
0100
0000
0001
0020
0000
0000
0230
0000
2300
0000
3020
0000
1030
0001
0100
,
0000
1000
0000
0100
0000
0001
0000
0020
0000
0000
0000
0031
1000
0000
0001
0010
,
0100
1000
0000
0010
0000
0001
0000
0020
0000
0000
0000
1000
1030
0001
0010
0000
,
0000
0100
1000
0000
0000
1000
0010
0000
0000
0100
0002
0000
0000
0000
1003
0000
,
0010
0100
0000
0001
1000
0000
0200
0000
0000
0000
1000
0000
1300
0000
1001
0000
,
0001
1000
0200
0000
0000
0000
1300
0001
0200
0000
0000
0000
0300
0000
1001
0000
,
0001
1000
0020
0000
0000
0000
1030
0001
0020
0000
0000
0100
0000
0130
0010
0000
,
0001
0000
1001
0000
1000
0000
0010
0000
0200
0000
0000
0301
1000
0001
2000
0000
,
0100
0000
0000
3200
0000
0000
2300
0000
3002
0000
0203
0000
0310
0000
1010
0000
,
1000
0010
0100
0000
0000
0000
0100
0010
2000
0000
0000
0001
0000
3001
1000
0000
,
0001
0010
0100
0000
0000
0000
0100
0010
0002
0000
0000
1003
0000
1000
0001
0000
,
1000
0000
0010
0100
0000
0000
0100
0001
0000
0010
0000
0010
0100
1000
0001
0200
,
0000
0320
0000
2030
0000
3200
0000
0302
0000
0203
0000
1300
0001
0000
0202
0000
,
0000
0000
0000
0000
0000
0000
0303
0000
0101
0000
0100
0010
0000
2020
0000
0000
,
0000
0000
0000
3030
0000
1010
0010
0000
2000
0000
0000
3100
0000
2200
0000
0000
,
0000
0000
0000
0000
0000
3300
0000
1100
0100
0000
0010
0001
0000
0022
0000
0000
,
0000
0030
0000
0000
0000
1003
0001
1000
0000
1001
0000
0001
0100
0010
1000
0000
,
0001
0010
0100
1000
0010
0100
0001
0000
1000
0100
1000
0001
0100
0020
0000
0000
,
2030
0000
0000
3002
0000
0000
0023
0000
0000
0000
0200
0000
0000
0000
0000
0000
,
0030
0000
0000
0300
0000
0000
0000
0000
0000
0000
0000
0000
0000
0000
0000
0000
;

//---------------dance-single - ----------------
#NOTEDATA:;
#CHARTNAME:;
#STEPSTYPE:dance-single;
#DESCRIPTION:;
#CHARTSTYLE:;
#DIFFICULTY:Challenge;
#METER:14;
#RADARVALUES:0.579517,0.658226,0.614640,0.841584,0.822672,429.000000,364.000000,65.000000,89.000000,0.000000,0.000000,0.000000,0.000000,0.000000,0.579517,0.658226,0.614640,0.841584,0.822672,429.000000,364.000000,65.000000,89.000000,0.000000,0.000000,0.000000,0.000000,0.000000;
#CREDIT:burritosmolecule;
#NOTES:
0000
0000
0000
0000
,
0000
0000
0000
0000
,
0000
0000
0000
0000
,
0000
0000
0000
0000
,
1001
0000
0000
0000
0000
0000
0011
0000
1100
0000
1000
1020
0000
0000
1030
0000
,
1010
0000
0102
0000
0000
0000
0000
0000
1003
0100
0010
0021
0000
1000
0000
0031
,
1001
0000
0001
1000
1010
0000
1000
0001
0011
0000
0001
1000
1100
0000
1000
0001
,
0101
0110
1010
0110
0101
1001
1100
1001
,
0001
0000
0100
0000
0010
1000
0010
0100
0002
0000
0000
2003
0000
3010
0100
0000
,
0001
1000
0100
0000
0010
0100
1000
0001
0200
0000
0000
0302
0000
0013
0100
0000
,
1000
0100
0010
0000
0001
0010
1000
0010
0002
0000
0000
0103
0010
1000
0010
0110
,
0000
0101
0000
1001
0000
1010
0000
0120
0000
1030
0001
0010
0000
0000
1001
1000
,
0010
0100
0010
0010
1000
0100
0010
0001
2000
0000
0000
3001
0000
0001
0010
0100
,
1000
0001
0100
0100
0001
0010
0100
0010
0002
0000
0000
0103
0000
0100
0110
0000
,
0010
1000
0001
0010
0100
0000
1000
0001
0200
0000
0000
0310
1000
0001
1001
2000
,
0000
3200
0000
0302
0000
0203
0000
2300
0000
3010
0100
0020
0000
1030
1001
0001
,
1000
0000
1001
0000
0001
2000
0000
3020
0000
0032
0000
0013
1000
0000
1100
0000
,
0100
0010
0000
0010
0001
1000
1010
0010
0100
0002
0000
0010
0023
0000
0032
0000
,
0203
0320
2030
0000
0001
3001
2000
3200
,
0320
0000
0032
0000
2003
0000
0000
0000
3001
0000
0011
0000
0000
0000
1001
0001
,
0000
0200
0000
2300
0000
3200
0000
0302
0000
1003
0100
0010
0100
0000
0010
0002
,
0000
0023
0000
2030
0000
3020
0000
0032
0000
0103
0010
1000
0100
0000
0110
0000
,
0010
0001
0000
0001
1000
0000
1001
0000
1000
0010
0000
0010
0100
0000
0110
0020
,
0000
0000
2030
0000
0000
0000
3100
0000
0010
0000
0000
0000
0010
0000
0002
0000
0000
0000
0010
0000
0000
0000
1003
0000
0010
1000
0001
0000
1001
0000
1000
0000
,
0000
0200
0000
0302
0000
0203
0000
2300
0000
3001
0100
0010
1000
0000
0010
1000
,
0100
0020
0000
0032
0000
0023
0000
2030
0000
3010
0001
0100
0010
0000
0110
0000
,
0100
0001
0011
0000
0001
0010
0110
0000
0100
1000
1010
0000
0010
0100
0110
0000
,
0100
0002
0000
0023
0000
0000
0130
0000
0010
0001
1000
0100
1000
0100
1100
0000
,
1000
0001
0020
0000
0000
0000
0031
1000
0020
0000
0000
1000
0000
0130
0110
0000
,
0010
1000
0002
0000
0000
0000
1003
0100
0020
0000
0000
0230
0000
0310
0011
0000
,
0001
1000
0010
0000
1000
0010
0100
0001
2000
0000
0000
3010
0100
0001
0102
0000
,
0100
0100
0000
1000
2003
0000
3200
0000
0301
0000
0200
0000
1300
0000
1001
0000
,
0001
1000
0200
0000
0301
0100
0010
0001
2000
0000
0000
3001
0000
1000
1001
0000
,
0100
0010
1000
0000
0010
0100
0001
1000
0100
0000
0000
0120
0000
0031
2001
0000
,
0000
0000
3010
1010
0000
0000
0110
0200
0000
0302
0000
0013
0100
1000
1001
0002
,
0000
0023
0000
2030
0000
3020
0000
0130
0000
0020
0000
0031
1000
0000
2002
0000
,
0000
0000
0000
0000
0000
0000
3003
0000
0101
0000
1001
1000
0000
2020
0000
0000
,
0000
0000
3000
0000
0000
1030
1100
0000
0011
0000
0000
1001
0000
2000
0200
0000
,
0000
0000
0000
0000
0000
3300
0000
0011
0001
0000
0001
1001
0000
0202
0000
0000
,
0000
0300
0000
0000
0000
0013
0100
1000
0000
1001
0000
0001
1000
0001
0101
0000
,
0100
0010
1000
0100
0001
0100
1000
0000
0001
1000
0100
0010
0002
2000
0000
0003
,
3020
0000
0000
0230
0000
0000
0302
0000
0000
0000
2000
0000
0000
0000
0000
0000
,
0003
0000
0000
3000
0000
0000
0000
0000
0000
0000
0000
0000
0000
0000
0000
0000
;
