#VERSION:0.83;
#TITLE:PARANOiA INFINiTY;
#SUBTITLE:;
#ARTIST:XX;
#TITLETRANSLIT:;
#SUBTITLETRANSLIT:;
#ARTISTTRANSLIT:;
#GENRE:;
#ORIGIN:;
#CREDIT:;
#BANNER:;
#BACKGROUND:;
#PREVIEWVID:;
#JACKET:;
#CDIMAGE:;
#DISCIMAGE:;
#LYRICSPATH:;
#CDTITLE:;
#MUSIC:PARANOiA INFINiTY.ogg;
#OFFSET:-0.032000;
#SAMPLESTART:12.489999;
#SAMPLELENGTH:15.000000;
#SELECTABLE:YES;
#DISPLAYBPM:120.000000:345.000000;
#BPMS:0.000=345.000,
64.000=86.250,
65.000=172.500,
67.000=345.000,
195.000=220.001,
259.000=120.001,
291.000=690.000,
292.000=345.000,
293.000=172.500,
294.000=86.250,
294.250=345.000,
383.000=172.500,
387.000=345.000;
#STOPS:294.250=3.082;
#DELAYS:;
#WARPS:;
#TIMESIGNATURES:0.000=4=4;
#TICKCOUNTS:0.000=4;
#COMBOS:0.000=1;
#SPEEDS:0.000=1.000=0.000=0;
#SCROLLS:0.000=1.000;
#FAKES:;
#LABELS:0.000=Song Start;
#BGCHANGES:;
#KEYSOUNDS:;
#ATTACKS:
;

//---------------dance-single - ----------------
#NOTEDATA:;
#CHARTNAME:;
#STEPSTYPE:dance-single;
#DESCRIPTION:;
#CHARTSTYLE:;
#DIFFICULTY:Easy;
#METER:12;
#RADARVALUES:0.641263,1.025678,0.601417,0.784457,0.000000,515.000000,446.000000,69.000000,90.000000,0.000000,0.000000,0.000000,0.000000,0.000000,0.641263,1.025678,0.601417,0.784457,0.000000,515.000000,446.000000,69.000000,90.000000,0.000000,0.000000,0.000000,0.000000,0.000000;
#CREDIT:sailortesticles;
#DISPLAYBPM:120.000000:345.000000;
#NOTES:
0000
0000
0000
0000
,
0000
0000
0000
0000
,
0000
0000
0000
0000
,
0000
0000
0000
0000
,
0000
0000
0000
0000
,
0000
0000
0000
0000
,
0000
0000
0000
0000
,
0000
0000
0000
0000
,
1001
0000
0001
0000
,
1000
0100
0001
0200
,
0000
1000
1300
0001
,
0100
0100
0100
0000
,
0101
0000
0011
0000
,
0010
0100
1000
0100
,
0001
0100
1000
0010
,
0100
0100
0010
0010
,
0220
0000
0330
1001
,
0000
1200
0000
1300
,
0001
0010
0200
0000
,
1300
0001
0100
1000
,
0100
0010
1000
1001
,
0000
0011
0001
0100
,
0100
0010
2000
0000
,
3001
0011
0010
0200
,
2300
3002
1003
1001
,
0000
0201
0000
0301
,
1000
0100
0020
0000
,
0031
1000
0100
0001
,
0100
0010
0001
1001
,
0000
1010
1000
0100
,
0100
0010
0001
1000
,
1001
0001
0100
0200
,
0320
2030
3100
0110
,
0000
0011
0000
0110
,
0100
0100
2000
0000
,
3010
1000
0010
0100
,
0100
0001
0010
0100
,
0000
0120
0000
0001
,
0031
1000
0002
0000
,
0103
0010
1000
1010
,
1010
1010
0010
1010
,
0000
1200
0000
1300
,
0001
0100
2000
0000
,
3100
0001
0010
0100
,
0100
0010
0001
1002
,
0000
1003
0010
0200
,
0000
0301
0010
0110
,
0100
1000
0001
1001
,
1000
0010
0100
0120
,
0000
2030
0000
0000
3001
0000
0020
0000
,
0000
0230
0000
0000
1300
0000
0002
0000
,
0203
0000
2300
0000
3200
0000
0301
0010
,
0000
0110
0000
0100
0010
0001
2000
0000
,
3010
0020
0000
1030
1000
0000
0002
0000
,
0013
0020
0000
0031
0001
1000
1001
0001
,
0000
0001
2001
0000
3200
0000
0310
0001
,
0100
0020
0000
1030
1000
0010
0110
0000
,
0100
0102
0000
0000
1003
0000
1200
0000
,
0310
0120
0000
0031
1000
0010
2000
0000
,
3200
0000
0302
0000
0203
0000
1300
0010
,
0100
0002
0000
0103
0010
0100
0101
0000
,
0001
0021
0000
0000
0130
0000
1100
0000
,
1000
1020
0000
0000
0130
0000
0101
0000
,
0002
0000
0203
0000
2300
0000
3100
0002
,
0000
0023
0000
0130
0010
0001
1001
1000
,
0001
1000
0100
1000
0100
1000
0010
1000
,
0010
1000
0001
0100
0001
0100
0002
0000
,
0023
2030
3020
0032
,
0203
0000
0310
1000
0001
1000
1001
0001
,
1000
0001
0100
0001
0100
0001
0010
0001
,
0010
0001
1000
0100
1000
0100
2000
0000
,
3020
0032
0013
2010
,
3200
0000
0310
0001
1000
0001
2002
0000
,
0000
0000
0000
0000
0000
0000
0000
0000
0000
0000
0000
0000
0000
0000
0000
0000
0000
0000
0000
0000
0000
0000
0000
0000
0000
0000
0000
0000
0000
0000
0000
0000
0000
0000
0000
0000
0000
3003
0000
0000
0000
0000
0000
0000
0000
0000
0000
0000
2002
0000
0000
0000
0000
0000
0000
0000
0000
0000
0000
0000
0000
0000
0000
0000
,
0000
3003
0000
2200
,
0000
3300
0000
2002
,
0000
3003
0000
0202
,
0000
0303
0000
2010
,
0000
0010
0000
0010
,
0000
3010
0000
0102
,
0000
0013
0000
0100
,
0010
0100
0010
2001
,
0000
3001
0100
0010
,
1000
0010
0000
1010
,
1000
0100
0001
0100
,
1000
0001
0000
1002
,
0000
1003
0010
0001
,
0010
1000
0000
1001
,
0001
0010
0100
1100
,
1000
0010
0100
0101
,
0000
0001
0100
0010
,
0000
0120
0000
0130
,
0001
1000
0200
0000
,
1000
1300
0000
1001
,
0001
0100
0010
0100
,
1000
0100
0000
0102
,
0000
0000
0023
0000
0000
0031
1001
0000
,
1000
0100
0010
0100
,
0001
0100
0010
0100
,
1000
0100
0010
0100
,
1000
0001
0000
0010
,
0100
1000
0100
0010
,
0001
1000
0010
0100
,
0001
0010
0200
0000
,
1300
1000
0010
0100
,
0001
0100
0010
0100
,
1000
0100
0010
0100
,
0001
0100
0010
0100
,
0001
1000
0000
1010
,
1000
0200
0000
1300
,
0001
0200
0000
1300
,
0100
0001
0010
0100
,
1000
0001
1000
1002
,
0000
0010
0000
0010
,
0000
1003
2000
0000
,
3001
0010
1000
0010
,
0010
0001
0000
1002
,
0000
1003
0010
2000
,
3001
0002
1003
1001
,
0001
1000
0001
1001
,
1000
0001
1000
1001
,
0001
0010
0100
1000
,
0100
0010
0001
1000
,
0010
0100
0001
1000
,
0100
0010
0001
1001
,
1000
0010
0100
0110
,
0010
1000
0001
1001
,
1000
0100
0010
0001
,
1000
0010
0100
0220
,
0000
0000
0000
0000
,
0000
0000
0000
0330
;

//---------------dance-single - ----------------
#NOTEDATA:;
#CHARTNAME:;
#STEPSTYPE:dance-single;
#DESCRIPTION:;
#CHARTSTYLE:;
#DIFFICULTY:Medium;
#METER:14;
#RADARVALUES:0.775741,1.196624,0.540404,0.296351,0.008716,623.000000,561.000000,62.000000,34.000000,0.000000,0.000000,0.000000,0.000000,0.000000,0.775741,1.196624,0.540404,0.296351,0.008716,623.000000,561.000000,62.000000,34.000000,0.000000,0.000000,0.000000,0.000000,0.000000;
#CREDIT:sailortesticles;
#DISPLAYBPM:120.000000:345.000000;
#NOTES:
0000
0000
0000
0000
,
0000
0000
0000
0000
,
0000
0000
0000
0000
,
0000
0000
0000
0000
,
0000
0000
0000
0000
,
0000
0000
0000
0000
,
0000
0000
0000
0000
,
0000
0000
0000
0000
,
0001
0100
1000
0100
,
0001
0001
1000
0100
,
0010
0100
1000
0001
,
1001
1000
1001
0000
,
1100
1000
0010
0100
,
0001
0010
0100
1000
,
0001
0001
0100
0100
,
0010
1000
0100
0010
,
1002
0000
0203
0000
0000
0310
0110
0000
,
0100
0001
1000
0100
,
0001
0100
1000
0010
,
0100
0001
1000
0100
,
0010
0001
1000
0010
,
0100
0010
1000
0100
,
0010
0001
1000
0010
,
1000
0100
0010
0001
,
0001
1001
1000
1001
,
0001
1000
0001
0100
,
1000
0100
0001
0010
,
0100
1000
0001
0100
,
0010
1000
0001
0010
,
0100
0010
0001
0100
,
0010
1000
0001
0010
,
0010
0100
0100
1000
,
1000
0000
0001
1000
0001
0000
0011
0000
,
0010
1000
0010
0001
,
0100
0010
1000
0010
,
0100
0001
1000
0100
,
0010
0001
1000
0010
,
1000
0100
0001
0100
,
1000
0010
0100
0001
,
1000
0010
0100
0010
,
0010
0000
0110
0000
0100
0010
1000
0000
,
0010
0001
0010
1000
,
0100
0010
0001
0010
,
0100
1000
0001
0100
,
0010
1000
0001
0011
,
0010
0100
1000
1010
,
0010
0100
0001
1001
,
1000
0100
0010
0110
,
0100
1000
0001
0201
,
0000
0310
0000
0010
1000
0000
1200
0000
,
0000
0310
0000
0010
0001
1000
1001
0001
,
0100
0000
0100
0010
1000
1000
0001
0010
,
0100
1100
0000
1000
0010
0100
0110
0000
,
0010
2010
0000
0001
3001
0010
0210
0000
,
0310
0012
0000
1003
1000
0010
0110
0100
,
0001
0000
0001
0100
1000
0100
0001
0010
,
0000
0110
0000
0100
0100
0010
0021
0000
,
0031
0201
0000
0301
1000
0010
1020
0000
,
1030
1200
0000
1300
0001
0010
0110
0100
,
0010
0000
0010
0100
1000
0100
0001
0100
,
1000
0020
0000
1030
0010
1000
1001
0001
,
0010
0100
0000
0100
0010
0001
1001
1000
,
0010
0100
0000
0100
0010
1000
1001
0001
,
0010
0000
0110
0100
0010
0001
1000
0010
,
0001
0010
1000
0001
1000
0100
1000
0001
,
0101
0100
0010
1000
1010
0010
1000
0100
,
1100
1000
0001
0100
0101
0001
0100
1000
,
0100
0001
0010
0010
0100
0100
1000
0100
,
0010
0000
0002
0000
0000
1003
0010
0000
0100
0000
0110
0000
1001
0000
0001
0000
,
0100
1000
0100
0001
0010
1000
0010
0001
,
0100
1000
0100
0001
0010
0100
1100
1000
,
0010
0001
0010
1000
0100
0010
0011
0001
,
0100
0000
0020
0000
0000
1030
0001
0000
0010
0000
0110
0000
2002
0000
0000
0000
,
0000
0000
0000
0000
0000
0000
0000
0000
0000
0000
0000
0000
0000
0000
0000
0000
0000
0000
0000
0000
0000
0000
0000
0000
0000
0000
0000
0000
0000
0000
0000
0000
0000
0000
0000
0000
0000
3003
0000
0000
0000
0000
0000
0000
0000
0000
0000
0000
2001
0000
0000
0000
0000
0000
0000
0000
0000
0000
0000
0000
0000
0000
0000
0000
,
0000
3200
0000
0000
0310
0000
0001
0000
,
0000
0012
0000
0203
,
0000
0320
0000
0000
1030
0000
0200
0000
,
1000
1300
0000
1001
,
0001
0010
1000
0010
,
0001
0100
0010
1000
,
1000
0001
0001
0010
,
0100
0000
1000
0100
0010
0001
1000
0000
,
0001
0010
0100
0100
,
1000
0001
0100
0001
,
1000
0010
0100
0001
,
1000
0100
0010
0011
,
0001
0100
1000
0100
,
0001
0010
0100
1000
,
1000
0010
0100
0001
,
1000
0000
0100
0000
1000
0001
1000
0000
,
0001
0010
0100
1000
,
0100
0001
0100
1000
,
0001
0010
0100
1000
,
0001
0100
0010
1010
,
1000
0100
0001
0100
,
1000
0010
0100
0002
,
0000
1003
0010
1000
0100
1000
1001
0000
,
0001
0010
1000
0010
,
0001
0100
0010
1010
,
1000
0100
0010
0100
,
1000
0001
0100
0110
,
0010
1000
0010
0100
,
0001
1000
0100
0010
,
0100
1000
0100
0001
,
0100
0000
1000
0100
0010
0001
0100
0000
,
0010
1000
0100
0010
,
0001
1000
1001
1100
,
0100
0010
0001
1000
,
0010
0100
0010
1010
,
1000
0010
0100
0101
,
0001
0010
0100
0110
,
0010
0001
0100
0110
,
0010
1000
0100
0120
,
0000
0032
0000
0000
2003
0000
0001
0000
,
0001
3002
0203
0000
,
0310
1000
0010
0100
,
0100
0100
0000
0102
,
0000
0013
0200
1000
,
1000
1300
0010
1010
,
1000
0010
0100
0102
,
2003
0000
3100
0010
0100
1000
0001
0000
,
1000
0010
0100
0001
,
0010
0100
0010
0011
,
0001
0100
0110
0010
,
0100
0000
0001
0010
0100
1000
0100
0000
,
1000
0000
0100
0000
0010
0100
0010
0000
,
0001
0000
0100
0000
0010
1000
0010
0000
,
1000
0000
0100
0000
0010
0000
0001
1000
,
0001
1000
0001
1000
0001
2000
0002
0000
,
0000
0000
0000
0000
,
0000
0000
0000
3003
;

//---------------dance-single - ----------------
#NOTEDATA:;
#CHARTNAME:;
#STEPSTYPE:dance-single;
#DESCRIPTION:;
#CHARTSTYLE:;
#DIFFICULTY:Hard;
#METER:16;
#RADARVALUES:0.973723,1.652481,0.845471,0.200472,0.052297,782.000000,685.000000,97.000000,23.000000,0.000000,0.000000,0.000000,0.000000,0.000000,0.973723,1.652481,0.845471,0.200472,0.052297,782.000000,685.000000,97.000000,23.000000,0.000000,0.000000,0.000000,0.000000,0.000000;
#CREDIT:sailortesticles;
#DISPLAYBPM:120.000000:345.000000;
#NOTES:
// measure 0
0000
0000
0000
0000
,  // measure 1
0000
0000
0000
0000
,  // measure 2
0000
0000
0000
0000
,  // measure 3
0000
0000
0000
0000
,  // measure 4
0000
0000
0000
0000
,  // measure 5
0000
0000
0000
0000
,  // measure 6
0000
0000
0000
0000
,  // measure 7
0000
0000
0000
0000
,  // measure 8
1000
0100
0001
0100
,  // measure 9
1000
0000
0100
1000
0100
0000
1100
0000
,  // measure 10
1000
0010
0100
0001
,  // measure 11
1001
0000
1001
0000
0001
0010
0100
1000
,  // measure 12
0001
0100
1000
0100
,  // measure 13
0001
0000
0010
0001
0010
0000
0011
0000
,  // measure 14
0001
0100
0010
1000
,  // measure 15
0001
1000
0001
1000
0100
0010
0100
0010
,  // measure 16
0002
0000
2000
0000
3003
1000
1010
0000
,  // measure 17
0010
0100
0001
0101
,  // measure 18
0100
0000
0010
0100
0010
1000
0100
0000
,  // measure 19
0010
0110
0100
0110
,  // measure 20
0010
0000
0001
0010
0100
1000
0001
0000
,  // measure 21
0100
0000
0101
0000
0001
0000
0010
0001
,  // measure 22
0010
0100
1100
1000
,  // measure 23
0001
0000
0100
0001
0100
0000
0101
0000
,  // measure 24
1001
0000
1100
0000
0100
0010
0001
0000
,  // measure 25
0010
0000
0001
0000
1000
0001
0100
0000
,  // measure 26
0010
0000
1000
0010
1000
0100
0010
0000
,  // measure 27
0100
0000
0110
0000
0010
0001
1000
0000
,  // measure 28
0100
0000
0010
0100
1000
0001
0100
0000
,  // measure 29
0010
0110
0100
0001
,  // measure 30
0010
0100
0010
0000
0001
0000
1000
0000
,  // measure 31
1000
0010
0010
0110
,  // measure 32
0101
0011
1001
0011
,  // measure 33
0010
0100
1000
1100
,  // measure 34
0100
0000
0010
0100
0010
0001
0100
0000
,  // measure 35
0010
0110
0100
0110
,  // measure 36
0010
0000
1000
0010
0100
0001
1000
0000
,  // measure 37
0100
0000
1100
0000
1000
0000
0010
1000
,  // measure 38
0010
0100
0101
0001
,  // measure 39
1000
0000
0100
1000
0100
0000
1100
0000
,  // measure 40
1001
0000
0101
0000
0001
0100
0010
0000
,  // measure 41
1000
0000
1100
0000
0100
1000
0100
0000
,  // measure 42
0010
0000
0001
0010
0001
1000
0010
0000
,  // measure 43
0100
0000
0110
0000
0010
1000
0001
0000
,  // measure 44
0010
0100
0010
0011
,  // measure 45
0001
0100
1000
0100
,  // measure 46
0001
0000
0010
0000
0100
0000
0010
0100
,  // measure 47
0010
0100
0010
0001
0100
0010
1000
0001
,  // measure 48
1000
0001
1000
0001
1000
0000
1001
0001
,  // measure 49
1000
1100
0100
0010
0001
0000
1001
1000
,  // measure 50
0001
0101
0100
0010
1000
0000
0001
0100
,  // measure 51
1000
0000
0100
0000
0001
0000
0001
0000
1000
0001
1000
0000
0100
0000
1100
0000
,  // measure 52
1000
0002
0000
1003
0010
0100
0101
0001
,  // measure 53
0010
0110
0100
1000
0100
0000
1100
1000
,  // measure 54
0010
0110
0100
0001
0100
0000
0001
0010
,  // measure 55
1000
0000
0010
0000
0001
0000
0001
0000
0010
0001
0010
0000
0100
0000
0120
0000
,  // measure 56
0000
0032
0000
1003
0010
0100
0101
0001
,  // measure 57
0010
0011
0001
1000
1010
0000
1100
1000
,  // measure 58
0010
1010
1000
0001
0011
0000
1001
1000
,  // measure 59
0100
0001
0100
0100
1000
1000
1001
0001
,  // measure 60
0100
0201
0000
0310
1000
0001
0011
0010
,  // measure 61
0100
1100
1000
0001
0100
0000
1010
0010
,  // measure 62
0100
0101
0001
1000
0100
0000
0110
0010
,  // measure 63
0001
0000
0011
0001
1000
0010
1010
1000
,  // measure 64
0001
1001
1000
0010
0001
0010
1000
0100
,  // measure 65
1100
1000
0001
0100
0101
0001
1000
0100
,  // measure 66
0001
0000
0100
0000
1000
0000
0010
0000
0100
0000
0001
0000
0010
0001
0000
0000
,  // measure 67
0001
2000
0000
0000
3010
0000
0010
0000
0100
0000
0100
0000
0001
0000
1000
0100
,  // measure 68
0000
0010
0200
0000
0000
1300
0010
0000
0110
0000
0100
0000
0101
0000
0001
0000
,  // measure 69
0010
0001
0010
1000
0010
0001
0100
1000
,  // measure 70
0100
0000
1000
0000
0100
0000
0001
0000
0100
0000
0010
0000
1000
0001
1000
0000
,  // measure 71
0100
1000
0100
0000
0110
0000
0011
0000
0110
0000
1100
0000
1001
0000
0001
0010
,  // measure 72
0000
1000
0010
0000
0001
0100
0010
0000
1010
0000
1100
0000
2002
0000
0000
0000
,  // measure 73
0000
0000
0000
0000
0000
0000
0000
0000
0000
0000
0000
0000
0000
0000
0000
0000
0000
0000
0000
0000
0000
0000
0000
0000
0000
0000
0000
0000
0000
0000
0000
0000
0000
0000
0000
0000
0000
3003
0000
0000
0000
0000
0000
0000
0000
0000
0000
0000
2001
0000
0000
0000
0000
0000
0000
0000
0000
0000
0000
0000
0000
0000
0000
0000
,  // measure 74
0000
3002
0000
0000
0103
0000
0110
0000
,  // measure 75
0000
1010
0000
2100
,  // measure 76
0000
3200
0000
0000
0320
0000
0001
0000
,  // measure 77
0031
0101
0000
1010
,  // measure 78
0010
0100
0001
0100
,  // measure 79
1000
0100
0001
0011
,  // measure 80
0010
0000
0100
0000
1000
0000
0001
0100
,  // measure 81
0001
0100
0010
1000
0010
1000
0001
0000
,  // measure 82
1000
0000
1100
0000
0100
1000
0001
0000
,  // measure 83
0100
0000
0101
0000
0001
0000
0010
0001
,  // measure 84
0010
0100
1000
0010
0100
0001
0010
0000
,  // measure 85
0001
1000
0010
0000
1000
0001
1000
0000
,  // measure 86
0001
0000
0101
0000
0100
0001
1000
0000
,  // measure 87
0100
1000
0001
0000
1000
0000
0010
1000
,  // measure 88
0010
0100
0001
0010
0100
1000
0010
0000
,  // measure 89
1000
0001
0010
0000
0001
0000
0011
0000
,  // measure 90
0010
0100
0010
0000
0100
1000
0100
0000
,  // measure 91
1000
0001
1000
0000
0010
0000
0100
0001
,  // measure 92
0100
0010
1000
0100
0010
0001
0100
0000
,  // measure 93
0001
0100
0001
0000
0010
0000
1000
0000
,  // measure 94
0010
0000
0001
0000
0100
0001
0100
0000
,  // measure 95
0010
1000
0010
0000
1000
0000
1002
0000
,  // measure 96
0000
0103
0110
0100
0110
0010
1000
0000
,  // measure 97
0010
1000
0010
0000
1000
0100
1000
0000
,  // measure 98
0100
0010
0100
0000
0110
0000
0010
0001
,  // measure 99
1000
0001
0100
0010
1000
0100
0010
0000
,  // measure 100
0001
0100
0001
0000
0010
0000
0011
0000
,  // measure 101
0001
1000
0001
0000
1000
0010
1000
0000
,  // measure 102
0001
0100
0001
0000
0100
0000
0110
0000
,  // measure 103
0010
1000
0000
0001
0010
0000
0011
0000
,  // measure 104
0001
0000
1000
0001
0100
0010
1000
0000
,  // measure 105
0010
0100
0010
0000
0100
0001
0100
0000
,  // measure 106
0101
0000
1001
0000
1000
0000
0100
1000
,  // measure 107
0100
0000
1100
0000
1000
0001
0100
0000
,  // measure 108
0010
0000
1000
0010
0100
0001
1000
0000
,  // measure 109
0100
0001
0100
1100
,  // measure 110
1000
0000
0010
0000
0001
0000
0010
1000
,  // measure 111
0010
1000
0001
0010
0100
1000
0010
0100
,  // measure 112
0010
0100
0010
0100
0010
0100
0002
0000
,  // measure 113
0000
0203
0000
0000
1300
0000
2100
0000
,  // measure 114
0000
3100
0102
0000
,  // measure 115
0013
1000
0010
0100
,  // measure 116
0010
0001
0000
0101
,  // measure 117
0000
1010
2000
0100
,  // measure 118
0100
3200
0310
0110
,  // measure 119
0100
0000
1000
0000
0001
0000
0100
0001
,  // measure 120
0100
0001
1000
0010
1000
0010
0100
0001
,  // measure 121
1000
0000
0100
0000
0010
0100
1000
0000
,  // measure 122
0010
0100
0001
0000
1000
0000
0001
1000
,  // measure 123
0010
0100
0001
0000
1000
0001
1000
0000
,  // measure 124
0100
0010
0100
0000
0010
0001
1000
0010
,  // measure 125
0100
0001
1000
0100
0010
0000
0001
0010
,  // measure 126
0100
1000
0010
0100
0001
0000
1000
0100
,  // measure 127
1000
0100
0010
0001
0010
0001
0100
0010
,  // measure 128
0100
0010
0100
0010
0100
0010
2000
0000
,  // measure 129
0000
0000
0000
0000
,  // measure 130
0000
0000
0000
3000
;

//---------------dance-single - ----------------
#NOTEDATA:;
#CHARTNAME:;
#STEPSTYPE:dance-single;
#DESCRIPTION:;
#CHARTSTYLE:;
#DIFFICULTY:Challenge;
#METER:18;
#RADARVALUES:1.201589,2.621177,1.133105,0.209189,0.544762,965.000000,835.000000,130.000000,24.000000,0.000000,0.000000,0.000000,0.000000,0.000000,1.201589,2.621177,1.133105,0.209189,0.544762,965.000000,835.000000,130.000000,24.000000,0.000000,0.000000,0.000000,0.000000,0.000000;
#CREDIT:sailortesticles;
#DISPLAYBPM:120.000000:345.000000;
#NOTES:
0000
0000
0000
0000
,
0000
0000
0000
0000
,
0000
0000
0000
0000
,
0000
0000
0000
0000
,
0000
0000
0000
0000
,
0000
0000
0000
0000
,
0000
0000
0000
0000
,
0000
0000
0000
0000
,
1000
0001
0100
0000
0001
1000
0100
0000
,
1100
0000
0100
0010
0001
0000
0101
0000
,
0100
0000
0010
1000
0001
0000
0010
0000
,
0110
0000
1100
0000
1000
0010
1000
0001
,
0100
0010
1000
0000
0100
0010
0001
0000
,
0011
0000
0010
0100
1000
0000
1001
0000
,
1010
0110
0101
0011
,
0010
0100
1000
0010
0100
0001
0010
0100
,
2000
0000
0002
0000
3003
0001
0011
0000
,
0010
0110
0100
1100
,
1001
0000
1000
0001
0100
0010
1000
0000
,
0001
0000
0101
0000
0100
0010
1000
0000
,
1010
0000
0010
1000
0010
0100
0001
1000
,
0100
0110
0010
0011
,
1001
0000
1000
0010
0100
0001
1000
0000
,
1100
0000
0100
0010
0001
0000
0011
0000
,
0110
1100
1001
1010
,
0010
0110
0100
0101
,
1001
0000
0001
1000
0100
0010
0001
0000
,
1000
0000
1100
0000
0100
0010
0001
0000
,
0011
0000
0010
0001
0010
0100
1000
0001
,
0100
0110
0010
1010
,
1001
0000
0001
0010
0100
0000
0110
0000
,
0011
0000
0101
0000
1001
0000
1000
0010
,
0001
0010
1000
0001
0010
0000
0110
0000
,
0100
1000
0001
0000
0100
0001
1000
0000
,
1001
0000
0001
0010
1000
0010
0001
0000
,
0011
0000
1001
0000
1000
0010
0100
0000
,
0110
0000
0010
1000
0100
0000
0010
0100
,
1000
0001
0100
0000
0010
0100
0001
0000
,
0101
0000
0100
0010
1000
0001
0010
0000
,
0011
0000
0001
1000
0100
0000
0110
0000
,
1100
0000
0110
0000
0010
0001
0100
0000
,
0100
0001
1000
0000
0100
1000
0001
0000
,
1001
0000
1000
0010
0001
0010
1000
0000
,
1010
0000
1001
0000
0001
0010
0100
0000
,
0110
0000
0010
0001
0010
0100
1000
0010
,
0001
0010
1000
0100
0010
0000
0001
0010
,
1000
0000
0000
0010
0000
0000
0001
0000
0000
0100
0000
0000
0010
0000
0000
0000
0000
0000
1000
0000
0100
0000
0010
0000
,
0001
0000
0000
0100
0000
0000
0001
0000
0000
0010
0000
0000
0100
0000
0000
1000
0000
0000
0001
0000
1000
0000
0001
0000
,
1000
0000
0001
0000
1000
0000
0001
0000
1000
0000
0001
0000
1000
0000
0001
0000
0000
0000
1001
0000
0000
1000
0000
0000
,
0100
0000
0001
0100
1000
0000
0010
0000
0200
0000
0000
0000
0310
0000
1000
0000
,
0100
0000
0010
0001
1000
0000
0010
0000
0100
0010
1000
0000
0100
0000
1100
0000
,
1000
0010
0100
0000
0001
0000
0101
0000
0100
0000
0100
0000
0010
0000
1000
0010
,
0100
0000
0001
0000
0010
0100
1000
0000
1001
0000
0001
1000
0100
0000
0001
0000
,
0100
1100
1000
0001
0101
0000
0100
1000
,
0100
0000
0101
0000
0001
0010
0100
0000
1100
0000
1000
0001
0100
0000
0101
0000
,
0001
0000
0010
0000
0100
0000
0110
0000
0010
0001
1000
0010
0100
0000
0010
0100
,
0001
0000
0102
0000
0000
0000
0103
0000
0100
0010
1000
0000
1001
0000
0001
0000
,
0010
1010
1000
0010
0001
0000
0001
1000
,
0010
0000
0011
0000
0001
0020
0000
0000
1000
0000
1030
0000
1010
0000
0110
0000
,
0100
0000
0001
0000
0011
0000
0110
0000
0010
0000
0010
0000
0110
0000
0100
1000
,
0001
0000
0100
0000
0010
1000
0001
0000
0010
0000
0100
0010
0001
0000
0001
0000
,
0100
1100
0000
0100
0101
0000
1010
1000
,
0100
0000
0101
0000
0001
0200
0000
0000
1000
0000
1300
0000
1100
0000
0100
0000
,
0020
0000
0000
0000
0031
0000
1001
0000
1000
0010
0100
0000
0101
0000
0001
0100
,
0001
0010
0200
0000
0000
0000
1300
0000
1000
0000
0001
0000
1001
1000
0100
0010
,
0001
0010
0100
1000
0001
0100
0010
1000
0100
0010
0001
0010
0100
1000
0100
1000
,
0010
1000
0010
0100
0001
0100
0001
0010
0001
0010
0100
1000
0001
0200
0000
0301
,
1000
0200
0000
0310
0011
0000
0110
0000
1100
0000
0110
0000
1100
1000
0100
0010
,
0000
0010
0001
0000
0001
0100
0000
0010
1000
0000
1001
0000
0011
0010
0001
0010
,
1000
0010
1000
0010
0001
0100
0001
0100
1000
0100
1000
0100
0001
1000
0010
0100
,
0001
0000
0010
0000
0100
0000
1000
0000
0010
0000
0100
0000
0001
0000
1000
0000
0100
0000
0010
0000
0001
0000
1000
0000
0010
1000
0100
0000
0010
0000
0001
0000
,
0010
0001
0100
0000
0010
0000
1000
0000
0001
0100
0001
0000
1000
0001
1000
0000
0100
1000
0100
0000
0010
0000
0001
0000
1000
0001
0100
0000
0010
0000
1000
0000
,
0001
1000
0100
0000
0010
0000
0001
0000
1000
0100
0010
0000
0001
0010
0100
1000
0010
1000
0001
0000
0010
0001
1000
0000
2002
0000
0000
0000
0000
0000
0000
0000
,
0000
0000
0000
0000
0000
0000
0000
0000
0000
0000
0000
0000
0000
0000
0000
0000
0000
0000
0000
3003
0000
0000
0000
0000
0021
0000
0000
0000
0000
0000
0000
0000
,
0000
0032
0000
0000
0103
0000
0201
0000
,
0000
0310
0000
1020
,
0000
2030
0000
0000
3100
0000
1200
0000
,
1000
0310
0000
0110
,
0100
1000
0001
0101
,
0100
0010
1000
1010
,
0110
0000
0101
0000
1001
0000
1000
0100
,
0001
0100
1000
0001
0010
0001
1000
0010
,
0100
0000
0101
0000
0001
0010
0100
1000
,
0001
0000
0100
0001
1000
0000
0100
0010
,
0100
1000
0010
0100
0001
1000
0010
0000
,
0100
0001
1000
0000
1001
0000
0001
1000
,
0100
0000
1000
0010
0001
0010
1000
0100
,
0010
0000
0001
0010
0100
0000
1000
0100
,
0010
0001
1000
0010
0100
0001
0010
0000
,
0100
0010
0100
0010
0000
0000
0011
0000
0000
1001
0000
0000
,
1100
0000
1000
0010
0100
0001
1000
0000
,
0100
1000
0001
0000
0100
0010
0100
0001
,
0010
0100
1000
0001
0100
0010
1000
0000
,
0001
1000
0001
0000
1001
0000
1000
0100
,
0010
0000
0001
0010
1000
0010
0001
0000
,
1000
0010
0100
0000
0101
0000
2001
0000
,
0000
3001
1001
1000
1001
0001
1001
0000
,
0001
0010
0100
0000
1000
0001
0100
0000
,
0101
0000
0100
0010
1000
0100
0010
0001
,
1000
0000
0010
1000
0001
0010
0100
0000
,
1000
0100
0001
0000
0101
0000
0100
1000
,
0010
0000
0110
0000
0100
0001
1000
0000
,
1001
0000
0001
0010
1000
0010
0001
0000
,
0101
0000
0110
0000
0010
1000
0001
0000
,
1000
0100
0010
0001
1000
0010
0100
0001
,
1000
0000
0100
1000
0001
0100
0010
0000
,
1010
0000
0010
0100
0001
0000
1000
0010
,
0001
0010
1000
0100
0010
0001
0010
0000
,
0110
0000
0100
1000
0010
0100
0001
0100
,
1000
0100
0001
0010
0100
0000
1000
0100
,
0001
0000
0000
0100
0000
0000
1000
0000
0000
0010
0000
0000
0100
0000
0000
0000
0000
0000
0001
0000
0010
0000
0100
0000
,
1000
0000
0000
0010
0000
0000
1000
0000
0000
0001
0000
0000
0010
0000
0000
0001
0000
0000
0100
0000
0010
0000
0100
0000
,
0010
0100
0010
0100
0010
0100
0010
0100
0010
2000
0000
0000
,
0000
3002
0000
0000
0103
0000
0210
0000
,
0000
0310
2010
0000
,
3100
1100
0100
0101
,
0110
1100
0000
1010
,
0000
0110
0100
0101
,
0001
0100
0001
0000
0011
0000
1001
0000
,
1000
0000
0001
0000
0010
0000
0100
1000
,
0010
0100
0001
1000
0100
0010
0001
0100
,
0001
0100
1000
0100
1000
0100
0001
0010
,
0100
1000
0010
0100
0001
1000
0100
0001
,
0100
0001
0100
1000
0100
1000
0010
0100
,
0001
0000
0000
1000
0000
0000
0100
0000
0000
0010
0000
0000
0001
0000
0000
1000
0000
0000
0001
0000
0010
0000
0100
0000
,
1000
0000
0000
1001
0000
0000
0101
0000
0000
0001
0100
0010
,
1000
0000
0000
1001
0000
0000
1100
0000
0000
1000
0010
0100
,
0001
0000
0000
0010
0000
0000
0100
0000
0000
1000
0000
0000
0010
0000
0000
0100
0000
0000
0001
0000
1000
0000
0001
0000
,
1000
0001
1000
0001
1000
0001
1000
0001
1000
0020
0000
0000
,
0000
0000
0000
0000
,
0000
0000
0000
0030
;
