#VERSION:0.83;
#TITLE:Orange Lullaby;
#SUBTITLE:;
#ARTIST:Yooh;
#TITLETRANSLIT:;
#SUBTITLETRANSLIT:;
#ARTISTTRANSLIT:;
#GENRE:;
#ORIGIN:;
#CREDIT:;
#BANNER:;
#BACKGROUND:;
#PREVIEWVID:;
#JACKET:;
#CDIMAGE:;
#DISCIMAGE:;
#LYRICSPATH:;
#CDTITLE:;
#MUSIC:Orange Lullaby.ogg;
#OFFSET:0.000000;
#SAMPLESTART:0.000000;
#SAMPLELENGTH:15.001000;
#SELECTABLE:YES;
#DISPLAYBPM:120.000000;
#BPMS:0.000=119.989;
#STOPS:;
#DELAYS:;
#WARPS:;
#TIMESIGNATURES:0.000=4=4;
#TICKCOUNTS:0.000=4;
#COMBOS:0.000=1;
#SPEEDS:0.000=1.000=0.000=0;
#SCROLLS:0.000=1.000;
#FAKES:;
#LABELS:0.000=Song Start;
#BGCHANGES:;
#KEYSOUNDS:;
#ATTACKS:
;

//---------------dance-single - ----------------
#NOTEDATA:;
#CHARTNAME:;
#STEPSTYPE:dance-single;
#DESCRIPTION:;
#CHARTSTYLE:;
#DIFFICULTY:Easy;
#METER:6;
#RADARVALUES:0.184596,0.245930,0.091703,0.075029,0.012505,155.000000,144.000000,11.000000,9.000000,0.000000,0.000000,0.000000,0.000000,0.000000,0.184596,0.245930,0.091703,0.075029,0.012505,155.000000,144.000000,11.000000,9.000000,0.000000,0.000000,0.000000,0.000000,0.000000;
#CREDIT:pigfacepsycho;
#DISPLAYBPM:120.000000;
#NOTES:
// measure 0
0000
0000
0000
0000
,  // measure 1
0000
0000
0000
0000
,  // measure 2
0000
0000
0000
0000
,  // measure 3
0000
0000
0000
0000
,  // measure 4
1000
0000
1000
1000
,  // measure 5
0001
0000
0001
0001
,  // measure 6
0100
0000
0100
0100
,  // measure 7
0010
0000
0010
0000
,  // measure 8
1000
0000
0000
0000
,  // measure 9
0100
0000
0100
0000
,  // measure 10
0001
0000
0000
0000
,  // measure 11
0100
0000
0100
0000
,  // measure 12
1000
0000
1000
0000
,  // measure 13
1000
0000
1000
0000
,  // measure 14
0001
0000
0001
0000
,  // measure 15
0001
0001
0001
0001
,  // measure 16
0200
0000
0000
0000
,  // measure 17
0000
0000
0000
0300
,  // measure 18
0002
0000
0000
0000
,  // measure 19
0000
0000
0000
0003
,  // measure 20
0020
0000
0000
0030
0020
0000
0000
0030
,  // measure 21
0200
0000
0000
0300
0200
0000
0000
0300
,  // measure 22
2000
0000
0000
3000
2000
0000
0000
3000
,  // measure 23
2000
0000
0000
3000
,  // measure 24
0001
0001
0000
0000
,  // measure 25
1000
1000
0000
0000
,  // measure 26
0001
1000
0000
0000
,  // measure 27
1000
0001
0000
0000
,  // measure 28
1000
1000
0000
0000
,  // measure 29
0001
0001
0000
0000
,  // measure 30
1001
0000
0000
0000
,  // measure 31
0110
0000
0000
0000
,  // measure 32
1001
0000
1001
0000
,  // measure 33
0110
0000
1001
0000
,  // measure 34
0001
0000
0000
0000
0001
0000
0000
0000
0010
0000
0000
0010
0000
0000
0000
0000
,  // measure 35
1000
0000
0000
0000
1000
0000
0000
0000
0010
0000
0000
0010
0000
0000
0000
0000
,  // measure 36
0100
0000
0000
0000
0001
0000
0000
0000
1000
0000
0000
1000
0000
0000
0000
0000
,  // measure 37
0100
1000
1001
0000
,  // measure 38
1000
1000
1000
1000
,  // measure 39
0001
0001
0001
0001
,  // measure 40
0100
0100
0100
0100
,  // measure 41
0100
0100
0100
0100
,  // measure 42
0001
0001
0001
0001
,  // measure 43
1000
1000
1000
1000
,  // measure 44
0100
0100
0100
0100
,  // measure 45
0100
0100
0100
0100
,  // measure 46
0001
0001
1000
1000
,  // measure 47
0010
0010
0100
0100
,  // measure 48
0010
0010
0010
0010
,  // measure 49
1000
1000
1000
1000
,  // measure 50
0001
0001
0001
0001
,  // measure 51
0010
0010
0010
0010
,  // measure 52
0100
0100
0100
0100
,  // measure 53
0100
0100
0100
0100
,  // measure 54
1000
1000
0100
0000
,  // measure 55
1000
0001
1000
0001
,  // measure 56
1001
0000
0000
0000
,  // measure 57
0110
0000
0000
0000
,  // measure 58
1001
0000
0000
0000
,  // measure 59
1001
0000
0000
0000
;

//---------------dance-single - ----------------
#NOTEDATA:;
#CHARTNAME:;
#STEPSTYPE:dance-single;
#DESCRIPTION:;
#CHARTSTYLE:;
#DIFFICULTY:Medium;
#METER:13;
#RADARVALUES:0.507342,0.614824,0.200078,0.358474,0.362642,426.000000,402.000000,24.000000,43.000000,0.000000,0.000000,0.000000,0.000000,0.000000,0.507342,0.614824,0.200078,0.358474,0.362642,426.000000,402.000000,24.000000,43.000000,0.000000,0.000000,0.000000,0.000000,0.000000;
#CREDIT:pigfacepsycho;
#DISPLAYBPM:120.000000;
#NOTES:
0000
0000
0000
0000
,
0000
0000
0000
0000
,
0000
0000
0000
0000
,
0000
0000
0000
0000
,
1000
0000
0000
0001
0000
0000
0001
0000
1000
0000
1000
0100
0000
0000
0010
0000
,
0001
0000
0000
1000
0000
0000
1000
0000
0001
0000
0001
0100
0000
0000
0010
0000
,
0100
0001
1000
0010
0100
0001
0010
0000
,
0100
1000
0002
0000
0103
0001
0010
0100
,
1001
0000
0000
1000
0000
0000
1000
0000
0001
0000
0000
0100
0000
0000
0010
0000
,
1010
0000
1000
0001
1000
0000
0100
0000
0010
0000
0000
0001
0000
0000
0001
0000
,
0010
0000
0100
1000
0100
1000
0010
0100
0001
0000
0000
0010
0000
0000
0100
0000
,
2000
0000
0000
0000
0002
0000
0000
3003
,
1000
0000
0010
0100
0010
0000
1000
0000
0100
0010
0100
0000
1000
0000
0010
0100
,
0010
0100
0010
0000
1000
0000
0100
0010
0100
0000
1000
0010
0100
0001
0010
0000
,
0001
0000
0100
0010
0100
0000
0001
0000
0010
0100
0010
0000
0001
0100
0010
0100
,
0002
0000
0023
0000
2030
0000
3010
0001
,
0202
0003
0310
0000
,
2200
3000
0310
0000
,
0200
0000
0000
0300
0200
0000
0000
0300
,
0200
0000
0000
0000
0000
0000
0000
0300
,
0002
0000
0003
0001
0202
0000
0303
1000
,
0022
0000
0033
0100
2020
0000
3030
0000
,
0002
0000
0003
1000
2020
0000
3030
0001
,
0022
0000
0000
0033
,
2000
0000
3000
1000
0000
0000
0010
0000
0100
0000
0001
0000
0010
0000
0010
0000
,
0002
0000
0003
0001
0000
0000
0010
0000
0001
0000
1000
0100
0001
0000
0100
0000
,
2000
0000
3000
1000
0000
0000
0100
0000
0010
0000
0001
0000
0100
0000
0100
0000
,
0002
0000
0003
0001
0000
0000
0100
0000
0001
0000
1000
0010
0001
0000
0010
0000
,
0210
0000
0000
0301
0000
0000
0001
0000
0010
0000
0001
0100
1000
0000
0100
0000
,
0010
0000
1000
0100
0000
0000
0010
0000
0100
0000
1000
0000
0010
0000
0100
0000
,
1002
0000
0003
0100
1001
0000
0000
0100
,
1002
0000
0000
0100
0000
0000
0103
0000
0010
0000
0010
0000
1000
0000
0000
0000
,
0200
0000
0000
0000
1300
0010
0100
0000
0020
0000
0000
0000
1030
0100
0010
0000
,
0002
0000
0000
0000
0103
0001
0010
0000
0200
0000
0300
0200
0000
0300
0100
0000
,
1000
0000
0001
0000
0010
0000
0001
0000
1000
0000
0000
1010
0000
0000
0000
0000
,
1000
0000
0001
0000
0100
0000
0001
0000
0010
0000
0000
0011
0000
0000
0100
0000
,
1000
0000
0001
0000
0010
0000
0001
0000
1000
0000
0000
1010
0000
0000
0100
0010
,
1000
1000
0100
0100
0010
0000
0000
0000
,
0001
0000
1000
0000
0100
0010
0100
0000
1000
0000
0001
0000
0100
0010
0100
0000
,
0001
0000
1000
0000
0100
0010
0100
0000
1000
0010
0001
0000
0001
0010
1000
0000
,
0100
0000
0100
0000
0010
0000
0010
0000
0001
0000
0100
0010
0000
0100
0010
0000
,
1000
0000
0100
0000
0001
0000
0100
0000
1000
0001
0100
0000
0001
1000
0100
0000
,
0001
0000
1000
0000
0100
0010
0100
0000
1000
0000
0001
0000
0100
0010
0100
0000
,
0001
0000
1000
0100
0000
1000
0100
0000
0010
0000
0010
0000
0001
0000
0001
0000
,
0100
0001
0100
0000
0001
0000
0010
0000
0100
1000
0100
0000
1000
0000
0010
0000
,
0100
0001
0010
0000
0100
1000
0010
0000
0100
0001
0010
0000
0100
1000
0010
0000
,
0100
0000
0001
0000
0010
0100
0010
0000
0001
0000
0100
0000
0010
0000
1000
0000
,
0100
0000
1000
0010
0000
0000
0100
0000
0001
0000
0010
0100
0000
0000
1000
0000
,
0010
0100
0001
0000
0010
0100
1000
0000
0010
0000
1000
0000
0100
0000
0001
0000
,
0100
1000
0010
0000
0100
0001
0010
0000
0100
1000
0010
0000
1001
0000
0000
0000
,
0010
1000
0001
0000
0010
0001
1000
0000
0100
0010
0001
0000
0100
0010
1000
0000
,
0100
0001
0100
0000
1000
0010
0100
0000
1000
0100
0001
0000
0010
0100
0001
0000
,
0100
1000
0010
0000
0100
0001
0010
0000
0001
0100
1000
0000
0100
0001
0010
0000
,
0100
0000
1000
0010
0000
1000
0010
0000
0100
0000
0001
0000
0010
0000
0100
0000
,
2000
0000
3000
1000
0000
0000
0010
0000
0100
0000
0001
0000
0010
0000
0010
0000
,
0002
0000
0003
0001
0000
0000
0010
0000
0001
0000
1000
0100
0001
0000
0100
0000
,
1002
0000
0003
0100
1001
0000
0000
0100
,
1002
0000
0000
0100
0000
0000
0103
0000
0010
0000
0010
0000
1000
0000
0000
0000
,
0220
0000
0000
0000
0000
0000
0000
0000
0330
0000
1100
0000
0000
1010
0000
0000
,
0101
0000
0000
0000
;

//---------------dance-single - ----------------
#NOTEDATA:;
#CHARTNAME:;
#STEPSTYPE:dance-single;
#DESCRIPTION:;
#CHARTSTYLE:;
#DIFFICULTY:Hard;
#METER:15;
#RADARVALUES:0.683601,0.836161,0.458513,0.241761,0.771135,574.000000,519.000000,55.000000,29.000000,0.000000,0.000000,0.000000,0.000000,0.000000,0.683601,0.836161,0.458513,0.241761,0.771135,574.000000,519.000000,55.000000,29.000000,0.000000,0.000000,0.000000,0.000000,0.000000;
#CREDIT:pigfacepsycho;
#DISPLAYBPM:120.000000;
#NOTES:
0000
0000
0000
0000
,
0000
0000
0000
0000
,
0000
0000
0000
0000
,
0000
0000
0000
0000
,
1000
0000
0000
0010
0000
0000
0100
0000
0001
0000
0010
0001
0000
0000
0100
0000
,
0001
0000
0000
0010
0000
0000
0100
0000
1000
0000
0010
0100
0010
0000
1000
0000
,
0100
0000
1000
0100
0000
0010
0001
0000
0100
0000
0001
0010
0000
0100
1000
0000
,
0010
1000
0002
0000
0013
0001
2000
0000
,
3001
0000
0010
0100
0000
0100
1000
0000
1010
0000
0000
0110
0000
0000
0101
0000
,
0001
0000
1000
0001
0000
0001
1000
0100
0011
0000
0000
0110
0000
0000
1100
0000
,
1000
0000
0010
0100
0000
0100
0001
0000
0011
0000
0000
0110
0000
0000
1100
0000
,
1000
0000
0001
1000
0010
1000
0001
0100
1010
0000
0000
0110
0000
0000
0101
0000
,
0001
0010
1000
0010
0001
0000
1000
0010
0001
0010
1000
0000
0001
0010
1000
0010
,
1000
0010
0001
0000
1000
0010
0001
0010
1000
0000
0001
0010
0100
1000
0010
0000
,
1000
0100
0001
0100
1000
0000
0001
0100
1000
0100
0001
0000
1000
0100
0001
0100
,
0020
0000
1000
0000
0031
0000
0100
0010
,
0020
0000
0000
0030
1100
0000
0000
0000
,
0020
0000
0000
0030
0101
0000
0000
0000
,
1002
0000
0000
0100
0000
0000
0103
0000
2001
0000
0000
0100
0000
0000
3100
0000
,
0220
0000
0000
0330
,
0012
0000
0000
0013
0220
0000
0330
0100
,
2100
0000
0000
3010
0220
0000
0330
0000
,
1002
0000
0000
0010
0000
0000
0013
0000
2001
0000
0000
0010
0000
0000
3010
0000
,
0202
0000
0000
0000
0303
0010
0000
0001
,
0100
0001
0010
0100
0000
0010
0001
0000
0100
0000
0010
0001
0010
0000
1000
0000
,
0100
0000
1000
0010
0000
1000
0100
0000
0010
0000
0001
0100
0000
0001
0010
0000
,
0100
1000
0010
0100
0000
0010
1000
0000
0100
0000
0010
1000
0010
0000
0001
0000
,
0100
0000
0001
0010
0000
0001
0100
0000
0010
0000
1000
0100
0000
1000
0010
0000
,
0100
0010
1000
0001
0000
0010
0100
0000
0010
0001
0100
0010
0000
1000
0001
0000
,
1000
0001
0100
0010
0000
0100
0001
0000
0010
0000
0100
0001
0100
0000
1000
0000
,
2010
0000
0000
0001
0000
0000
3100
0000
0011
0000
1100
0000
0000
0000
0001
0000
,
0012
0000
0000
1000
0000
0000
0103
0000
1010
0000
0110
0000
0101
0000
0000
0000
,
0002
0000
0013
0001
0100
1000
0100
0010
2000
0000
3010
1000
0100
0001
0100
0010
,
0002
0000
0013
0001
0100
1000
0100
0010
2000
0000
3001
0100
0000
0001
1000
0000
,
0100
0000
0010
0001
0010
0000
0001
0100
1001
0000
0000
0110
0000
0000
0000
0000
,
1000
0000
0100
1000
0100
0000
1000
0010
1001
0000
0000
0110
0000
0000
0101
0000
,
0100
0000
0001
0010
0100
0000
1000
0010
0100
0001
0000
0011
0000
0000
0100
1000
,
0010
0000
0100
0010
1000
0000
0100
0010
0001
1000
0000
0000
0010
0000
0010
0000
,
0100
0000
0001
0000
1000
0100
0001
0000
0100
1000
0001
0010
0000
0010
0100
0000
,
1000
0000
0001
0100
0000
0001
0010
0000
0001
0000
1000
0010
0001
0010
1000
0000
,
0100
0010
0001
0000
0100
0010
1000
0000
0100
1000
0001
0000
0100
0001
1000
0000
,
0001
1000
0100
0001
1000
0010
0001
1000
0010
0001
0010
1000
0100
0000
0110
0000
,
0100
0000
1000
0010
0100
0000
0101
0000
0100
0000
0001
0010
0100
0000
1100
0000
,
1000
0000
0010
0001
0000
0010
1000
0000
0100
0000
0001
0100
0010
0000
0001
0000
,
0100
0010
1000
0000
0100
0010
0001
0000
0100
0001
1000
0000
0100
1000
0001
0000
,
0100
0000
0010
0000
0001
0000
1000
0000
0100
0000
0001
0010
0001
0000
0100
0000
0010
0000
1000
0000
0100
0000
0001
0000
0100
0000
0000
0000
1000
0000
0001
0000
,
0100
0000
0101
0000
0001
0010
0100
0000
0100
0000
1100
0000
1000
0010
0100
0000
,
0001
0000
0010
1000
0000
0010
0001
0000
0100
0000
0001
0010
0100
0000
1100
0000
,
0100
0010
0001
0000
0100
0010
1000
0000
0100
1000
0001
0000
0100
0001
1000
0000
,
0001
1000
0010
0001
1000
0100
0001
1000
0100
0001
0100
1000
0010
0000
0010
0100
,
0001
0100
0010
1000
0100
0010
0001
0100
0010
1000
0100
0010
0001
0100
0010
1000
,
0001
0010
0100
1000
0010
0100
0001
0010
0100
1000
0010
0100
0001
0010
0100
1000
,
0010
1000
0001
0001
0010
0001
1000
1000
0100
0010
0100
1000
0010
1000
0010
0100
,
0110
0000
0010
1000
0010
0000
0100
0010
0100
0000
0001
0010
0001
0000
1000
0000
,
0100
1000
0010
0100
0000
0010
1000
0000
0100
0000
0010
1000
0010
0000
0001
0000
,
0100
0000
0001
0010
0000
0001
0100
0000
0010
0000
1000
0100
0000
1000
0010
0000
,
2010
0000
0000
0001
0000
0000
3100
0000
0011
0000
1100
0000
0000
0000
0001
0000
,
0012
0000
0000
1000
0000
0000
0103
0000
1010
0000
1001
0000
1100
0000
0000
0000
,
2002
0000
0000
0000
0000
0000
0000
0000
3003
0000
0110
0000
0000
0101
0000
0000
,
1100
0000
0000
0000
;
