#VERSION:0.83;
#TITLE:Never Say;
#SUBTITLE:;
#ARTIST:ND Lee;
#TITLETRANSLIT:;
#SUBTITLETRANSLIT:;
#ARTISTTRANSLIT:;
#GENRE:;
#ORIGIN:;
#CREDIT:;
#BANNER:;
#BACKGROUND:;
#PREVIEWVID:;
#JACKET:;
#CDIMAGE:;
#DISCIMAGE:;
#LYRICSPATH:;
#CDTITLE:;
#MUSIC:Never Say.ogg;
#OFFSET:-1.943000;
#SAMPLESTART:56.610001;
#SAMPLELENGTH:10.667000;
#SELECTABLE:YES;
#BPMS:0.000=180.000,
196.000=90.000,
212.000=180.000;
#STOPS:;
#DELAYS:;
#WARPS:;
#TIMESIGNATURES:0.000=4=4;
#TICKCOUNTS:0.000=4;
#COMBOS:0.000=1;
#SPEEDS:0.000=1.000=0.000=0;
#SCROLLS:0.000=1.000;
#FAKES:;
#LABELS:0.000=Song Start;
#BGCHANGES:;
#KEYSOUNDS:;
#ATTACKS:
;

//---------------dance-single - ----------------
#NOTEDATA:;
#CHARTNAME:;
#STEPSTYPE:dance-single;
#DESCRIPTION:;
#CHARTSTYLE:;
#DIFFICULTY:Easy;
#METER:6;
#RADARVALUES:0.291854,0.346137,0.073843,0.164094,0.000000,249.000000,240.000000,9.000000,20.000000,0.000000,0.000000,0.000000,0.000000,0.000000,0.291854,0.346137,0.073843,0.164094,0.000000,249.000000,240.000000,9.000000,20.000000,0.000000,0.000000,0.000000,0.000000,0.000000;
#CREDIT:includekhakis;
#NOTES:
0000
0000
0000
0000
,
0000
0000
0000
0000
,
0000
0000
0000
0000
,
0000
0000
0000
0000
,
0000
0000
0000
0000
,
2000
0000
3200
0000
,
0301
0100
1000
0000
,
0002
0000
0203
0000
,
1300
0100
0001
0000
,
1001
0000
1000
0100
,
1000
0000
0001
0100
,
0001
0000
1000
0010
,
0100
0100
0001
0010
,
0200
0000
0300
0100
,
0000
0000
1000
0001
,
0100
1000
0100
0001
,
1000
1000
0100
0000
,
0010
0000
0000
0011
,
0000
0001
1000
0010
,
0100
0000
0100
0001
,
0010
1000
0010
0001
,
2000
0000
3000
0000
,
0010
0000
0110
0100
,
0001
0000
0001
0000
,
0010
0100
1001
0000
,
1000
0010
1000
0000
,
0001
0100
0001
0000
,
1000
0001
1000
1000
,
0100
0000
0000
0000
,
1000
0100
1000
0000
,
0010
0001
0010
0000
,
0100
0001
1000
0100
,
0001
0100
1000
0000
,
0002
0000
0100
0103
,
0020
0000
1000
1030
,
0200
0000
0010
0310
,
0001
1000
0001
0000
,
2000
0000
0100
3100
,
0020
0000
0001
0031
,
0200
0000
0310
0100
,
1000
0100
0001
0000
,
1000
0100
0010
0001
,
0100
0010
1000
0000
,
0001
0100
0010
1000
,
0100
0010
0001
0000
,
1000
0100
0010
0001
,
1000
0010
0001
0010
,
0100
0000
0001
0000
,
1000
0001
1001
0000
,
1000
0100
0001
1000
,
0001
0100
1000
0001
,
1000
0010
0001
1000
,
0001
0010
1000
0001
,
1000
0000
0100
0000
,
0010
0001
0100
0000
,
0100
0001
1000
1000
,
0002
0000
0003
1000
,
0100
0010
0001
0001
,
0100
1000
0100
0001
,
1001
0000
0000
0000
0000
0000
0000
0010
,
0000
0100
0000
1000
0000
1000
0000
0000
,
0002
0000
0103
0000
,
0200
0000
1300
0000
,
2000
0000
3010
0000
,
0020
0000
0031
0000
,
1000
0100
1000
1000
,
0001
0100
0010
0000
,
0100
0001
1000
0000
,
0001
0010
1001
0000
,
1000
0100
0001
0100
,
1000
0100
0010
0000
,
0001
0100
1000
0100
,
0001
0100
0010
0000
,
1000
0100
0001
0100
,
0010
0001
0100
0010
,
1000
0000
0001
0000
,
0010
0100
1001
0000
,
2000
0000
0000
0001
0000
0000
3000
0000
,
0001
0100
0001
0000
,
0002
0000
0000
1000
0000
0000
0003
0000
,
1000
0100
1000
0000
,
2000
0000
0000
0010
0000
0000
3000
0000
,
1000
0010
0100
0001
,
0010
0100
1000
0001
,
0100
0000
0000
0110
0000
0000
0000
0000
;

//---------------dance-single - ----------------
#NOTEDATA:;
#CHARTNAME:;
#STEPSTYPE:dance-single;
#DESCRIPTION:;
#CHARTSTYLE:;
#DIFFICULTY:Medium;
#METER:10;
#RADARVALUES:0.452432,0.553819,0.311780,0.377417,0.032819,386.000000,348.000000,38.000000,46.000000,0.000000,0.000000,0.000000,0.000000,0.000000,0.452432,0.553819,0.311780,0.377417,0.032819,386.000000,348.000000,38.000000,46.000000,0.000000,0.000000,0.000000,0.000000,0.000000;
#CREDIT:includekhakis;
#NOTES:
0000
0000
0000
0000
,
0000
0000
0000
0000
,
0000
0000
0000
0000
,
0000
0000
0000
0000
,
0000
0000
0000
0000
,
2000
3002
2003
3002
,
0103
0000
0010
1000
0100
0000
0000
0000
,
0002
2003
3002
2003
,
3100
0000
0010
0001
0100
0000
0000
0000
,
0110
0000
0000
0000
0010
1000
0001
0000
,
1000
0000
0000
0000
0100
1000
0001
0000
,
1000
0000
0000
0000
0010
0100
0001
0000
,
0010
0100
0001
0100
,
2000
0000
0000
0001
0000
0000
3100
0000
,
0000
0000
0010
0000
0001
1000
0001
0000
,
0100
0010
0000
1000
0000
0001
0000
0201
,
0000
0000
0010
0310
0000
0000
0000
0000
,
1001
0000
0000
0000
1000
0100
0010
0001
,
1000
0000
0000
0000
0001
0100
0010
1000
,
0001
0000
0000
0000
0100
0010
0100
0000
,
0001
1001
0010
0100
,
0002
0000
0000
0103
0000
1000
0000
0002
,
0000
0000
0103
0000
0010
1000
0001
0000
,
0020
0000
0130
0020
0000
0031
0000
2001
,
0000
0000
3010
0000
0100
0001
1000
0000
,
0001
0010
0000
0200
0000
1300
0000
1010
,
0000
0110
0000
0102
0000
0000
1003
0000
,
0100
0010
0000
0011
0000
1001
0000
2020
,
0000
0000
3030
0000
0001
1000
0010
0000
,
0100
0010
0000
1000
0000
0001
0000
0021
,
0000
0000
0100
0130
0000
1000
0001
1000
,
0010
0000
0000
0100
0000
0010
0000
1010
,
0000
1100
0000
0011
0000
0101
0000
0000
,
0200
0000
0310
1000
0000
0001
0000
0010
,
0000
0100
0000
1000
0000
1000
0000
0001
,
0000
0100
0000
0010
0000
0010
0000
2001
,
0000
0000
3100
0010
0001
0000
0000
0000
,
1000
0010
0000
0110
0000
0110
0000
0002
,
0000
1003
0000
1100
0000
1100
0000
0020
,
0000
0031
0000
1000
0000
0010
0000
0002
,
0000
0000
0013
2000
0000
0000
3000
0000
,
0001
0000
0100
0010
0000
0100
1000
0000
,
0100
0010
0100
0001
1000
0000
0000
0000
,
1000
0000
0100
0010
0000
0100
0001
0000
,
0100
0010
0100
1000
0001
0000
0000
0000
,
1000
0010
0100
0000
0100
0001
1000
0000
,
0001
0010
0100
0000
1000
0001
1000
0010
,
0100
0000
0001
0000
1000
0000
0100
0001
,
0000
0100
1000
0001
0000
0000
0000
0000
,
1000
0000
0000
0010
0000
0000
0100
0000
0000
0010
0000
0000
1000
0000
1001
0000
,
0001
0000
0000
0010
0000
0000
0100
0000
0000
0010
0000
0000
0001
0000
1001
0000
,
1000
0000
0000
0010
0000
0000
0001
0000
0000
0010
0000
0000
0100
0000
0110
0000
,
0010
0000
0000
1000
0000
0000
0100
0000
0000
0010
0000
0000
0002
0000
0000
0000
,
1003
0010
0000
0100
0000
0100
0000
1001
,
0000
0011
0000
2100
0000
0000
3001
0000
,
0100
0010
0000
0110
0000
1001
0000
0022
,
0000
0000
0033
0000
0001
1000
0100
0000
,
1000
0001
0000
0100
0000
0110
0000
2001
,
0000
0000
3100
0200
0000
0310
0001
1000
,
0020
0000
0000
0000
0030
0000
0000
0110
,
0000
1001
0000
1100
0000
0011
0000
0000
,
2000
0000
0000
3010
0000
0100
0000
0002
,
0000
0000
0000
0013
0000
0100
0000
2000
,
0000
0000
0000
3001
0000
0100
0000
2000
,
0000
0000
3100
0002
0000
0000
0003
0000
,
1000
0100
0000
0010
0000
0001
0000
1000
,
0000
0010
0000
0001
0000
0010
0000
0100
,
0000
0001
0000
1001
0000
0010
0000
2000
,
0000
0000
3010
0002
0000
0000
0003
0000
,
1000
0000
0010
0100
0000
0010
0001
0000
,
1000
0100
0000
0010
1000
0000
0000
0000
,
0001
0000
0010
0100
0000
0010
1000
0000
,
0001
0100
0000
0010
0100
0000
0000
0000
,
1000
0001
0100
0000
0100
0010
1000
0000
,
0001
0010
0100
0000
1000
0001
1000
0010
,
0100
0000
0001
0000
1000
0100
0000
0001
,
0000
0100
0000
0010
0001
1000
0001
0000
,
2000
0000
3010
0200
0000
0000
0301
0000
,
1000
0001
1000
0000
0100
0010
0001
0000
,
0002
0000
0103
0020
0000
0000
1030
0000
,
0001
1000
0001
0000
0010
0100
1000
0000
,
2000
0000
3010
0200
0000
0000
0301
0000
,
1000
0001
1000
0001
0010
0100
1000
0000
,
0001
0100
0001
0000
0100
0010
0000
1010
,
0000
0001
1000
0100
0000
0000
0000
0000
;

//---------------dance-single - ----------------
#NOTEDATA:;
#CHARTNAME:;
#STEPSTYPE:dance-single;
#DESCRIPTION:;
#CHARTSTYLE:;
#DIFFICULTY:Hard;
#METER:13;
#RADARVALUES:0.582535,0.761501,0.221528,0.336394,0.049228,497.000000,470.000000,27.000000,41.000000,0.000000,0.000000,0.000000,0.000000,0.000000,0.582535,0.761501,0.221528,0.336394,0.049228,497.000000,470.000000,27.000000,41.000000,0.000000,0.000000,0.000000,0.000000,0.000000;
#CREDIT:includekhakis;
#NOTES:
0000
0000
0000
0000
,
0000
0000
0000
0000
,
0000
0000
0000
0000
,
0000
0000
0000
0000
,
0000
0000
0000
0000
,
0000
0000
0000
0000
,
0000
0000
0000
0000
,
0000
0000
0000
0000
,
0000
0000
0000
0000
,
1000
0000
0000
0010
0001
0010
0100
0001
,
1000
0000
0000
0100
0010
0100
0001
0100
,
1000
0000
0000
0010
0100
0001
0010
0100
,
2000
3001
0002
0103
,
1000
0100
0001
2000
0000
0001
3001
0000
,
0010
0100
0000
0100
1000
0001
0100
0010
,
0100
1000
0000
0100
0000
0100
0000
0001
,
1000
0001
0010
0200
0000
1000
1300
0001
,
0100
0000
0110
0000
0000
0000
1001
1000
,
0100
0010
1000
0000
1000
0010
0001
1000
,
0001
0000
0100
0100
0010
0100
0001
0010
,
0100
0002
2003
3010
,
0001
1000
0001
0010
0000
0100
1000
0010
,
0000
0110
0000
0100
1000
0100
0001
1000
,
1200
0000
0310
0200
0000
1300
0000
0001
,
1000
1000
0000
0001
0010
0100
1000
0001
,
0100
0010
1000
0002
0000
1003
0100
0010
,
0000
0011
0000
2001
0000
0100
3100
0010
,
0001
1000
0000
1010
0000
0110
0000
2002
,
0000
0000
3003
0000
1000
0010
0010
0100
,
0001
1000
0000
1100
0000
0010
0000
0012
,
0000
0000
1000
2003
0000
3010
0100
0001
,
0010
0100
0000
1100
0000
0110
0000
1001
,
0000
1010
0000
0101
0000
0110
0000
0000
,
0100
0010
1000
0002
0000
1003
0100
1000
,
0001
0010
0100
2000
0000
3001
0100
0001
,
1000
0010
0100
0002
0000
0013
0100
0002
,
0000
0103
0000
1000
0001
0100
0000
0001
,
0100
0001
1000
0200
0000
0310
0001
1000
,
0001
0100
0010
2000
0000
3001
0010
0100
,
1000
0001
0100
1000
0000
0001
0010
2000
,
0000
3100
0010
0002
0000
1000
1003
0000
,
0010
0100
0001
0010
0100
1000
0010
0100
,
0001
0010
0100
1000
0010
0000
0000
0000
,
0010
0100
0001
1000
0100
1000
0010
0100
,
0001
1000
0100
1000
0001
0000
0000
0000
,
0010
0100
1000
0010
0100
0001
0010
0100
,
1000
0010
0100
0001
0010
1000
0010
0001
,
1000
0010
0100
0000
0001
1000
0001
0010
,
0000
1000
0010
0001
0000
0000
0000
0000
,
1000
0000
0000
1000
1010
0000
0010
0000
0100
0001
0000
1000
0100
0000
0010
0000
,
0001
0000
0000
0001
0011
0000
0010
0000
0100
1000
0000
0001
0100
0000
0010
0000
,
1000
0002
0000
0010
0023
0000
0100
0230
0000
0000
0001
0000
1300
0000
0000
0000
,
1000
0000
0000
1000
1010
0000
0010
0000
0100
0000
0001
0000
1000
0100
0010
0001
,
1000
0010
0100
2000
0000
3100
0001
2000
,
0000
3100
0010
0002
0000
1003
0010
1000
,
0001
0010
0100
2000
0000
3001
1000
0001
,
0100
0100
0000
0101
0000
1000
0001
0010
,
0100
0002
0000
0203
0000
1300
0001
1000
,
0010
0100
0001
0002
0000
0103
0010
1000
,
0010
0001
0000
0011
0000
0110
0000
1001
,
0000
1100
0000
0011
0000
0101
0000
0000
,
2000
0000
0000
0010
0000
0010
0000
3002
,
0000
0000
0000
0010
0000
0010
0000
2003
,
0000
0000
0000
0100
0000
0100
0000
3020
,
0000
0000
0100
0130
0001
1000
0100
0010
,
0001
1000
0001
0100
0000
0100
0010
1000
,
0001
0010
0100
1000
0000
1000
0001
1000
,
0010
0100
0001
0010
0000
1000
0001
0200
,
0000
1300
0001
0002
0000
1000
1003
0000
,
0100
0010
0001
0100
0010
1000
0100
0010
,
0001
0100
0010
1000
0100
0000
0000
0000
,
0100
0010
0001
1000
0010
1000
0100
0010
,
0001
1000
0010
1000
0001
0000
0000
0000
,
0100
0010
1000
0100
0010
0001
0100
0010
,
1000
0100
0010
0001
0100
1000
0100
0001
,
1000
0100
1000
0000
0001
0100
0010
1000
,
0000
1000
0001
0010
0100
1000
0001
0100
,
0010
0001
1000
0200
0000
0301
1000
0001
,
0010
0100
0010
1000
0010
0100
0010
0001
,
0100
1000
0001
0020
0000
1030
0001
1000
,
0100
0010
0001
0100
0010
0000
0000
0000
,
0010
0001
1000
0200
0000
0301
1000
0001
,
0010
0100
1000
0010
0100
0001
1000
0001
,
0010
0100
1000
0000
1000
0001
0010
1000
,
0000
1000
0010
0100
0000
0000
0000
0000
;

//---------------dance-single - ----------------
#NOTEDATA:;
#CHARTNAME:;
#STEPSTYPE:dance-single;
#DESCRIPTION:;
#CHARTSTYLE:;
#DIFFICULTY:Challenge;
#METER:15;
#RADARVALUES:0.722016,0.899956,0.213323,0.344598,0.319984,616.000000,590.000000,26.000000,42.000000,45.000000,0.000000,0.000000,0.000000,0.000000,0.722016,0.899956,0.213323,0.344598,0.319984,616.000000,590.000000,26.000000,42.000000,45.000000,0.000000,0.000000,0.000000,0.000000;
#CREDIT:includekhakis;
#NOTES:
// measure 0
0000
0000
0000
0000
,  // measure 1
0000
0000
0000
0000
,  // measure 2
0000
0000
0000
0000
,  // measure 3
0000
0000
0000
0000
,  // measure 4
0000
0000
0000
0000
,  // measure 5
0000
0000
0000
0000
,  // measure 6
0000
0000
0000
0000
,  // measure 7
0000
0000
0000
0000
,  // measure 8
0000
0000
0000
0000
,  // measure 9
1001
0000
1000
0010
MM0M
0010
0001
1000
,  // measure 10
0000
0000
0000
0000
1100
0000
0100
0010
0001
0000
0001
0000
1000
0000
0010
0000
,  // measure 11
0100
0000
0110
0000
0010
0001
0010
1000
,  // measure 12
0000
0000
0100
0000
0010
0000
0001
0000
1001
0000
1000
0000
0010
0100
0001
0000
,  // measure 13
1000
0000
0000
1000
0001
0000
0001
0010
0000
0000
0100
0000
0001
0000
0100
0000
,  // measure 14
0000
1000
0001
1000
1010
0010
0100
0001
,  // measure 15
1000
0000
0100
0000
0010
0000
1000
0000
0000
0000
1000
0000
0010
0000
0100
0010
,  // measure 16
0100
0000
0100
0000
1000
0001
1000
0001
0100
0000
0010
0100
0000
0001
1000
0000
,  // measure 17
0100
0000
M0MM
0000
0100
0001
0100
0000
0000
0000
0000
0000
1001
0000
1000
0000
,  // measure 18
0100
0010
0001
0000
1000
0010
0001
0010
,  // measure 19
0110
0000
0110
0000
0100
0001
0001
1000
,  // measure 20
0000
0100
0010
1000
0010
0001
1000
1000
,  // measure 21
0010
0000
0000
0010
0100
0000
0001
0000
0000
0000
1000
0000
0100
0010
0100
0010
,  // measure 22
0001
0000
0001
0000
1000
0000
0010
MM0M
0010
0000
0001
1000
0001
0000
0010
0000
,  // measure 23
0200
0000
0000
0000
0301
0000
0100
0000
0000
0000
1000
0000
0001
0000
1000
0010
,  // measure 24
0100
0000
0100
0000
0001
1000
0001
0010
0100
0000
1000
0001
0000
0001
0100
0000
,  // measure 25
1000
0100
0001
1000
0010
0001
0010
0100
,  // measure 26
0001
0000
0010
0000
0100
0000
2000
0000
0000
0000
3001
0000
0100
M0MM
0100
0000
,  // measure 27
1000
0001
0010
1000
0001
0100
1000
0010
,  // measure 28
MM0M
0010
0001
0010
MM0M
0010
1000
0100
,  // measure 29
0010
1000
0001
0100
1000
0010
0001
2000
,  // measure 30
0000
3001
0001
0020
0000
1030
0001
0010
,  // measure 31
1000
0000
0010
0100
1000
0000
0001
1000
0001
0000
1000
0000
0010
0000
0110
0000
,  // measure 32
0000
1001
0000
1100
0000
0101
0101
0000
,  // measure 33
0001
0000
1000
0000
0010
0000
0100
0000
0001
0000
1000
0000
0100
M0MM
0100
0000
,  // measure 34
0001
0000
1000
0000
0100
0000
0010
0000
0001
0000
1000
0000
0010
MM0M
0010
0000
,  // measure 35
0100
1000
0001
0100
1000
0100
0001
0010
,  // measure 36
0100
0000
1000
0000
0001
0000
1000
0000
0010
0000
0100
0000
0001
1000
0100
0000
,  // measure 37
0010
0000
0000
0001
1000
0000
0001
0100
0010
0000
1000
0000
0100
M0MM
0100
0000
,  // measure 38
0001
0000
1000
0000
0100
0000
0001
0000
0100
0000
1000
0000
0010
MM0M
0010
0000
,  // measure 39
0001
0000
1000
0000
0010
0000
0001
0000
1000
0000
0100
0000
0010
0000
0010
0100
,  // measure 40
0001
0000
1000
0000
0100
0010
0001
1000
0001
0000
0100
0010
0000
0010
1000
0000
,  // measure 41
0002
0010
1003
0002
0010
1003
0002
0010
,  // measure 42
1003
0002
0010
1003
1100
0000
0000
0000
,  // measure 43
2000
0010
3001
0200
0001
0310
2000
0010
,  // measure 44
3001
0200
0001
0310
1010
0000
0000
0000
,  // measure 45
2000
0100
3001
2000
0100
3001
2000
0100
,  // measure 46
3001
2000
0100
3001
0100
1000
0100
0001
,  // measure 47
1000
0000
0010
0100
0001
0000
0000
0000
0001
0000
1000
0000
0100
0000
0010
0100
,  // measure 48
0010
0000
0010
0000
0001
1000
0010
0100
0001
0000
1000
0010
0000
1000
0010
0000
,  // measure 49
0100
0000
0000
0000
0000
0000
0000
0000
0000
0100
0000
0000
1001
0000
0000
0000
0000
0000
1000
0000
0000
0000
0000
0000
0001
0000
0000
0001
0000
0000
1000
0000
0100
0000
0010
0000
0001
0000
0000
0000
0000
0000
0100
0000
0000
0000
0000
0000
,  // measure 50
0010
0000
0000
0000
0000
0000
0000
0000
0000
0010
0000
0000
1001
0000
0000
0000
0000
0000
0001
0000
0000
0000
0000
0000
1000
0000
0000
1000
0000
0000
0001
0000
0100
0000
0010
0000
1000
0000
0000
0000
0000
0000
1000
0000
0000
0000
0000
0000
,  // measure 51
0001
0000
0000
0020
0000
0000
0000
0000
0000
0130
0000
0000
2000
0000
0000
0000
0000
0000
3001
0000
0000
0000
0000
0000
1000
0000
0000
1000
0000
0000
0010
0000
0100
0000
0010
0000
1000
0000
0000
0000
0000
0000
0001
0000
0000
0000
0000
0000
,  // measure 52
1000
0100
0000
0001
0100
0000
1000
0000
0001
0001
1000
0010
0100
1000
0100
0001
,  // measure 53
1000
0000
0001
0000
0100
0000
0010
1000
0001
0000
1000
0000
0100
0000
0001
0000
,  // measure 54
0100
1000
0010
0200
0000
0310
1000
0001
,  // measure 55
1000
0100
0001
0100
0010
0001
1000
0010
,  // measure 56
MM0M
0010
0001
0010
MM0M
0010
1000
0010
,  // measure 57
0100
0001
1000
0001
0010
0100
0001
2000
,  // measure 58
0000
3010
0001
2000
0000
3010
0100
0001
,  // measure 59
2001
0000
0000
0010
0000
3001
0000
0101
,  // measure 60
0000
1001
0000
1100
0000
0011
0011
0000
,  // measure 61
0001
0000
1000
0010
MM0M
0010
0000
0001
,  // measure 62
0000
1000
0000
0100
M0MM
0100
0000
0001
,  // measure 63
0000
1000
0000
0010
MM0M
0010
0000
2000
,  // measure 64
0000
0000
0000
0000
3010
0000
0001
0000
1000
0000
0010
0000
0100
0010
0100
0000
,  // measure 65
0001
0000
1000
0000
0100
0000
0010
0001
1000
0000
0001
0000
0100
0000
1000
0000
,  // measure 66
0100
0001
1000
0100
0010
1000
0010
0001
,  // measure 67
1000
0000
0010
0000
0100
0000
1000
0000
0001
0000
0010
0000
1000
0000
0001
1000
,  // measure 68
0001
0000
0010
0000
0100
1000
0100
1000
0001
0000
1000
0010
0000
1000
0001
0000
,  // measure 69
0200
0010
0301
0200
0010
0301
0200
0010
,  // measure 70
0301
0200
0010
0301
1001
0000
0000
0000
,  // measure 71
0002
0010
1003
0002
1000
0103
0002
0010
,  // measure 72
1003
0002
1000
0103
0110
0000
0000
0000
,  // measure 73
0020
1000
0130
0020
1000
0130
0020
1000
,  // measure 74
0130
0020
1000
0130
0001
0010
1000
0010
,  // measure 75
0100
0000
1000
0001
1000
0000
0000
0000
0100
0000
0010
0000
0001
0000
1000
0010
,  // measure 76
1000
0002
0203
2300
3002
0023
0230
0300
,  // measure 77
0001
0000
1000
0000
0100
0000
0020
0000
0000
0000
0031
1000
0001
0000
0100
0000
,  // measure 78
1000
0100
0010
0100
0001
0100
0010
0100
,  // measure 79
0001
1000
0001
0010
0100
1000
0001
1000
,  // measure 80
0010
0000
0100
0000
0001
1000
0010
0000
0100
0000
0001
1000
0000
0001
1000
0000
,  // measure 81
0100
0000
0010
0001
1000
0000
0001
0000
0000
0000
1000
0000
0010
0000
0100
0000
,  // measure 82
1000
0000
0100
0010
0100
0000
0000
0000
0101
0000
0001
0000
1000
0000
0100
0000
,  // measure 83
0010
0000
0001
1000
0001
0000
0100
0000
0010
0000
1000
0000
0100
0000
0010
0001
,  // measure 84
1000
1000
0010
0001
0000
0000
0000
0000
;
