#VERSION:0.83;
#TITLE:Lexapro Delirium (METAROOM Remix);
#SUBTITLE:;
#ARTIST:METAROOM;
#TITLETRANSLIT:;
#SUBTITLETRANSLIT:;
#ARTISTTRANSLIT:;
#GENRE:;
#ORIGIN:;
#CREDIT:;
#BANNER:;
#BACKGROUND:;
#PREVIEWVID:;
#JACKET:;
#CDIMAGE:;
#DISCIMAGE:;
#LYRICSPATH:;
#CDTITLE:;
#MUSIC:Lexapro Delirium (METAROOM Remix).ogg;
#OFFSET:-1.230769;
#SAMPLESTART:89.846001;
#SAMPLELENGTH:15.000000;
#SELECTABLE:YES;
#BPMS:0.000=195.000;
#STOPS:;
#DELAYS:;
#WARPS:;
#TIMESIGNATURES:0.000=4=4;
#TICKCOUNTS:0.000=4;
#COMBOS:0.000=1;
#SPEEDS:0.000=1.000=0.000=0;
#SCROLLS:0.000=1.000;
#FAKES:;
#LABELS:0.000=Song Start;
#BGCHANGES:;
#KEYSOUNDS:;
#ATTACKS:
;

//---------------dance-single - ----------------
#NOTEDATA:;
#CHARTNAME:;
#STEPSTYPE:dance-single;
#DESCRIPTION:;
#CHARTSTYLE:;
#DIFFICULTY:Easy;
#METER:11;
#RADARVALUES:0.576269,0.642060,0.344561,0.378177,0.029414,480.000000,439.000000,41.000000,45.000000,0.000000,0.000000,0.000000,0.000000,0.000000,0.576269,0.642060,0.344561,0.378177,0.029414,480.000000,439.000000,41.000000,45.000000,0.000000,0.000000,0.000000,0.000000,0.000000;
#CREDIT:masterimpala;
#NOTES:
// measure 0
0000
0000
0000
0000
,  // measure 1
0000
0000
0000
0000
,  // measure 2
0000
0000
0000
0000
,  // measure 3
0000
0000
0000
0000
,  // measure 4
1000
0000
0100
0000
1000
0000
0000
0100
0000
0000
1000
0000
0100
0000
0000
0000
,  // measure 5
0010
0001
0000
0001
0010
0001
0100
0000
,  // measure 6
0010
1000
0000
0010
0001
0000
0010
1000
,  // measure 7
0000
1100
0000
0011
0000
1100
0000
0010
,  // measure 8
0001
0000
0100
0000
0001
0000
0000
0100
0000
0000
0001
0000
0100
0000
0000
0000
,  // measure 9
0010
1000
0000
1000
0010
1000
0100
0000
,  // measure 10
0010
0001
0000
0010
1000
0000
0010
0001
,  // measure 11
0000
0101
0000
1010
0000
0101
0000
0010
,  // measure 12
1000
0000
0001
0000
1000
0000
0000
0001
0000
0000
1000
0000
0010
0000
1000
0000
,  // measure 13
0100
0010
0000
0001
0010
0100
0010
0100
,  // measure 14
2000
0000
0000
0000
,  // measure 15
0000
0000
0000
3000
,  // measure 16
0001
0100
0001
0000
0101
0000
1010
0000
,  // measure 17
1000
0100
0000
0010
0100
0100
0100
0000
,  // measure 18
0010
0001
0000
0100
0001
0000
0010
0001
,  // measure 19
0000
0110
0000
1001
0000
0110
0000
1000
,  // measure 20
0100
0000
0010
0000
0100
0000
0000
0010
0000
0000
0001
0000
0000
0000
0010
0000
,  // measure 21
0100
1000
0000
1000
0001
1000
0001
0000
,  // measure 22
0100
0020
0000
0001
0000
1000
0000
0230
,  // measure 23
0000
0010
0000
1000
0000
0001
0000
0310
,  // measure 24
1000
0100
1000
0000
1100
0000
0011
0000
,  // measure 25
0001
0100
0000
0010
0100
0100
0100
0000
,  // measure 26
0010
1000
0000
0100
1000
0000
0010
1000
,  // measure 27
0000
0110
0000
1001
0000
0110
0000
0001
,  // measure 28
0100
0000
0010
0000
0100
0000
0000
0010
0000
0000
1000
0000
0000
0000
0010
0000
,  // measure 29
0100
0001
0000
0001
1000
0001
1000
0000
,  // measure 30
0100
0020
0000
1000
0000
0001
0000
0230
,  // measure 31
0000
0010
0000
0001
0000
1000
0000
0310
,  // measure 32
0002
0203
0320
2030
,  // measure 33
3200
2300
3020
0030
,  // measure 34
0200
0302
2003
3200
,  // measure 35
2300
3002
0023
0030
,  // measure 36
0200
2300
3020
2030
,  // measure 37
3200
0320
0032
0003
,  // measure 38
0100
1001
0100
1001
,  // measure 39
0010
1001
0010
1001
,  // measure 40
1000
0000
0100
1000
0100
0000
1010
0000
,  // measure 41
0001
0000
0100
0001
0100
0000
0011
0000
,  // measure 42
1000
0100
0001
0000
0100
0000
1000
0000
,  // measure 43
0001
0100
1000
0000
0100
0000
0001
0000
,  // measure 44
0010
0000
0001
0100
0001
0000
0110
0000
,  // measure 45
0010
0000
1000
0100
1000
0000
0110
0000
,  // measure 46
0001
0100
1000
0000
0100
0000
0001
0000
,  // measure 47
1000
0100
0001
0000
0100
0000
1000
0000
,  // measure 48
0010
1000
0000
0100
1000
0010
1000
0100
,  // measure 49
0010
0000
1001
0000
0001
0001
0001
0000
,  // measure 50
0100
0010
1000
0000
0100
0000
1000
0000
,  // measure 51
0010
0100
0001
0000
0010
0000
0100
0000
,  // measure 52
0010
0000
0001
0010
0100
0000
1001
0000
,  // measure 53
0100
0000
1000
0010
0100
0000
1001
0000
,  // measure 54
1000
0010
1000
0010
0100
0001
0100
0000
,  // measure 55
0001
0010
0001
0010
0100
1000
0100
0010
,  // measure 56
0001
0000
0100
0000
0001
0000
0000
0100
0000
0000
0001
0000
0100
0000
0000
0000
,  // measure 57
0010
1000
0000
1000
0010
1000
0100
0000
,  // measure 58
0010
0001
0000
0010
1000
0000
0010
0001
,  // measure 59
0000
0101
0000
1010
0000
0101
0000
0010
,  // measure 60
1000
0000
0100
0000
1000
0000
0000
0100
0000
0000
1000
0000
0100
0000
0000
0000
,  // measure 61
0010
0001
0000
0001
0010
0001
0100
0000
,  // measure 62
0010
1000
0000
0010
0001
0000
0010
1000
,  // measure 63
0000
1100
0000
0011
0000
1100
0000
0010
,  // measure 64
0001
0100
0001
0100
,  // measure 65
0010
1000
0010
1000
,  // measure 66
0100
1000
0100
0000
1000
0010
1000
0000
,  // measure 67
0001
0100
0001
0000
0010
0001
0010
0000
,  // measure 68
0100
1000
0100
1000
,  // measure 69
0001
0100
0001
0100
,  // measure 70
0010
0110
1000
0110
,  // measure 71
0001
0110
1000
0110
,  // measure 72
0001
0100
0010
0000
0100
0000
1000
0000
,  // measure 73
0100
0010
0100
0000
0001
0000
1000
0000
,  // measure 74
0001
0100
0010
0000
1000
0000
0100
0000
,  // measure 75
0010
0001
0010
0000
0100
1000
0100
0000
,  // measure 76
0010
0100
0010
0000
0001
0000
0100
0000
,  // measure 77
0010
0100
1000
0100
,  // measure 78
0002
0010
0000
0100
0000
0010
0000
0103
,  // measure 79
0020
0000
1030
1000
1000
0000
1001
0000
,  // measure 80
1000
0100
0010
0000
0100
0000
0001
0000
,  // measure 81
0100
0010
0100
0000
1000
0000
0001
0000
,  // measure 82
1000
0100
0010
0000
0001
0000
0100
0000
,  // measure 83
0010
1000
0010
0000
0100
0001
0100
0000
,  // measure 84
0010
0100
0010
0000
1000
0000
0100
0000
,  // measure 85
0010
0100
0001
0100
,  // measure 86
2000
0010
0000
0100
0000
0010
0000
3100
,  // measure 87
0020
0000
0031
0001
0001
0000
1001
0000
,  // measure 88
0210
0000
0000
0010
,  // measure 89
0320
0000
0000
0100
,  // measure 90
0230
0302
2003
3200
,  // measure 91
0320
0000
0001
0031
,  // measure 92
0120
0000
0000
0100
,  // measure 93
0230
0000
0000
0320
,  // measure 94
0032
2003
3002
0203
,  // measure 95
0320
0000
0030
0000
;

//---------------dance-single - ----------------
#NOTEDATA:;
#CHARTNAME:;
#STEPSTYPE:dance-single;
#DESCRIPTION:;
#CHARTSTYLE:;
#DIFFICULTY:Medium;
#METER:14;
#RADARVALUES:0.728741,0.762446,0.075635,0.638698,0.155473,607.000000,598.000000,9.000000,76.000000,0.000000,0.000000,0.000000,0.000000,0.000000,0.728741,0.762446,0.075635,0.638698,0.155473,607.000000,598.000000,9.000000,76.000000,0.000000,0.000000,0.000000,0.000000,0.000000;
#CREDIT:masterimpala;
#NOTES:
0000
0000
0000
0000
,
0000
0000
0000
0000
,
0000
0000
0000
0000
,
0000
0000
0000
0000
,
0001
0000
0010
0000
0001
0000
0000
0010
0000
0000
0001
0000
0100
0000
0010
0000
,
1000
0000
1000
0100
0000
1000
0000
0000
0100
0000
0100
0000
0100
0000
0000
0000
,
0010
0001
1000
0001
0100
0010
0100
2000
,
0000
3100
0001
0010
0001
0100
0001
0000
,
1000
0000
0010
0000
1000
0000
0000
0010
0000
0000
1000
0000
0100
0000
0010
0000
,
0001
0000
0001
0100
0000
0001
0000
0000
0100
0000
0100
0000
0100
0000
0000
0000
,
0010
1000
0001
1000
0100
0010
0100
0002
,
0000
0103
1000
0010
1000
0100
1000
0001
,
0100
0000
0010
0000
0100
0000
0000
0010
0000
0000
0100
0000
0010
0000
1000
0000
,
0001
0000
0001
1000
0000
0001
0000
0000
1000
0000
1000
0000
1000
0000
0100
0000
,
0020
0000
0000
0000
,
0000
0000
0000
0030
,
0001
0000
0010
0000
0100
0000
1000
0000
0001
0000
0010
0100
0000
0000
0110
0000
,
0001
0000
0100
0000
0010
0000
1000
0000
0100
1000
0100
0000
0010
0000
0000
0000
,
0001
0100
1000
0100
0010
0100
0001
0010
,
0100
0000
0010
0000
1000
0000
0010
0000
0001
0010
0001
0000
0100
0000
0010
0000
,
1000
0000
0100
0000
0010
0000
0001
0000
0100
0000
0010
1000
0000
0000
0110
0000
,
0001
0000
0010
0000
0001
0000
0100
0000
0010
1000
0010
0000
0100
0000
0000
0000
,
0002
0023
0230
0302
0103
1000
0020
0230
,
2300
0000
3200
0000
0310
0000
1000
0000
0001
1000
0001
0000
1001
0000
0000
0000
,
1000
0000
0010
0000
0100
0000
0001
0000
1000
0000
0010
0100
0000
0000
0110
0000
,
1000
0000
0100
0000
0010
0000
0001
0000
0100
0001
0100
0000
0010
0000
0000
0000
,
1000
0100
0001
0100
0010
0100
1000
0010
,
0100
0000
0010
0000
0001
0000
0010
0000
1000
0010
1000
0000
0100
0000
0010
0000
,
0001
0000
0100
0000
0010
0000
1000
0000
0100
0000
0010
0001
0000
0000
0110
0000
,
1000
0000
0010
0000
1000
0000
0100
0000
0010
0001
0010
0000
0100
0000
0000
0000
,
2000
3020
0230
2300
3100
0001
0020
0230
,
0302
0000
0203
0000
0310
0000
0001
0000
1000
0001
1000
0000
0001
1000
0001
0000
,
2000
3020
2030
3002
,
0023
0000
0032
0000
2003
0000
3100
0010
,
0200
2300
3020
0230
,
2300
0000
3200
0000
0302
0000
0013
0100
,
2000
3020
0032
0023
,
2030
3002
0203
0000
,
0301
0010
0001
0100
0001
0010
0100
1000
,
0001
0100
0010
1000
0001
0100
1000
0100
,
0001
0000
0000
0010
0000
0000
0001
0000
0100
0000
0010
0000
0001
0000
0010
0000
,
0100
0000
0001
0000
0000
0000
0010
0000
0100
0010
0100
0000
0010
0000
0000
0000
,
1000
0010
0001
0010
0100
1000
0010
0100
,
0010
0001
0010
1000
0001
0100
0010
0000
,
1000
0000
0000
0010
0000
0000
1000
0000
0100
0000
0010
0000
1000
0000
0010
0000
,
0100
0000
1000
0000
0000
0000
0010
0000
0100
0010
0100
0000
0010
0000
0000
0000
,
0001
0010
1000
0010
0100
0001
0010
0100
,
0010
1000
0010
0001
1000
0100
0010
0000
,
0001
0000
1000
0001
1000
0000
0010
0000
0100
0000
0010
0000
0001
0000
0010
0000
,
1000
0100
0010
0100
1000
0100
0010
0000
,
0001
0100
0010
0100
1000
0100
0010
1000
,
0100
0001
0100
0010
0100
1000
0010
0100
,
0001
0000
0000
0100
0000
0000
0010
0000
0100
0000
0001
0000
0010
0000
0100
0000
,
0001
0000
0100
0000
0010
0000
0001
0000
0100
0010
0100
0000
0010
0000
0000
0000
,
0001
0010
1000
0010
0001
0010
0100
0010
,
1000
0100
0001
0100
0010
0100
1000
0001
,
1000
0000
0010
0000
1000
0000
0000
0010
0000
0000
1000
0000
0100
0000
0010
0000
,
0001
0000
0001
0100
0000
0001
0000
0000
0100
0000
0100
0000
0100
0000
0000
0000
,
0010
1000
0001
1000
0100
0010
0100
0002
,
0000
0103
1000
0010
1000
0100
1000
0000
,
0001
0000
0010
0000
0001
0000
0000
0010
0000
0000
0001
0000
0100
0000
0010
0000
,
1000
0000
1000
0100
0000
1000
0000
0000
0100
0000
0100
0000
0100
0000
0000
0000
,
0010
0001
1000
0001
0100
0010
0100
2000
,
0000
3100
0001
0010
0001
0100
0001
1000
,
0100
0010
0100
0010
,
0001
1000
0001
1000
,
0010
0100
0001
0010
0001
1000
0001
1000
,
0000
0100
1000
0010
1000
0100
1000
0010
,
0100
0010
0100
0010
,
1000
0000
0001
0000
1000
0000
0001
0100
,
0010
1000
0100
1000
0010
0001
0010
0100
,
0001
0010
0100
0001
0100
0010
0001
1000
,
0020
0000
1030
0100
0000
0010
0110
0000
,
0002
0000
0013
0100
1000
1000
1000
0000
,
0200
0000
0310
0001
0000
0100
0001
0010
,
0100
0010
0100
0000
1000
0000
0010
0000
1000
0000
0010
0000
0001
0000
0010
0000
,
2000
0000
3001
0100
0000
0010
1010
0000
,
0200
0000
0301
1000
0010
0010
0010
0000
,
0200
0302
2003
3200
0310
1000
0020
0032
,
0203
0320
0031
0010
1000
0010
1000
0100
,
0020
0000
0031
0100
0000
0010
0110
0000
,
2000
0000
3010
0100
0001
0001
0001
0000
,
0200
0000
0310
1000
0000
0100
1000
0010
,
0100
0010
0100
0000
0001
0000
0010
0000
0001
0000
0010
0000
1000
0000
0010
0000
,
0002
0000
1003
0100
0000
0010
0011
0000
,
0200
0000
1300
0001
0010
0010
0010
0000
,
0200
2300
3002
0203
0310
0001
0020
2030
,
3200
0320
1030
0010
0001
0010
0001
0100
,
0020
0000
0000
0001
,
0230
0000
0000
1000
,
0302
0010
0100
2003
,
0010
0000
0100
0100
,
3020
0000
0000
1000
,
0230
0000
0000
1000
,
0302
0010
0100
2003
,
0100
0000
3000
0000
;

//---------------dance-single - ----------------
#NOTEDATA:;
#CHARTNAME:;
#STEPSTYPE:dance-single;
#DESCRIPTION:;
#CHARTSTYLE:;
#DIFFICULTY:Hard;
#METER:17;
#RADARVALUES:0.887215,1.003219,0.067231,0.470620,0.714334,739.000000,731.000000,8.000000,56.000000,0.000000,0.000000,0.000000,0.000000,0.000000,0.887215,1.003219,0.067231,0.470620,0.714334,739.000000,731.000000,8.000000,56.000000,0.000000,0.000000,0.000000,0.000000,0.000000;
#CREDIT:masterimpala;
#NOTES:
0000
0000
0000
0000
,
0000
0000
0000
0000
,
0000
0000
0000
0000
,
0000
0000
0000
0000
,
1000
0000
1000
0000
1000
0000
0000
0001
0000
0000
1000
0000
0001
0000
0001
0000
,
1000
0010
0100
0000
0000
0110
0000
0000
0001
0010
0100
0000
0010
0000
0000
0000
,
0001
0000
1000
0100
1000
0000
0001
0000
1000
0100
1000
0000
0001
0000
0100
0000
,
0000
1001
0000
1000
0010
0100
0010
0100
,
0001
0000
0001
0000
0001
0000
0000
1000
0000
0000
1000
0000
0001
0000
0001
0000
,
0010
0100
0010
0000
0001
1000
0000
0010
0100
0010
0100
0000
0001
0000
1000
0000
,
0100
0000
0010
0001
0010
0000
0100
0000
0010
0001
0010
0001
0010
0000
0100
0000
,
1000
0010
1000
0100
1000
0010
1000
0100
,
0010
0000
0010
0000
0010
0000
0000
0100
0000
0000
0010
0000
0100
0000
0010
0000
,
0001
0100
0001
0100
0000
0010
1000
0000
1000
0100
1000
0100
0010
0000
0010
0000
,
0002
0000
0000
0000
,
0000
0000
0000
0003
,
1000
0000
0010
0000
0100
0000
0001
0000
1000
0000
0100
0010
0000
0100
0010
0000
,
0001
0100
0001
0000
0010
0100
0000
1000
0010
1000
0010
0000
0100
0000
0010
0000
,
1000
0000
0100
0010
0001
0000
0100
0000
0010
0000
0100
0001
0010
0000
0100
0000
,
1000
0010
1000
0000
0001
0100
0001
0000
1000
0100
1000
0000
0110
0000
0000
0000
,
0010
0000
0001
0000
1000
0000
0100
0000
0010
0000
0001
1000
0000
0001
1000
0000
,
0010
1000
0010
0000
1000
0100
0000
0010
0001
0010
0001
0000
0100
0000
0010
0000
,
1000
0001
0200
0000
2300
0000
3200
0000
0302
0000
0013
0000
0100
1000
0002
0000
,
0023
0000
2030
0000
3020
0000
0032
0000
1003
0010
1000
0010
1000
0000
0000
0000
,
0001
0000
0010
0000
0100
0000
1000
0000
0001
0000
0100
0010
0000
0100
0010
0000
,
1000
0100
1000
0000
0010
0100
0000
0001
0010
0001
0010
0000
0100
0000
0010
0000
,
0001
0000
0100
0010
1000
0000
0100
0000
0010
0000
0100
1000
0010
0000
0100
0000
,
0001
0010
0001
0000
1000
0100
1000
0000
0001
0100
0001
0000
0110
0000
0000
0000
,
0010
0000
1000
0000
0001
0000
0100
0000
0010
0000
1000
0001
0000
1000
0001
0000
,
0010
0001
0010
0000
0001
0100
0000
0010
1000
0010
1000
0000
0100
0000
0010
0000
,
0001
1000
0200
0000
0302
0000
0203
0000
2300
0000
3010
0000
0100
0001
2000
0000
,
3020
0000
0032
0000
0023
0000
2030
0000
3001
0010
0001
0010
0001
0000
0100
0000
,
0020
1000
0001
1000
,
0100
1000
0001
0000
,
0230
1000
0010
1000
,
0001
1000
0010
0000
,
0302
0010
0100
0010
,
2003
0010
0100
3000
,
0001
0100
0001
0100
0010
0100
0010
1000
0010
0100
0001
1000
,
0010
0100
0010
1000
0001
0100
0010
0100
0001
1000
0010
0100
,
0001
0000
0000
1000
0000
0000
0100
0000
0010
0000
0100
0000
0010
0000
0001
0000
,
1000
0000
0010
0100
0010
0000
0001
0000
0010
0100
0010
0000
1000
0000
0000
0000
,
0001
0010
0001
0000
0100
0001
0100
0000
0001
0010
0001
0000
0100
0000
0010
0000
,
1000
0100
1000
0000
0010
1000
0010
0000
1000
0100
1000
0000
0001
0000
0100
0000
,
0010
0000
0000
1000
0000
0000
0100
0000
1000
0000
0001
0000
0100
0000
0001
0000
,
0010
0000
0100
1000
0100
0000
0010
0000
1000
0010
1000
0000
0010
0000
0000
0000
,
0001
1000
0001
0000
0100
0010
0100
0000
0001
1000
0001
0000
0100
0000
0010
0000
,
1000
0100
1000
0000
0001
0010
0001
0000
1000
0100
1000
0000
0010
0000
0100
0000
,
0010
0000
1000
0001
0100
0000
0001
1000
0100
0000
1000
0001
0100
0000
0010
0000
,
1000
0100
0001
0000
0100
0000
1000
0000
0001
0100
1000
0000
0100
0000
0000
0000
,
0001
0010
0100
0000
1000
0001
0010
0000
0100
1000
0001
0000
0100
0000
0010
0000
,
1000
0010
0100
0000
0001
1000
0010
0000
0100
0001
1000
0000
0100
0000
0010
0000
,
0100
0000
0000
1000
0000
0000
0010
1000
0010
0000
0100
0000
0001
0000
0010
0000
,
0100
0001
0100
0000
0010
0000
0001
0000
0100
1000
0100
0000
0010
0000
0000
0000
,
1000
0100
0010
0000
0001
0100
0010
0000
0100
0001
1000
0000
0100
1000
0001
0000
,
0100
0010
1000
0100
0010
0000
0100
0000
1000
0010
0100
0001
0010
0000
0100
0000
,
0010
0000
0010
0000
0010
0000
0000
0100
0000
0000
0010
0000
0100
0000
0100
0000
,
1000
0010
1000
0000
0000
0110
0000
0000
0001
0010
0001
0000
0100
0000
0000
0000
,
0010
0000
1000
0001
1000
0000
0010
0000
1000
0001
1000
0000
0100
0000
0010
0000
,
0000
1001
0000
0001
0100
0001
0010
0001
,
0100
0000
0100
0000
0100
0000
0000
0010
0000
0000
0100
0000
0010
0000
0010
0000
,
1000
0100
1000
0000
0000
0110
0000
0000
0001
0100
0001
0000
0010
0000
0000
0000
,
0100
0000
1000
0001
1000
0000
0100
0000
1000
0001
1000
0000
0010
0000
0100
0000
,
0000
1001
0000
0001
0010
0001
0100
0001
,
1000
0100
1000
0100
,
0010
0001
0010
0001
,
0100
0000
0010
1000
0010
0000
0100
0000
1000
0000
0100
0000
0001
0000
0020
0000
,
0000
0130
1000
0010
1000
0100
1000
0010
,
0100
0010
0100
0010
,
1000
0000
0001
0000
1000
0000
0001
0010
,
0100
1000
0100
0010
0001
1000
0100
0010
0100
1000
0001
0010
,
0100
0010
0100
0010
0001
1000
0100
0010
0100
1000
0001
0010
,
0100
1000
0001
0200
0000
0310
0001
0010
,
1000
0001
0010
0200
0000
0310
1000
0010
,
0001
0100
0001
0000
0010
0000
0100
0000
1000
0010
1000
0000
0100
0000
0010
0000
,
0001
0100
0010
0000
1000
0100
0010
0000
0001
1000
0001
1000
0001
0000
0100
0000
,
0010
1000
0010
0200
0000
0310
0001
0010
,
1000
0100
0010
2000
0000
3010
0001
0100
,
0010
1000
0002
0000
0203
0000
2300
0000
3002
0000
0023
0000
1030
0000
0100
0000
,
0010
0100
0020
0000
2030
0000
3020
0000
0031
1000
0001
1000
0001
0000
0000
0000
,
0100
0001
1000
0200
0000
0310
1000
0010
,
0001
1000
0010
0200
0000
0310
0001
0010
,
1000
0100
1000
0000
0010
0000
0100
0000
0001
0010
0001
0000
0100
0000
0010
0000
,
1000
0100
0010
0000
0001
0100
0010
0000
1000
0001
1000
0001
1000
0000
0100
0000
,
0010
0001
0010
0200
0000
0310
1000
0010
,
0001
0100
0010
0002
0000
0013
1000
0100
,
0010
0001
2000
0000
3200
0000
0302
0000
2003
0000
3020
0000
0031
0000
0100
0000
,
0010
0100
0020
0000
0032
0000
0023
0000
1030
0001
1000
0001
0100
0010
1000
0001
,
0200
0000
0000
1000
,
0320
0000
0000
0001
,
2030
0100
0010
3002
,
0100
0000
0010
0010
,
0203
0000
0000
0001
,
0320
0000
0000
0001
,
2030
0100
0010
3002
,
0010
0000
0003
0000
;
