#VERSION:0.83;
#TITLE:KIRAKIRA☆STATION;
#SUBTITLE:;
#ARTIST:Tatsh feat. Prico;
#TITLETRANSLIT:;
#SUBTITLETRANSLIT:;
#ARTISTTRANSLIT:;
#GENRE:;
#ORIGIN:;
#CREDIT:;
#BANNER:;
#BACKGROUND:;
#PREVIEWVID:;
#JACKET:;
#CDIMAGE:;
#DISCIMAGE:;
#LYRICSPATH:;
#CDTITLE:;
#MUSIC:KIRAKIRA STATION.ogg;
#OFFSET:-0.776818;
#SAMPLESTART:44.410000;
#SAMPLELENGTH:15.000000;
#SELECTABLE:YES;
#BPMS:0.000=176.000;
#STOPS:;
#DELAYS:;
#WARPS:;
#TIMESIGNATURES:0.000=4=4;
#TICKCOUNTS:0.000=4;
#COMBOS:0.000=1;
#SPEEDS:0.000=1.000=0.000=0;
#SCROLLS:0.000=1.000;
#FAKES:;
#LABELS:0.000=Song Start;
#BGCHANGES:;
#KEYSOUNDS:;
#ATTACKS:
;

//---------------dance-single - ----------------
#NOTEDATA:;
#CHARTNAME:;
#STEPSTYPE:dance-single;
#DESCRIPTION:;
#CHARTSTYLE:;
#DIFFICULTY:Easy;
#METER:8;
#RADARVALUES:0.352754,0.457708,0.506999,0.291055,0.000000,263.000000,209.000000,54.000000,31.000000,0.000000,0.000000,0.000000,0.000000,0.000000,0.352754,0.457708,0.506999,0.291055,0.000000,263.000000,209.000000,54.000000,31.000000,0.000000,0.000000,0.000000,0.000000,0.000000;
#CREDIT:klutzyibexe;
#NOTES:
0000
0000
0000
0000
,
0000
0000
0000
0000
,
0000
0000
0000
0000
,
0000
0000
0000
0000
,
0000
0000
0000
0000
,
0000
0000
0000
0000
,
1001
0000
1001
0000
,
0100
0100
0100
0010
,
1001
0000
1001
0000
,
0010
1000
0001
0010
,
0100
0110
0000
0110
,
0000
1100
0000
0110
,
0010
0100
0010
0100
,
1000
1000
0002
0000
,
2003
0000
3002
1003
,
1001
0001
1000
0000
,
0010
1000
0001
0000
,
0010
0010
0010
0000
,
0110
0100
1000
0001
,
0101
0100
0010
1000
,
0010
0100
0001
1000
,
1100
0100
0210
0000
,
0000
1300
0000
1000
0001
0000
1001
0000
,
0000
0202
0000
0303
,
0101
0001
0010
0100
,
0000
2200
0000
3300
,
1000
0010
0100
0010
,
0110
0000
0101
0000
,
1001
0000
1100
0000
,
2001
0001
0001
3001
,
0002
0010
0010
0013
,
0220
0000
0000
0330
,
1001
0000
0000
1002
0000
0000
0000
1003
,
0000
0001
0000
1000
0000
0010
0000
0000
,
1001
0000
0000
2001
0000
0000
0000
3001
,
0000
0010
0000
0100
0000
0000
0110
0000
,
0100
1000
0001
0100
,
0210
0000
0310
0100
,
0001
0010
0100
1000
,
0001
1000
0001
1000
,
1001
0000
0000
2001
0000
0000
0000
3001
,
0000
1000
0000
0001
0000
0010
0000
0000
,
1001
0000
0000
1002
0000
0000
0000
1003
,
0000
0010
0000
0100
0000
0000
0110
0000
,
0100
0000
0002
0000
0000
0103
0000
0010
,
0000
0220
0000
0000
0000
0000
0330
0000
,
1000
0000
0020
0000
0000
0230
0000
0302
,
0000
2003
0000
0200
0000
0000
3300
0000
,
1001
0000
1001
0000
1000
0000
0002
2000
,
0000
0000
0000
3003
,
1001
0000
0011
0000
0001
0000
2000
0020
,
0000
0000
0000
0000
,
3030
0000
1000
0001
,
1001
0000
0001
0000
,
1000
0100
0010
0001
,
1001
0000
1001
0000
,
0001
0010
0100
1000
,
0010
1010
0000
1010
,
0000
0101
0000
0101
,
0001
0010
0100
1000
,
0100
0010
0001
1000
,
1001
0000
1000
0000
,
0001
0100
0010
1000
,
1001
0000
1001
0000
,
1000
0010
0100
0001
,
0010
0011
0000
0011
,
0000
1100
0000
1100
,
1000
0010
0100
0001
,
0100
0010
1000
0001
,
0000
1000
0001
1000
0000
0001
1000
0001
,
0000
1000
0001
1000
0000
0001
1000
0001
,
0000
1000
0001
1000
0000
0010
0100
0010
,
0000
0220
0000
0000
,
0000
0000
0000
0000
,
0000
0000
0000
0000
,
0330
0000
0000
0000
;

//---------------dance-single - ----------------
#NOTEDATA:;
#CHARTNAME:;
#STEPSTYPE:dance-single;
#DESCRIPTION:;
#CHARTSTYLE:;
#DIFFICULTY:Medium;
#METER:11;
#RADARVALUES:0.537849,0.633749,1.042165,0.394333,0.000000,401.000000,290.000000,111.000000,42.000000,0.000000,0.000000,0.000000,0.000000,0.000000,0.537849,0.633749,1.042165,0.394333,0.000000,401.000000,290.000000,111.000000,42.000000,0.000000,0.000000,0.000000,0.000000,0.000000;
#CREDIT:klutzyibexe;
#NOTES:
0000
0000
0000
0000
,
0000
0000
0000
0000
,
0000
0000
0000
0000
,
0000
0000
0000
0000
,
0000
0000
0000
0000
,
0000
0000
0000
0000
,
1001
0001
0101
0100
,
0010
0000
0100
0000
0010
0100
0010
0010
,
1001
1000
1100
0100
,
0110
0100
1100
0011
,
1001
1100
1001
0101
,
1001
1100
1001
0101
,
1001
0000
1000
0001
0000
1001
0000
1010
,
0000
0110
0000
0101
0000
1001
0000
1100
,
0000
1000
0100
2000
0000
3001
0010
0001
,
1001
1000
0100
0001
,
0101
0100
1000
0010
,
1000
0001
1000
0001
0000
0000
1001
0000
,
0120
1000
1000
1030
,
1001
0001
0100
1000
,
1100
0100
0001
0010
,
0110
0000
0100
0000
1100
0000
1000
0100
,
0000
0110
0000
0100
0010
0000
1001
0000
,
1000
1002
0000
0013
,
1000
0000
0010
0000
0001
0000
1000
0001
,
1000
2001
0000
3010
,
0001
0010
1000
0100
,
1100
1000
1001
0001
,
0101
0100
0110
0010
,
2010
0001
0001
3002
,
0203
0001
0001
0301
,
1000
0001
2000
0002
0000
0000
3003
0000
,
2002
0000
3003
1200
0000
1300
0100
1000
,
0000
1100
0000
0110
0000
0011
0000
0001
,
2002
0000
3003
1010
0000
0010
0100
0020
,
0000
0130
0001
0200
0000
0001
0301
0000
,
0101
1001
1100
1001
,
0201
0000
0000
0310
0110
0000
1010
0000
,
0110
0000
0100
0101
0000
0011
0000
1001
,
2000
3020
0230
0301
,
2002
0000
3003
0201
0000
0301
0100
0001
,
0000
0101
0000
0110
0000
1010
0000
1000
,
2002
0000
3003
0011
0000
0010
0100
0020
,
0000
0130
1000
0200
0000
1000
2300
0000
,
3001
1000
0002
0000
0000
1003
0001
0101
,
0000
0110
0000
1010
0000
1000
0010
0100
,
0010
0010
0020
0000
0000
0130
0000
0101
,
0000
1001
0000
1100
0000
1000
0001
0010
,
0011
0000
1100
0000
1001
0000
1000
1010
,
0000
0110
0000
0101
0000
1001
0000
1000
,
1100
0000
0120
0000
0031
1000
0020
0200
,
0000
0000
0000
0000
,
0330
0000
0020
0130
,
1001
0001
0010
1000
,
1010
0000
0010
0000
0001
1000
0001
0000
,
1001
1000
0010
0100
,
0101
0001
0010
0100
,
1000
1001
0001
0101
,
0100
0110
0010
1010
,
1001
0000
1000
1100
0000
0110
0000
0011
,
0000
1001
0000
1010
0000
0102
0000
1003
,
1001
1000
0010
0001
,
0011
0000
0010
0000
1000
0001
1000
0000
,
1001
0001
0010
0100
,
1100
1000
0010
0100
,
0001
1001
1000
1100
,
0100
0110
0010
0011
,
1001
0000
0001
0101
0000
0110
0000
1010
,
0000
1001
0000
0011
0000
1100
0000
1001
,
0000
0001
1000
0020
0000
1030
0001
0020
,
0000
0130
1000
0002
0000
0103
0001
2000
,
0000
3100
0010
0002
0000
1003
0010
0100
,
0000
2002
0000
0000
,
0000
0000
0000
0000
,
0000
0000
0000
0000
,
3003
0000
0000
0000
;

//---------------dance-single - ----------------
#NOTEDATA:;
#CHARTNAME:;
#STEPSTYPE:dance-single;
#DESCRIPTION:;
#CHARTSTYLE:;
#DIFFICULTY:Hard;
#METER:13;
#RADARVALUES:0.666610,0.739374,0.863777,0.666610,0.065722,497.000000,405.000000,92.000000,71.000000,0.000000,0.000000,0.000000,0.000000,0.000000,0.666610,0.739374,0.863777,0.666610,0.065722,497.000000,405.000000,92.000000,71.000000,0.000000,0.000000,0.000000,0.000000,0.000000;
#CREDIT:klutzyibexe;
#NOTES:
// measure 0
0000
0000
0000
0000
,  // measure 1
0000
0000
0000
0000
,  // measure 2
0000
0000
0000
0000
,  // measure 3
0000
0000
0000
0000
,  // measure 4
0000
0000
0000
0000
,  // measure 5
0000
0000
0000
0000
,  // measure 6
1001
0001
0010
0110
0100
1000
0001
0100
,  // measure 7
0201
0000
0301
0010
0100
1000
1001
0001
,  // measure 8
1001
1000
0010
0110
0100
0001
1000
0100
,  // measure 9
1100
0000
1000
0000
0001
0000
0200
0000
0000
0000
1300
0000
0100
0000
0001
0100
,  // measure 10
0001
0010
0011
0000
0001
1000
0010
1010
,  // measure 11
0000
0000
1100
0000
0000
0000
0011
0000
0000
0000
0102
0000
0000
0000
1003
0100
,  // measure 12
0020
0000
0130
0210
0000
2300
0000
3002
,  // measure 13
0000
0023
0000
2030
0000
3010
0001
0011
,  // measure 14
0000
0001
1000
1020
0000
1030
0001
0010
,  // measure 15
0110
0100
1000
0001
0000
0101
0000
0110
,  // measure 16
0000
1010
0000
1001
0000
0012
0000
2003
,  // measure 17
0100
3100
1000
0200
0000
0310
0100
0000
,  // measure 18
1100
2000
0000
3002
0000
0203
0000
1300
,  // measure 19
0100
0001
0010
0100
0000
0120
0000
0032
,  // measure 20
0000
2003
0000
3020
0000
0130
0001
1000
,  // measure 21
1010
0000
0010
1000
1001
0000
0001
0010
,  // measure 22
0000
0000
0021
0000
0000
0000
0031
0000
0200
0000
0000
0000
0301
1000
0001
1000
,  // measure 23
0001
1000
2020
0000
3000
0000
1030
0000
,  // measure 24
1010
0000
0010
0000
0100
0000
0001
0000
1000
0000
0100
0000
1000
0001
1000
0001
,  // measure 25
1000
0000
0012
0000
0000
0100
0103
0001
,  // measure 26
0010
0100
1000
0020
0000
0032
0000
0013
,  // measure 27
1010
0000
1000
0100
1100
0000
1000
0001
,  // measure 28
0100
1000
0000
1200
0000
0302
0000
0013
,  // measure 29
0100
1000
0100
1000
0001
0100
0010
0110
,  // measure 30
0100
0000
0001
0000
1000
0000
0100
0000
0001
0000
0100
0000
1000
0000
0001
1000
,  // measure 31
0001
0001
2000
0002
0000
0000
3003
0000
,  // measure 32
1100
0000
1000
1020
0000
0130
0001
0021
,  // measure 33
0000
0130
1000
1010
0000
0201
0000
0301
,  // measure 34
0011
0000
0001
2001
0000
3010
1000
1200
,  // measure 35
0000
0310
0001
0201
0000
0010
0310
0000
,  // measure 36
0110
0100
0001
1001
1000
0100
0110
0010
,  // measure 37
0210
0000
0000
1300
1100
0000
1001
0000
,  // measure 38
0011
0001
0100
0110
0000
1020
0000
1030
,  // measure 39
0100
0001
0100
0010
0100
1000
0100
0010
,  // measure 40
0011
0000
0001
0201
0000
0310
1000
1100
,  // measure 41
0000
0010
0001
0101
0000
1020
0000
1030
,  // measure 42
1100
0000
1000
1002
0000
0103
0001
0021
,  // measure 43
0000
0130
1000
1020
0000
0100
0130
0000
,  // measure 44
1001
1000
2000
0000
0000
3100
1000
1100
,  // measure 45
0000
0000
1000
0000
0001
0000
0102
0000
0000
0000
1003
0000
0010
1000
0010
1000
,  // measure 46
0001
0001
0002
0000
0000
0013
0000
0011
,  // measure 47
0000
0000
1001
0000
0000
0000
1020
0000
0000
0000
0130
0000
0010
0100
0010
0100
,  // measure 48
0002
0000
0023
0000
0130
1000
0001
0200
,  // measure 49
0000
0000
0320
0000
0000
0000
2030
0000
0000
0000
3001
0000
1000
0010
1000
0010
,  // measure 50
0100
0010
0200
0000
0310
1000
0200
0020
,  // measure 51
0000
0000
0000
0000
,  // measure 52
0000
0330
0110
1001
,  // measure 53
0001
0010
1000
0001
0100
1000
0001
0010
,  // measure 54
2000
0000
0001
3001
1000
0001
1001
1000
,  // measure 55
1001
0001
0010
0011
0001
0100
0010
1000
,  // measure 56
0010
0100
0001
0020
0000
1030
0010
0001
,  // measure 57
1000
0100
1100
0000
1000
0010
0100
0210
,  // measure 58
0000
0001
0000
1000
0000
0001
0000
0310
,  // measure 59
0110
0000
0010
2010
0000
3002
0000
0023
,  // measure 60
0000
2030
0000
3020
0000
0031
0100
0001
,  // measure 61
1000
0010
0001
1000
0100
0001
1000
0010
,  // measure 62
0002
0000
1000
1003
0001
1000
1001
0001
,  // measure 63
1001
1000
0010
1010
1000
0100
0010
0001
,  // measure 64
0010
0100
1000
0020
0000
0031
0010
1000
,  // measure 65
0001
0100
0101
0000
0001
0010
0100
1100
,  // measure 66
0000
0000
0011
0000
0000
0000
0101
0000
0000
0000
2010
0000
0000
0000
3100
0010
,  // measure 67
0100
0000
0110
0012
0000
1003
0010
0100
,  // measure 68
0001
0100
1000
0100
0010
0100
0001
0102
,  // measure 69
0000
1003
0001
0011
0000
0001
1000
1010
,  // measure 70
0000
1000
0100
1100
0000
1000
0001
0101
,  // measure 71
0000
0001
0010
0110
0000
0100
1000
0010
,  // measure 72
0000
2002
0000
0000
,  // measure 73
0000
0000
0000
0000
,  // measure 74
0000
0000
0000
0000
,  // measure 75
3003
0000
0000
0000
;
