#VERSION:0.83;
#TITLE:あいあむなんばーわんパトラちゃん様;
#SUBTITLE:;
#ARTIST:周防パトラ;
#TITLETRANSLIT:I am No.1 Patra-chan-sama;
#SUBTITLETRANSLIT:;
#ARTISTTRANSLIT:Suou Patra;
#GENRE:;
#ORIGIN:;
#CREDIT:;
#BANNER:;
#BACKGROUND:;
#PREVIEWVID:;
#JACKET:;
#CDIMAGE:;
#DISCIMAGE:;
#LYRICSPATH:;
#CDTITLE:;
#MUSIC:I am No.1 Patra-chan-sama.ogg;
#OFFSET:-1.092909;
#SAMPLESTART:54.407001;
#SAMPLELENGTH:15.000000;
#SELECTABLE:YES;
#BPMS:0.000=220.000;
#STOPS:194.000=0.273,
407.000=0.545;
#DELAYS:;
#WARPS:;
#TIMESIGNATURES:0.000=4=4;
#TICKCOUNTS:0.000=4;
#COMBOS:0.000=1;
#SPEEDS:0.000=1.000=0.000=0;
#SCROLLS:0.000=1.000;
#FAKES:;
#LABELS:0.000=Song Start;
#BGCHANGES:;
#KEYSOUNDS:;
#ATTACKS:
;

//---------------dance-single - ----------------
#NOTEDATA:;
#CHARTNAME:;
#STEPSTYPE:dance-single;
#DESCRIPTION:;
#CHARTSTYLE:;
#DIFFICULTY:Hard;
#METER:16;
#RADARVALUES:0.818817,1.094016,0.571156,0.288938,0.154548,853.000000,768.000000,85.000000,43.000000,30.000000,0.000000,0.000000,0.000000,0.000000,0.818817,1.094016,0.571156,0.288938,0.154548,853.000000,768.000000,85.000000,43.000000,30.000000,0.000000,0.000000,0.000000,0.000000;
#CREDIT:equatorialbarman;
#NOTES:
// measure 0
0000
0000
0000
0000
,  // measure 1
0000
0000
0000
0000
,  // measure 2
0000
0000
0000
0000
,  // measure 3
0000
0000
0000
0000
,  // measure 4
0000
0000
0000
0000
,  // measure 5
0000
0000
0000
0000
,  // measure 6
0000
0000
0000
0000
,  // measure 7
0000
0000
0000
0000
,  // measure 8
0000
0000
0000
0000
,  // measure 9
0000
0000
0000
0000
0000
0000
0000
1000
,  // measure 10
0001
0100
0001
0000
1000
0100
1000
0000
,  // measure 11
0001
0010
0001
0000
1000
0010
1000
0001
,  // measure 12
0100
0010
1000
0001
0010
0100
1000
0100
,  // measure 13
0010
0000
0001
0000
1000
0000
0001
0000
1000
0100
1000
0000
0000
0000
0001
0000
,  // measure 14
0010
0100
1000
0100
0010
0001
1000
0010
,  // measure 15
0100
0001
0100
0010
1000
0001
0010
0001
,  // measure 16
0100
0001
0100
0010
1000
0010
1000
0001
,  // measure 17
0010
0100
1000
0000
0010
0100
0001
0000
1000
0000
0001
0000
1000
0000
0000
0000
,  // measure 18
0020
0000
0000
0000
,  // measure 19
0130
0000
0101
0000
1100
0000
1000
0010
,  // measure 20
0100
0010
1000
0000
0001
0010
0100
1000
,  // measure 21
0001
0000
0010
0001
0100
0001
0010
0001
,  // measure 22
1000
0010
0100
0010
1000
0000
1010
0000
,  // measure 23
1000
0100
0010
00M0
1000
0100
0010
00M0
,  // measure 24
1000
0100
0001
000M
1000
0100
0001
000M
,  // measure 25
1000
0100
0010
00M0
1000
0100
0010
00M0
,  // measure 26
1000
0000
0100
1000
0100
0000
1000
0001
0020
0000
0000
0000
0031
0000
0000
0000
,  // measure 27
0100
0000
0110
0000
1010
0000
0001
0010
,  // measure 28
0100
0010
0001
0000
1000
0010
0100
0010
,  // measure 29
1000
0000
0001
0010
1000
0010
0001
0100
,  // measure 30
0010
1000
0100
0010
0001
0000
1001
0000
,  // measure 31
0001
0100
0010
00M0
0001
0100
0010
00M0
,  // measure 32
0001
0100
1000
M000
0001
0100
1000
M000
,  // measure 33
0001
0100
0010
00M0
0001
0100
0010
00M0
,  // measure 34
0001
0000
0010
0001
0010
0000
0001
1000
0020
0000
0000
0000
1030
0000
0000
0000
,  // measure 35
1100
0000
0000
0000
0101
0000
0000
0000
1100
0000
0000
0000
1000
0001
0100
0000
,  // measure 36
0000
0101
0000
0001
0010
0100
1000
0001
,  // measure 37
0011
0000
0000
0000
1001
0000
0000
0000
0101
0000
0000
0000
0001
1000
0010
0000
,  // measure 38
0000
1010
0000
1000
0100
0000
1100
0000
,  // measure 39
1010
0000
0000
0000
0110
0000
0000
0000
0101
0000
0000
0000
0001
0010
0100
0000
,  // measure 40
0000
0011
0000
1000
0010
0100
0001
1000
,  // measure 41
1001
0000
0000
0000
0011
0000
0000
0000
0110
0000
0000
0000
0100
1000
0001
0000
,  // measure 42
0000
1100
0000
1000
0001
0000
0110
0000
,  // measure 43
2010
0000
3100
0001
0100
0000
1000
0001
,  // measure 44
1000
0010
0100
0001
0020
0000
0130
0010
,  // measure 45
0012
0000
0103
1000
0100
0000
0010
0100
,  // measure 46
0001
0010
0100
1000
0010
0000
1000
0001
,  // measure 47
1001
0000
1100
0000
,  // measure 48
1001
0000
0110
0000
1001
2000
0000
3001
,  // measure 49
0010
0100
0001
0100
1000
0200
0000
0310
,  // measure 50
1000
0010
0001
0100
0010
2000
0000
3010
,  // measure 51
0001
0010
0100
0001
0010
0100
1000
0000
,  // measure 52
1010
0000
0001
0000
0100
0002
0000
0013
,  // measure 53
0001
0100
1000
0100
0010
2000
0000
3100
,  // measure 54
0001
0100
0020
0000
0031
0000
0100
0000
,  // measure 55
1010
0100
0011
2001
,  // measure 56
3100
0000
1000
0001
0010
0002
0000
1003
,  // measure 57
0010
0100
1000
0100
0010
1000
0100
0001
,  // measure 58
0100
0010
1000
0001
0100
0020
0000
0031
,  // measure 59
0100
1000
0001
0010
0100
0001
1000
0000
,  // measure 60
1010
0000
0000
0000
0001
0000
0010
0000
0100
0000
1000
0001
0100
0000
0000
0000
,  // measure 61
0110
0000
0001
0010
0100
0010
0001
0000
,  // measure 62
1001
0000
1000
0010
0100
0010
2000
0000
,  // measure 63
3100
0001
0000
0100
1000
0000
0110
0000
,  // measure 64
0001
0000
0000
0000
0110
0000
0000
0000
1000
0000
0000
0000
1001
0000
0000
1000
,  // measure 65
0100
0000
0000
0001
0100
0000
0000
0010
0100
0000
0000
0010
0001
0000
0000
1000
,  // measure 66
0001
0000
0000
0100
1000
0000
0000
0100
0010
0000
1000
0000
0002
0000
0000
0000
,  // measure 67
0013
2000
0000
3001
0100
2000
0000
3010
,  // measure 68
0100
0001
1000
0100
0010
0002
0000
0103
,  // measure 69
1000
0100
0002
0100
0000
2003
0000
3100
,  // measure 70
0001
0100
2000
0100
0000
3002
0000
1003
,  // measure 71
0010
0001
1000
0100
0001
1000
0100
0001
,  // measure 72
0100
1000
0010
0100
0000
1002
0000
0103
,  // measure 73
0010
0001
0020
0100
0000
2030
0000
3100
,  // measure 74
0010
1000
0020
0100
0000
0032
0000
1003
,  // measure 75
0100
0001
1000
0010
0001
1000
0010
0100
,  // measure 76
0001
0000
0010
0000
0100
0000
1000
0001
1000
0000
1001
0000
0001
0000
0010
0000
,  // measure 77
0100
0M00
0001
0010
0100
0M00
0001
0010
,  // measure 78
1000
M000
0001
0010
1000
M000
0001
0010
,  // measure 79
0100
0000
0M00
0000
0001
0000
0010
0000
0100
0000
0M00
0000
0001
0000
0010
1000
,  // measure 80
0010
0000
0001
1000
0001
0000
0000
0000
1001
0000
0000
0000
1000
0000
0010
0000
,  // measure 81
0100
0M00
1000
0010
0100
0M00
1000
0010
,  // measure 82
0001
000M
1000
0010
0001
000M
1000
0010
,  // measure 83
0100
0000
0M00
0000
1000
0000
0010
0000
0100
0000
0M00
0000
1000
0000
0010
0001
,  // measure 84
0010
0000
1000
0100
0010
0000
0001
0000
0100
0000
0000
0000
1010
0000
0000
0000
,  // measure 85
0100
0000
2001
0000
0000
3100
0010
0000
,  // measure 86
0100
1000
1000
0101
,  // measure 87
0010
0000
1002
0000
0000
0103
0010
0000
,  // measure 88
0100
0001
0001
1100
,  // measure 89
0001
0000
1020
0000
0000
0130
0001
0000
,  // measure 90
0010
0100
0100
0011
,  // measure 91
0001
0100
0000
1000
0100
0002
0000
0013
,  // measure 92
0100
0000
1000
0001
0100
0010
1000
0000
,  // measure 93
1100
0000
0101
0000
1000
0100
0010
1000
,  // measure 94
0010
0100
1000
0000
1001
0000
1010
0000
,  // measure 95
0101
0000
0011
0000
0001
0100
0010
0001
,  // measure 96
0010
0000
0100
0000
0001
0000
0010
0000
0001
1000
0001
1000
0010
0000
0000
0000
,  // measure 97
1000
0100
0010
0000
0100
1000
0010
0000
,  // measure 98
0100
0000
1001
0000
0010
0100
0101
0000
,  // measure 99
0010
0000
1100
0000
0010
0000
1001
0001
,  // measure 100
0100
0000
0000
0000
1001
0000
1000
0000
0100
0000
0000
0000
1000
0001
1000
0001
,  // measure 101
1000
0001
1000
0001
1000
0001
1000
0001
1000
0001
1000
0001
0010
0000
0000
0000
,  // measure 102
0000
2001
0000
3100
0010
1000
0010
0100
,  // measure 103
0001
0100
1000
0010
0001
1000
0100
0010
,  // measure 104
1000
0002
0000
0013
0001
1000
0010
0100
,  // measure 105
1000
0100
0010
1000
1100
0000
0010
0001
,  // measure 106
0100
0002
0000
0103
0010
0001
0010
0100
,  // measure 107
1000
0100
0001
0010
1000
0001
0100
0010
,  // measure 108
0001
0000
1100
0100
0010
0000
0101
0100
,  // measure 109
0010
0000
1001
1000
0100
0000
1001
0001
,  // measure 110
0010
0002
0000
0103
1000
0001
0010
1000
,  // measure 111
0001
0010
0100
0001
1000
0010
0100
1000
,  // measure 112
0010
0200
0000
1300
0100
0010
1000
0010
,  // measure 113
0001
0010
0100
0001
0011
0000
0100
1000
,  // measure 114
0010
0000
1000
0001
0010
0000
0001
0000
0101
0000
0000
0000
0010
0000
1000
0000
,  // measure 115
1100
0000
0010
0001
0100
0010
1000
0001
,  // measure 116
0011
0000
0101
0100
0010
0000
1100
0100
,  // measure 117
0010
0000
0001
0100
0010
1000
0100
0001
,  // measure 118
0100
0000
0000
0000
0110
0000
0000
0001
0100
0000
0000
1000
0100
0000
0000
0010
,  // measure 119
0100
0000
0010
0000
1010
0000
0000
1000
0100
0000
0000
0001
0100
0000
0000
0010
,  // measure 120
0001
1000
1001
0000
0100
2100
0000
3010
,  // measure 121
0100
0102
0000
1003
0001
0200
0000
0000
,  // measure 122
0000
0310
1000
0100
0010
00M0
1000
0100
,  // measure 123
0001
000M
1000
0100
0010
00M0
1000
0100
,  // measure 124
0001
000M
1000
0100
0010
00M0
1000
0100
,  // measure 125
0001
0000
000M
0000
1000
0000
0001
0100
1000
0000
0100
0010
2000
0000
0000
0000
,  // measure 126
3001
0000
0010
0001
1000
0000
0010
0000
1010
0000
0000
0000
1000
0000
0010
0000
,  // measure 127
1010
0000
0001
0010
0011
0000
0001
0010
,  // measure 128
0011
0000
1000
0100
1100
0000
1000
0100
,  // measure 129
1100
0000
0000
0000
0001
0000
1000
0010
0001
0000
0010
0100
0002
0000
0000
0000
,  // measure 130
0000
0003
0000
0000
;

//---------------dance-single - ----------------
#NOTEDATA:;
#CHARTNAME:;
#STEPSTYPE:dance-single;
#DESCRIPTION:;
#CHARTSTYLE:;
#DIFFICULTY:Easy;
#METER:10;
#RADARVALUES:0.428127,0.481367,0.174707,0.342694,0.000000,446.000000,420.000000,26.000000,51.000000,0.000000,0.000000,0.000000,0.000000,0.000000,0.428127,0.481367,0.174707,0.342694,0.000000,446.000000,420.000000,26.000000,51.000000,0.000000,0.000000,0.000000,0.000000,0.000000;
#CREDIT:equatorialbarman;
#NOTES:
0000
0000
0000
0000
,
0000
0000
0000
0000
,
0000
0000
0000
0000
,
0000
0000
0000
0000
,
0000
0000
0000
0000
,
0000
0000
0000
0000
,
0000
0000
0000
0000
,
0000
0000
0000
0000
,
0000
0000
0000
0000
,
0000
0000
0000
0000
0000
0000
0000
1000
,
0000
0001
0000
0100
0000
0000
0000
0001
,
0000
1000
0000
0100
0000
0000
0000
1000
,
0000
0010
0000
0100
0000
0010
0000
1000
,
0000
0100
0000
0010
0000
0010
0000
0001
,
0000
0100
0000
0010
0000
1000
0000
0100
,
0000
0010
0000
0001
0000
1000
0000
0001
,
0000
0100
0000
1000
0000
0100
0000
0001
,
0000
0010
0000
0100
0000
1000
0000
0002
,
0000
0000
0000
0000
,
1003
0100
1000
0000
,
0001
0100
0001
1000
,
0001
0010
0100
0010
,
0001
0100
0010
1000
,
0100
0001
0100
1000
,
0010
0001
0010
1000
,
0100
0001
0100
1000
,
0010
0100
0002
0003
,
1000
0010
1000
0000
,
0001
0010
0001
0100
,
0010
1000
0001
0000
,
0010
0001
1000
0100
,
1000
0010
0001
0010
,
1000
0100
0001
0100
,
1000
0010
0001
0010
,
0100
0001
2000
3000
,
0001
0000
0010
0000
0001
0000
0000
0011
,
0000
0001
0100
0010
,
1000
0000
0100
0000
1000
0000
0000
1100
,
0000
1000
0010
0100
,
0010
0000
1000
0000
0001
0000
0000
1001
,
0000
0001
0010
0100
,
1000
0000
0010
0000
0100
0000
0000
0110
,
0000
0010
1000
0001
,
1000
0100
0010
1000
,
0010
0100
1000
0000
,
0001
0100
0010
0001
,
0010
0100
0001
0000
,
1001
0000
0110
0000
,
1001
0000
1000
0000
0100
2000
0000
0000
,
3010
1000
0000
0001
,
0100
0010
1000
0001
,
0010
0100
0010
0002
,
0100
0000
1003
0000
0000
0002
0000
0000
,
0013
0001
0000
1000
,
0010
0100
0001
1000
,
0100
0001
0100
2000
,
0010
0000
3100
0000
0000
1002
0000
0000
,
0013
0100
1000
0010
,
0100
1000
0100
0010
,
1000
0100
0010
0002
,
1000
0000
0103
0000
0000
2001
0000
0000
,
3010
0100
0001
0010
,
0100
0001
0100
0020
,
0001
0130
0000
2000
,
0010
3001
0000
1000
,
0100
1100
0000
0001
,
0100
0102
0000
1003
,
0000
0010
0000
0010
0000
0200
0000
0000
,
0000
0301
0000
0000
0000
2000
0000
0000
,
3100
0000
0020
0000
0000
0032
0000
0000
,
0103
0000
0020
0000
0000
2030
0000
0000
,
3100
0001
0100
1000
,
0010
0000
0200
0000
0000
0302
0000
0000
,
0013
0000
0200
0000
0000
2300
0000
0000
,
3010
0000
0200
0000
0000
0302
0000
0000
,
1003
0010
0001
0010
,
1000
0100
1000
0001
,
0010
1000
0010
0001
,
0010
1000
0010
0001
,
0100
1000
0100
0010
,
1000
1100
0000
0100
,
0001
0100
1000
0010
,
0001
0010
1000
0100
,
0001
0100
0010
0001
,
0100
0101
0000
0002
,
0010
1003
0000
2000
,
0010
3001
0000
1000
,
0100
0010
0001
0100
,
0010
1000
0001
2001
,
0100
3001
0000
0002
,
0100
1003
0000
0001
,
0010
0100
1000
0010
,
0100
0001
0001
1000
,
0100
0010
1000
0010
,
0001
1000
0001
0100
,
0001
0010
0100
0001
,
0100
1000
0010
0100
,
0000
0110
0000
0001
,
1000
0010
0000
1100
,
0000
0101
0000
1010
,
0000
0011
0000
1000
,
0100
0010
0001
0100
,
0000
0020
0000
0000
1030
0000
0001
0000
,
0010
0100
0001
0100
,
0000
0020
0000
0000
0031
0000
0100
0000
,
0010
2000
0010
3001
,
0000
2000
0000
0000
3100
0000
0010
0000
,
1000
0010
0100
1000
,
0010
0200
1000
0310
,
0100
0002
0010
1003
,
0000
1002
0000
0000
0103
0000
1000
0000
,
0100
0001
0010
1000
,
0001
0100
1000
0010
,
0100
0002
0010
1003
,
0000
2001
0000
0000
3100
0000
0001
0000
,
0100
0010
1000
0001
,
0100
2000
0010
3001
,
0100
0020
0001
1030
,
0000
0010
0100
0001
,
0101
0001
0010
0200
,
0000
0000
2300
0000
0000
3001
0000
0100
,
0000
0020
0000
0000
0000
1030
0000
0000
,
0000
1002
0000
0000
1003
0000
0020
0000
,
0000
0032
0000
0000
0013
0000
2000
0000
,
0000
3002
0000
0000
0013
0000
1000
0000
,
0010
0100
1000
0002
,
0000
1003
0001
0000
0100
0000
0001
0000
,
0101
1000
0100
1000
,
1100
0001
0010
0001
,
1000
0010
0100
2002
,
0000
3003
0000
0000
;

//---------------dance-single - ----------------
#NOTEDATA:;
#CHARTNAME:;
#STEPSTYPE:dance-single;
#DESCRIPTION:;
#CHARTSTYLE:;
#DIFFICULTY:Medium;
#METER:13;
#RADARVALUES:0.579795,0.786179,0.369572,0.376291,0.000000,604.000000,549.000000,55.000000,56.000000,0.000000,0.000000,0.000000,0.000000,0.000000,0.579795,0.786179,0.369572,0.376291,0.000000,604.000000,549.000000,55.000000,56.000000,0.000000,0.000000,0.000000,0.000000,0.000000;
#CREDIT:equatorialbarman;
#NOTES:
0000
0000
0000
0000
,
0000
0000
0000
0000
,
0000
0000
0000
0000
,
0000
0000
0000
0000
,
0000
0000
0000
0000
,
0000
0000
0000
0000
,
0000
0000
0000
0000
,
0000
0000
0000
0000
,
0000
0000
0000
0000
,
0000
0000
0000
0000
0000
0000
0000
2000
,
0000
0000
3001
0100
0000
0010
0000
2000
,
0000
0000
3001
0010
0000
0100
0000
1000
,
0000
0001
0100
0001
0000
1000
0000
0001
,
0010
0001
0000
2000
0000
3001
0000
1000
,
0000
0100
1000
0000
0001
0100
0000
0001
,
0000
0010
0001
0000
1000
0010
0000
1000
,
0000
0001
0100
0010
0000
1000
0000
0100
,
0010
0001
0000
1000
0000
0010
0000
1000
,
0002
0000
0000
0003
,
1000
0001
1001
0000
,
0001
0000
0010
0100
0010
0000
0001
0000
,
1000
0010
0110
0000
,
0010
0000
1000
0001
1000
0000
0001
0000
,
1000
0100
1000
0000
0001
0100
0001
0000
,
1000
0100
1000
0000
0001
0100
0001
0000
,
1000
0010
1000
0000
0001
0010
0001
0000
,
1000
0100
0220
0330
,
0001
0010
0011
0000
,
0001
0000
0100
0001
0100
0000
0001
0000
,
1000
0100
1100
0000
,
1000
0000
0010
1000
0010
0000
1000
0000
,
0001
0010
0001
0000
1000
0010
1000
0000
,
0001
0010
0001
0000
1000
0010
1000
0000
,
0001
0100
0001
0000
1000
0100
1000
0000
,
0001
0010
0220
0330
,
0001
0000
0100
0000
0101
0000
0000
2010
,
0000
3001
0010
0100
,
1000
0000
0010
0000
1010
0000
0000
0102
,
0000
0013
0001
1000
,
0010
0000
0100
0000
0101
0000
0000
2100
,
0000
3001
0010
0100
,
0010
0000
0001
0000
1001
0000
0000
0201
,
0000
0310
1000
0001
,
2000
0000
0000
3100
0010
0000
0001
0000
,
0100
0010
1000
0000
,
0002
0000
0000
0013
0100
0000
1000
0000
,
0010
0100
0001
0000
,
1100
0000
0101
0000
,
1001
0000
0010
0000
0110
0002
0000
0013
,
0100
0010
0001
0100
,
0001
1000
0001
0000
1000
0200
0000
0000
,
0310
0000
0001
1000
0010
0000
2000
0000
,
0100
3001
1000
1010
,
0010
0000
0100
0001
1000
0000
0001
0000
,
0010
0100
1000
0000
0001
0000
2000
0000
,
3010
0001
0000
0010
1000
0000
0002
0000
,
0010
0000
1003
0000
0000
0001
0100
0000
,
0101
0000
0001
1000
0010
0000
1000
0100
,
0010
0000
0001
0000
1000
0010
1000
0000
,
1010
0000
0010
0100
0001
0000
2000
0000
,
0100
0000
3001
0000
0000
1000
0100
0000
,
1100
0000
1000
0001
0100
0000
0001
1000
,
0010
0100
0001
0020
,
1030
1010
0010
0002
,
0100
0013
0000
1001
,
1001
0100
0100
1001
,
0001
1000
0020
0000
1030
0000
1001
0000
,
1000
0200
0000
1300
0000
2020
0000
0000
,
0000
0000
3030
0000
0000
0020
0000
0130
,
0001
0000
2000
0000
0000
3002
0000
0013
,
0100
0000
2000
0000
0000
3020
0000
0130
,
0001
0100
1000
0100
,
0010
0000
1000
0000
0000
1002
0000
0013
,
1000
0000
0020
0000
0000
0032
0000
1003
,
0010
0000
0002
0000
0000
0023
0000
0130
,
0001
0010
0100
1000
,
0001
1000
0010
0000
0100
0000
0001
0010
,
0001
0000
1000
0010
1000
0000
0001
0010
,
0001
0000
1000
0010
1000
0000
0001
0100
,
0001
0000
1000
0100
1000
0000
0001
1000
,
0010
0100
0001
0000
0000
0000
1000
0100
,
1000
0000
0001
0100
0001
0000
1000
0100
,
1000
0000
0001
0100
0001
0000
1000
0010
,
1000
0000
0001
0010
0001
0000
1000
0100
,
0010
0001
1000
0000
0000
0000
1020
0000
,
0100
0000
1030
0000
0000
0001
0010
0000
,
0100
0001
0100
0010
,
0001
1000
0000
0001
0100
0001
0020
0000
,
1000
0031
0100
0021
,
0100
0000
0031
0000
0000
1000
0010
0000
,
0100
1000
0100
0010
,
1000
0001
0000
1000
0100
1000
0020
0000
,
0001
0000
1030
0100
0010
0000
0001
0000
,
0100
0000
1000
0000
0100
0001
0000
1000
,
0001
1000
0100
1000
,
0010
0000
0001
0000
0010
1000
0000
0001
,
1000
0001
0010
0100
,
0001
0101
0100
1000
,
0010
1010
0000
0110
,
0000
0101
0000
1010
,
0010
0000
0110
0000
0100
0000
0001
1000
,
0001
1000
0010
0100
0001
1000
0001
0000
,
0000
2001
0000
3100
0010
0000
0001
0000
,
1000
0000
0001
0100
0010
0000
0001
0000
,
0010
1000
0001
0000
0010
0000
0100
0010
,
0001
2000
0100
3001
,
0000
0001
1000
0000
1001
0000
1000
0010
,
0100
0000
1000
0100
0001
0000
0010
0000
,
0001
2000
3100
0002
,
0103
2000
0010
3001
,
1000
0001
0010
0000
1100
0000
1000
0100
,
0010
0000
0001
0010
1000
0001
0100
0000
,
1000
0010
0100
0000
0001
0000
1000
0000
,
0100
1000
0020
0000
0001
0000
0130
0000
,
0010
1000
0100
0000
0011
0000
0001
0100
,
0010
0000
1000
0010
0001
1000
0100
0000
,
0010
2000
3100
0101
,
0100
2100
0010
3001
,
0100
0110
1001
1001
,
1001
0110
1010
1010
,
0101
0000
2100
0000
3001
0010
0000
0110
,
0000
1002
0000
0000
0000
0103
0010
0000
,
0000
1000
0001
0100
0001
0000
1000
0100
,
1000
0000
0001
0010
0001
0000
1000
0010
,
1000
0000
0001
0100
0001
0000
1000
0100
,
1000
0000
0001
1000
0010
0100
0001
0000
,
1000
0001
1000
0001
0100
1000
0200
0000
,
0000
0302
0000
1003
0100
0001
0200
0000
,
0000
2300
0000
3010
0100
0001
0010
0100
,
1000
0000
0001
1000
0010
0000
2002
0000
,
3003
0000
0000
0000
;
