#VERSION:0.83;
#TITLE:月光;
#SUBTITLE:;
#ARTIST:なおきち;
#TITLETRANSLIT:Gekko;
#SUBTITLETRANSLIT:;
#ARTISTTRANSLIT:Naokichi;
#GENRE:;
#ORIGIN:;
#CREDIT:;
#BANNER:;
#BACKGROUND:;
#PREVIEWVID:;
#JACKET:;
#CDIMAGE:;
#DISCIMAGE:;
#LYRICSPATH:;
#CDTITLE:;
#MUSIC:Gekko.ogg;
#OFFSET:-0.005000;
#SAMPLESTART:19.991999;
#SAMPLELENGTH:15.000000;
#SELECTABLE:YES;
#DISPLAYBPM:180.000000;
#BPMS:0.000=180.000,
113.000=168.888,
116.000=180.000;
#STOPS:;
#DELAYS:;
#WARPS:;
#TIMESIGNATURES:0.000=4=4;
#TICKCOUNTS:0.000=4;
#COMBOS:0.000=1;
#SPEEDS:0.000=1.000=0.000=0;
#SCROLLS:0.000=1.000;
#FAKES:;
#LABELS:0.000=Song Start;
#BGCHANGES:;
#KEYSOUNDS:;
#ATTACKS:
;

//---------------dance-single - ----------------
#NOTEDATA:;
#CHARTNAME:;
#STEPSTYPE:dance-single;
#DESCRIPTION:;
#CHARTSTYLE:;
#DIFFICULTY:Easy;
#METER:5;
#RADARVALUES:0.305190,0.477145,0.188223,0.075289,0.000000,227.000000,207.000000,20.000000,8.000000,0.000000,0.000000,0.000000,0.000000,0.000000,0.305190,0.477145,0.188223,0.075289,0.000000,227.000000,207.000000,20.000000,8.000000,0.000000,0.000000,0.000000,0.000000,0.000000;
#CREDIT:bimbowidth;
#DISPLAYBPM:180.000000;
#NOTES:
0000
0000
0000
0000
,
0000
0000
0000
0000
,
0000
0000
0000
0000
,
0000
0000
0000
0000
,
0000
0000
0000
0000
,
0000
0000
0000
0000
,
0000
0000
0000
0000
,
0000
0000
0000
0000
,
0001
0001
0010
0010
,
0100
0100
1000
1000
,
0001
0001
0100
0100
,
0010
0010
1000
1000
,
0001
0001
0001
0001
,
0001
2002
0000
0000
,
0000
0000
3003
0000
,
1000
0001
1000
0001
,
0100
0010
0100
0010
,
1000
0100
1000
0100
,
0010
0001
0010
0001
,
0100
0001
0100
0001
,
1000
0010
1000
0010
,
1000
0100
0010
0001
,
1000
0010
0100
0001
,
1000
1000
0100
0100
,
0010
0010
0001
0001
,
0100
0100
0010
0010
,
1000
1000
0001
0001
,
0100
0100
0100
0100
,
0100
2002
0000
3003
,
1000
0001
1000
0010
,
1000
0001
0100
0001
,
0100
0010
0100
0001
,
0100
0010
1000
0010
,
1000
0100
1000
0100
,
0011
0011
0101
0101
,
0001
1000
0000
0001
,
2000
3001
0000
0100
,
0010
1000
0000
0001
,
1000
0100
0000
0010
,
0001
0001
0001
0001
,
1000
1000
1000
1000
,
0010
0010
0010
0010
,
0100
0100
0100
0100
,
1000
0000
1001
0000
,
0002
0003
0000
0000
,
0100
0000
0110
0000
,
0020
0030
0000
0000
,
0100
0000
0000
0000
,
0000
0000
0000
0000
,
0010
0010
0010
0010
,
0100
0001
1000
0010
,
0000
1000
0000
0000
,
0000
0000
0000
0000
,
0000
0001
0000
0001
0000
0001
0000
0000
,
1000
0000
0001
0000
,
0010
0000
0100
0000
,
1000
0000
0001
0000
,
1000
0100
1000
0100
,
1000
0001
1000
0001
,
0010
0100
0010
0100
,
1000
0001
1000
0001
,
1100
0000
1001
0000
,
0011
0000
0110
0000
,
0100
0010
0100
0010
,
1000
0001
1000
0001
,
0010
0100
0010
0100
,
1000
0001
1000
0001
,
1100
0000
1010
0000
,
1100
0000
1001
0000
,
0001
0000
0000
0010
,
0000
0100
0100
0100
,
0000
0000
0000
1000
,
0000
0001
0001
0001
,
1001
0000
0110
0000
,
1001
0000
0110
0000
,
0200
0000
0000
0000
,
0000
0000
0000
0000
,
0000
0000
0000
0000
,
0300
0000
0000
0000
;

//---------------dance-single - ----------------
#NOTEDATA:;
#CHARTNAME:;
#STEPSTYPE:dance-single;
#DESCRIPTION:;
#CHARTSTYLE:;
#DIFFICULTY:Medium;
#METER:10;
#RADARVALUES:0.376446,0.550552,0.159989,0.103523,0.000000,280.000000,263.000000,17.000000,11.000000,0.000000,0.000000,0.000000,0.000000,0.000000,0.376446,0.550552,0.159989,0.103523,0.000000,280.000000,263.000000,17.000000,11.000000,0.000000,0.000000,0.000000,0.000000,0.000000;
#CREDIT:bimbowidth;
#DISPLAYBPM:180.000000;
#NOTES:
0000
0000
0000
0000
,
0000
0000
0000
0000
,
0000
0000
0000
0000
,
0000
0000
0000
0000
,
0000
0000
0000
0000
,
0000
0000
0000
0000
,
0000
0000
0000
0000
,
0000
0000
0000
0000
,
1000
1000
0100
0010
,
0001
0010
0100
1000
,
1000
1000
0100
0010
,
0001
0010
0100
1000
,
0010
0100
0010
0100
,
1001
0220
0000
0000
,
0000
0000
0330
0000
,
0001
0100
0001
1000
,
0010
0000
1000
0000
0100
0000
1000
0001
,
1000
0010
0100
0010
,
1000
0000
0001
0000
0100
0000
0001
0010
,
0001
0100
0010
1000
,
0100
0000
0010
0000
0001
0000
1000
0001
,
1000
0000
0010
0000
1000
0000
0010
1000
,
0010
0000
1000
0000
0100
0000
0010
0001
,
0010
0100
1000
0001
,
0010
0100
0010
0001
,
1000
0010
0100
0001
,
0100
0010
1000
0001
,
1000
1000
1000
1000
,
1000
2002
0000
3003
,
0001
0010
0001
1000
,
0010
0000
0001
0000
0010
0000
1000
0010
,
1000
0001
0100
0001
,
0100
0000
1000
0000
0100
0000
0001
0100
,
0001
1000
0100
0010
,
0011
0011
1001
1001
,
1000
0001
0000
0100
,
0020
0130
0000
0001
,
1000
0000
0100
0000
0000
1000
0001
0000
,
0100
0000
0010
0000
0000
0100
0001
0000
,
1000
0001
0000
0001
0000
0001
0000
0001
,
0000
1000
0000
1000
0000
1000
0000
1000
,
0000
0010
0000
0010
0000
0010
0000
0010
,
0000
0100
0000
0100
0000
0100
0010
0000
,
1000
0000
1001
0000
,
0002
0103
0000
0000
,
0001
0000
0110
0000
,
2000
3010
0000
0000
,
0000
0000
0020
0000
,
0000
0000
0000
0000
,
0130
0000
0100
0000
0100
0010
0100
0010
,
0100
0001
0100
0001
1000
0001
1000
0001
,
1000
0001
0200
0000
,
0000
0000
0000
0000
,
0300
0010
0000
0010
0000
0010
0000
0010
,
0200
0000
0000
0300
,
0011
0000
0101
0000
,
1001
0000
1100
0000
,
1000
0001
1000
0001
1000
0001
1000
0000
,
0010
0100
0010
0100
0010
0100
0010
0000
,
1000
0100
1000
0100
1000
0100
1000
0000
,
0001
0100
0001
0100
0001
0100
0001
0000
,
1000
0001
0010
1000
,
0010
0001
1000
0010
,
1000
0001
1000
0001
1000
0001
1000
0000
,
0010
0100
0010
0100
0010
0100
0010
0000
,
0100
0001
0100
0001
0100
0001
0100
0000
,
0001
0010
0001
0010
0001
0010
0001
0000
,
1000
0001
0100
1000
,
0100
0001
1000
0010
,
1000
0000
0000
0001
,
1000
0010
0010
0010
,
0100
0000
0000
0001
,
1000
0100
0100
0100
,
0110
0000
1001
0000
,
0101
0000
1100
0000
,
2000
0000
0000
0000
,
0000
0000
0000
0000
,
0000
0000
0000
0000
,
3001
0000
0000
0000
;

//---------------dance-single - ----------------
#NOTEDATA:;
#CHARTNAME:;
#STEPSTYPE:dance-single;
#DESCRIPTION:;
#CHARTSTYLE:;
#DIFFICULTY:Hard;
#METER:12;
#RADARVALUES:0.489379,0.660662,0.385857,0.150578,0.000000,364.000000,323.000000,41.000000,16.000000,0.000000,0.000000,0.000000,0.000000,0.000000,0.489379,0.660662,0.385857,0.150578,0.000000,364.000000,323.000000,41.000000,16.000000,0.000000,0.000000,0.000000,0.000000,0.000000;
#CREDIT:bimbowidth;
#DISPLAYBPM:180.000000;
#NOTES:
// measure 0
0000
0000
0000
0000
,  // measure 1
0000
0000
0000
0000
,  // measure 2
0000
0000
0000
0000
,  // measure 3
0000
0000
0000
0000
,  // measure 4
0000
0000
0000
0000
,  // measure 5
0000
0000
0000
0000
,  // measure 6
0000
0000
0000
0000
,  // measure 7
0000
0000
0000
0000
,  // measure 8
0001
0001
0000
0000
1000
0000
0100
0000
,  // measure 9
0010
0001
0010
0100
,  // measure 10
1000
1000
0000
0000
0001
0000
0010
0000
,  // measure 11
0100
1000
0100
0010
,  // measure 12
1001
1001
1001
1001
,  // measure 13
1001
0220
0000
0000
,  // measure 14
0000
0000
0000
0000
0330
0000
0100
0100
,  // measure 15
0001
0010
0001
0100
0001
1000
0001
0000
,  // measure 16
1000
0100
1000
0100
0010
0001
1000
0001
,  // measure 17
0000
0000
1000
0100
0010
0100
1000
0000
,  // measure 18
0001
0100
0010
1000
0010
0100
0001
0010
,  // measure 19
0000
0000
0100
0010
0001
0010
0100
0000
,  // measure 20
1000
0010
0100
0010
1000
0001
0100
0001
,  // measure 21
0000
0000
1000
0100
0010
0001
1000
1000
,  // measure 22
0001
0010
0100
1000
0001
0010
0100
0100
,  // measure 23
1000
1000
0000
0000
1000
0000
0010
0000
,  // measure 24
0100
0001
0100
0010
,  // measure 25
1000
1000
0000
0000
0001
0000
0100
0000
,  // measure 26
0010
1000
0010
0100
,  // measure 27
0110
0110
0110
0110
,  // measure 28
0110
2002
0000
3003
,  // measure 29
1000
0010
0001
0010
1000
0010
0001
0010
,  // measure 30
1000
0010
0001
0010
1000
0000
0001
1001
,  // measure 31
0001
0100
1000
0100
0001
0100
1000
0100
,  // measure 32
0001
0100
1000
0100
0001
0000
1000
1001
,  // measure 33
0001
0010
1000
0100
1000
0010
0001
0000
,  // measure 34
1100
1001
0011
0101
,  // measure 35
0001
1000
0000
0001
,  // measure 36
2000
3100
0000
1001
,  // measure 37
0010
0000
0100
0000
0000
0100
0001
0000
,  // measure 38
1001
0000
0010
0000
0000
0010
0100
0000
,  // measure 39
1000
0001
0000
0001
0000
0100
0001
0100
,  // measure 40
0010
1000
0000
1000
0000
0010
1000
0010
,  // measure 41
0100
0001
0000
0001
0000
0010
0100
1000
,  // measure 42
0100
0010
0000
0010
0000
0100
0010
0001
,  // measure 43
0011
0000
1001
0000
,  // measure 44
2000
3001
0000
0000
,  // measure 45
0110
0000
1001
0000
,  // measure 46
0020
0130
0000
0000
,  // measure 47
1001
0000
0020
0000
,  // measure 48
0000
0000
0000
0000
,  // measure 49
0130
0000
0100
0000
0100
0001
0100
0001
,  // measure 50
1000
0001
1000
0001
0100
0010
0100
0010
,  // measure 51
0100
1001
0200
0000
,  // measure 52
0000
0000
0000
0000
,  // measure 53
0300
0010
0000
0010
0000
0010
0100
0010
,  // measure 54
0200
0000
0000
0300
,  // measure 55
1001
0000
0101
0000
,  // measure 56
0011
0000
1010
0000
,  // measure 57
1000
0010
0100
0010
1000
0001
0100
0001
,  // measure 58
0010
0001
0100
0010
1000
0100
0010
0001
,  // measure 59
0100
0001
1000
0010
1000
0100
1000
0001
,  // measure 60
0100
0010
1000
0100
0010
0001
0010
0100
,  // measure 61
1000
0001
1000
0000
0010
0100
0010
0000
,  // measure 62
0100
0001
0100
0000
0100
1000
0100
0000
,  // measure 63
0100
0010
0100
0010
1000
0001
1000
0100
,  // measure 64
1000
0010
0100
0001
0010
0100
1000
0001
,  // measure 65
0010
0100
0010
0100
1000
0001
1000
0001
,  // measure 66
0100
0010
1000
0100
0010
0001
0010
0100
,  // measure 67
1000
0100
1000
0000
0001
0100
0001
0000
,  // measure 68
0100
0010
0100
0000
0100
1000
0100
0000
,  // measure 69
1001
0000
0000
1000
,  // measure 70
0001
0110
0110
0110
,  // measure 71
2000
3000
0000
0001
,  // measure 72
0010
1001
1001
1001
,  // measure 73
0210
0000
0000
0300
1020
0000
0000
0030
,  // measure 74
0210
0000
0000
0300
0102
0000
0000
0003
,  // measure 75
2000
0000
0000
0000
,  // measure 76
0000
0000
0000
0000
,  // measure 77
0000
0000
0000
0000
,  // measure 78
3001
0000
0000
0000
;

//---------------dance-single - ----------------
#NOTEDATA:;
#CHARTNAME:;
#STEPSTYPE:dance-single;
#DESCRIPTION:;
#CHARTSTYLE:;
#DIFFICULTY:Challenge;
#METER:19;
#RADARVALUES:1.130682,1.358028,0.931703,0.056467,1.331677,841.000000,742.000000,99.000000,6.000000,0.000000,0.000000,0.000000,0.000000,0.000000,1.130682,1.358028,0.931703,0.056467,1.331677,841.000000,742.000000,99.000000,6.000000,0.000000,0.000000,0.000000,0.000000,0.000000;
#CREDIT:bimbowidth;
#DISPLAYBPM:180.000000;
#NOTES:
0000
0000
0000
0000
,
0000
0000
0000
0000
,
0000
0000
0000
0000
,
0000
0000
0000
0000
,
0000
0000
0000
0000
,
0000
0000
0000
0000
,
0000
0000
0000
0000
,
0000
0000
0000
0000
,
1000
0001
1000
0001
1000
0001
1000
0001
0100
0010
1000
0010
0100
0010
1000
0010
,
0100
0001
1000
0001
0100
0001
0010
0001
0100
0001
1000
0001
0100
0001
0010
0001
,
0100
0010
0100
0010
0100
0010
0100
0010
1000
0100
0010
0100
1000
0100
0010
0100
,
1000
0001
0010
0001
0100
0001
0010
0001
1000
0001
0100
0001
0010
0001
1000
0001
,
1000
0100
0010
0001
1000
0100
0010
0001
1000
0100
0010
0001
1000
0100
0010
0001
,
1000
0022
0000
0000
,
0000
0000
0000
0000
0033
0000
0110
0110
,
1000
0100
1000
0010
1000
0001
1000
0001
0100
0001
0010
0001
1000
0001
0100
0001
,
0010
0001
0010
0100
1000
0001
0100
0010
1000
0001
0010
0100
0110
0000
0110
0000
,
0001
0010
0001
0100
0001
1000
0001
1000
0010
1000
0100
1000
0001
1000
0010
1000
,
0100
1000
0100
0010
0001
1000
0010
0100
0001
0010
0100
1000
1010
0000
1010
0000
,
1000
0100
1000
0010
1000
0001
1000
0001
0100
0001
0010
0001
1000
0001
0100
0001
,
0010
0001
0010
0100
1000
0001
0100
0010
1000
0100
0010
0001
0011
0000
0011
0000
,
1000
0010
0100
0001
0100
0010
1000
0100
0010
0001
0010
0100
0110
0000
0110
0000
,
0001
0100
0010
1000
0010
0100
0001
0010
0100
1000
0100
0010
1001
0000
1001
0000
,
0001
0010
0001
0010
0001
0010
0001
0010
0001
0100
0010
1000
0100
1000
0010
1000
,
0100
1000
0100
0010
0001
0010
0001
1000
0010
1000
0010
0100
0001
0100
0001
0100
,
0001
0010
0001
0010
0001
0010
0001
0010
0100
1000
0010
1000
0100
1000
0010
1000
,
0001
0010
0001
0010
0100
1000
0100
1000
0001
0100
0001
0100
0010
1000
0010
1000
,
0011
0100
0011
0100
0011
0100
0011
0100
,
0011
2002
0000
3003
,
0100
0010
0100
0001
1000
0001
1000
0010
0100
0010
1000
0001
1000
0001
0100
0010
,
1000
0100
1000
0010
1000
0001
0100
0001
0010
0001
0010
0100
0110
0000
0110
0000
,
1000
0001
1000
0001
0100
0010
0100
0001
1000
0001
1000
0010
0100
0010
1000
0001
,
1000
0100
1000
0010
1000
0001
0100
0001
0010
0001
0100
0001
1001
0000
1001
0000
,
1000
0100
0010
0001
1000
0100
0010
0001
1000
0010
0100
0001
1000
0010
0100
0001
,
1000
0100
0010
0100
1000
0100
0010
0001
0100
0010
1000
0100
0010
0100
0010
0001
,
1000
0000
0010
0000
1000
0000
0001
0000
0100
0000
0001
0000
1000
0000
0010
0100
,
0010
0000
0100
0000
0010
0000
0000
0000
0000
0000
0000
0000
1001
0000
0000
0000
0000
0000
0000
0000
0000
0000
0000
0000
0000
0000
0000
0000
0000
0000
0100
0000
0000
0000
0000
0000
0001
0000
0000
0000
0000
0000
0010
0000
0000
0100
0000
0000
,
1000
0000
1000
0000
1001
0000
0000
0000
0001
0000
0100
0000
0010
0000
1000
0100
,
0010
0001
0101
0000
1000
0001
0100
0010
,
1000
0100
0000
0100
0000
0100
0010
0001
,
1000
0001
0000
0001
0000
0001
0010
0100
,
1000
0010
0000
0010
0000
0010
0100
0001
,
0010
0100
0000
0100
0000
0100
1000
0010
,
1100
0000
1001
0000
,
0001
0100
0001
0100
0001
0100
0020
0000
0000
0000
0000
0000
0000
0000
0000
0000
0000
0000
0030
0000
0000
0000
0000
0000
,
1001
0000
0110
0000
,
1000
0010
1000
0010
1000
0010
0200
0000
0000
0000
0000
0000
0000
0000
0000
0000
0000
0000
0300
0000
0000
0000
0000
0000
,
1001
0000
0000
0000
0000
0000
0000
0000
0001
0010
0100
1000
0100
0010
0001
0010
,
0100
1000
0100
0010
0001
0010
0100
1000
0100
0010
0001
0010
0100
1000
0001
0010
,
0100
0010
0001
0010
0100
0010
0100
0010
0100
1000
0001
1000
0010
1000
0100
1000
,
0001
0000
0000
0010
0000
0000
0001
0000
0000
0010
0000
0000
0001
0000
0000
1000
0000
0000
0001
0000
0000
1000
0000
0000
0010
0000
0100
0000
0010
0000
0100
0000
0010
0000
0100
0000
0010
0000
0100
0000
0010
0000
0100
0000
0010
0000
0100
0000
,
0010
0000
0000
0000
1001
0000
0000
0000
1000
0010
0100
0001
0010
0100
1000
0010
,
0100
0001
0010
0100
1000
0010
0100
0001
0010
0100
1000
0100
0010
0001
1000
0100
,
0010
0001
0010
0100
0010
0001
0010
0100
1000
0100
0010
0001
0100
0010
1000
0100
,
0010
0001
0100
0010
1000
0010
0100
0001
0010
0100
1000
0100
0010
0001
1000
0001
,
1000
0000
0011
0000
,
1010
0000
1100
0000
,
0001
0110
0110
0110
0110
0110
1010
1100
,
1000
0101
0101
0101
0101
0101
0011
1001
,
0010
1100
1100
1100
1100
1100
0110
0101
,
0001
0110
0110
0110
0110
0110
1010
1001
,
1000
0000
0010
1000
0100
0000
0001
0000
0100
0000
1000
0010
0100
0000
0001
0000
,
0010
0000
0100
1000
0100
0000
0001
0000
0100
0000
1000
0001
0010
0000
0100
0000
,
1000
0011
0011
0011
0011
0011
0110
0101
,
0001
0110
0110
0110
0110
0110
1010
1100
,
1000
0110
0110
0110
0110
0110
0101
1001
,
1000
0011
0011
0011
0011
0011
1010
1001
,
1100
0000
0001
0010
0100
0000
0001
0000
0100
0000
1000
0100
0010
0000
0001
0000
,
0100
0000
0010
1000
0100
0000
0001
0000
0100
0000
1000
0001
0010
0000
0100
0000
,
1000
0000
0000
0000
0000
0000
0000
0000
0000
0000
0000
0000
0001
0000
0000
0001
,
0100
0110
0110
0110
,
1000
0000
0100
0000
0010
0000
0000
0000
0000
0000
0000
0000
0000
0000
0000
0000
0000
0000
0000
0000
0000
0000
0000
0000
0000
0000
0000
0000
0000
0000
0000
0000
0000
0000
0000
0000
0001
0000
0000
0000
0000
0000
0000
0000
0000
1000
0000
0000
,
0010
1001
1001
1001
,
0100
0010
0000
0000
0000
0000
0000
0000
1000
0001
0000
0000
0000
0000
0000
0000
,
0001
0010
0000
0000
0000
0000
0000
0000
0100
1000
0000
0000
0000
0000
0000
0000
,
1000
0100
1000
0100
1000
0010
1000
0001
1000
0001
0100
0001
0010
0001
0010
0001
,
0010
0100
1000
0010
0100
0001
0010
0100
1000
0010
0100
0001
0010
0100
1000
0001
,
0010
0100
1000
0001
0010
0100
1000
0001
0100
0010
1000
0010
0100
0001
0100
0010
,
1001
0000
0000
0000
;
