#VERSION:0.83;
#TITLE:Fly Away;
#SUBTITLE:;
#ARTIST:Teddyloid;
#TITLETRANSLIT:;
#SUBTITLETRANSLIT:;
#ARTISTTRANSLIT:;
#GENRE:;
#ORIGIN:;
#CREDIT:;
#BANNER:;
#BACKGROUND:;
#PREVIEWVID:;
#JACKET:;
#CDIMAGE:;
#DISCIMAGE:;
#LYRICSPATH:;
#CDTITLE:;
#MUSIC:Fly Away.ogg;
#OFFSET:-0.449000;
#SAMPLESTART:58.617344;
#SAMPLELENGTH:12.000000;
#SELECTABLE:YES;
#BPMS:0.000=131.983,
96.000=65.992,
108.000=131.983;
#STOPS:;
#DELAYS:;
#WARPS:;
#TIMESIGNATURES:0.000=4=4;
#TICKCOUNTS:0.000=4;
#COMBOS:0.000=1;
#SPEEDS:0.000=1.000=0.000=0;
#SCROLLS:0.000=1.000,
108.000=0.000,
112.000=1.000;
#FAKES:;
#LABELS:0.000=Song Start;
#BGCHANGES:;
#KEYSOUNDS:;
#ATTACKS:
;

//---------------dance-single - ----------------
#NOTEDATA:;
#CHARTNAME:;
#STEPSTYPE:dance-single;
#DESCRIPTION:;
#CHARTSTYLE:;
#DIFFICULTY:Hard;
#METER:14;
#RADARVALUES:0.587698,1.031853,0.485391,0.095487,0.716150,517.000000,456.000000,61.000000,12.000000,14.000000,0.000000,0.000000,0.000000,0.000000,0.587698,1.031853,0.485391,0.095487,0.716150,517.000000,456.000000,61.000000,12.000000,14.000000,0.000000,0.000000,0.000000,0.000000;
#CREDIT:amazingseeds;
#NOTES:
// measure 0
0000
0000
0000
0000
,  // measure 1
0000
0000
0000
0000
,  // measure 2
0000
0000
0000
0000
,  // measure 3
0000
0000
0000
0000
,  // measure 4
1010
0000
0000
1001
0000
0000
0011
0000
,  // measure 5
0000
0000
0110
0000
0000
0000
0000
0000
1000
0010
00M0
0010
0001
0100
0M00
0100
,  // measure 6
1000
0000
0000
1010
0000
0000
1001
0000
,  // measure 7
0011
0000
0000
0010
0100
0000
0000
1000
0001
0000
0000
0000
0001
0100
0010
0000
,  // measure 8
1000
0000
0000
0100
0000
0000
0001
0000
0000
1000
0000
0000
0010
0000
0000
0100
,  // measure 9
0000
0000
1000
0000
0000
0010
0000
0000
0010
0000
0000
0100
0000
0000
2000
0000
,  // measure 10
3001
0000
0000
0010
0000
0000
1000
0000
0000
0001
0000
0000
0010
0000
0000
0100
,  // measure 11
0000
0000
0101
0000
0000
1000
0000
0000
0011
0000
0000
0001
0000
0000
2000
0000
,  // measure 12
3010
0000
0000
0100
0000
0000
1000
0000
0000
0100
0000
0000
0001
0000
0000
1000
,  // measure 13
0000
0000
0100
0000
0000
0010
0000
0000
1010
0000
0000
1000
0000
0000
0002
0000
,  // measure 14
0103
0000
0000
0100
0000
0000
1000
0000
0000
1000
0000
0000
0010
0000
0000
0100
,  // measure 15
0000
0000
1100
0000
0000
0010
0000
0000
0101
0000
0000
0001
0000
0000
2000
3000
,  // measure 16
1100
0000
1000
0100
0000
0000
0010
0000
0001
0000
0100
0000
0010
0000
1000
0000
,  // measure 17
0001
0000
0101
0000
0000
0110
0000
0000
0010
1000
0000
1000
0001
0000
1001
0000
,  // measure 18
0011
0000
0000
0010
0100
0000
1100
0000
0000
0001
0100
0000
0101
0000
0000
0100
,  // measure 19
0010
0000
1000
0000
0100
0000
0010
0000
0001
0100
0000
0001
1000
0000
1100
0000
,  // measure 20
1001
0000
0001
0100
0000
0000
0010
0000
1000
0000
0100
0000
0010
0000
0001
0000
,  // measure 21
1000
0000
1100
0000
0000
0110
0000
0000
0010
0001
0000
1000
0001
0000
0100
0000
,  // measure 22
0110
0000
0000
0001
0100
0000
0110
0000
0000
1000
0100
0000
0110
0000
0001
1000
,  // measure 23
0010
0000
0100
0000
1000
0000
0100
0000
0001
1000
0000
1000
0100
0000
0010
0000
,  // measure 24
0011
0000
0000
0011
0000
0000
1001
0000
0000
1001
0000
0000
1100
0000
0000
1100
0000
0000
1001
0000
0000
1001
0000
0000
0001
0001
0000
0100
0000
0010
0000
0000
,  // measure 25
1010
0000
0000
1010
0000
0000
1001
0000
0000
1001
0000
0000
1100
0000
0000
1100
0000
0000
1001
0000
0000
1001
0000
0000
0001
0001
0000
0010
0000
0100
0000
0000
,  // measure 26
1010
0000
0000
1010
0000
0000
1100
0000
0000
1100
0000
0000
0011
0000
0000
0011
0000
0000
0101
0000
0000
0101
0000
0000
0001
0001
0000
0100
0000
0010
0000
0000
,  // measure 27
1001
0000
0000
0000
,  // measure 28
1010
0000
0000
0000
0000
0000
0000
0000
0001
0000
0000
0000
0010
0000
0000
0000
0000
0000
0000
0000
0100
0000
0000
0000
1000
0000
0000
0000
0000
0000
0000
0000
0000
0000
0000
0000
0010
0000
0000
0100
0000
0000
0001
0000
0000
0000
0000
0000
,  // measure 29
1000
0100
0001
0100
1000
0001
1001
0000
,  // measure 30
0001
0000
0000
0100
0000
0000
1000
0000
0000
0100
0000
0000
0001
0000
0100
0000
0010
00M0
0010
0000
0001
0000
0100
0000
,  // measure 31
1000
0100
0010
1000
0100
0001
0100
1000
,  // measure 32
0000
0000
0000
0000
0000
0000
0010
0000
0000
0000
0000
0000
0000
0000
0000
0010
0000
0000
0000
0000
0000
0000
0000
0000
0100
0000
0000
0000
0001
0000
0000
0000
0010
0000
00M0
0000
0010
0000
0000
0000
1000
0000
0000
0000
0100
0000
0000
0000
,  // measure 33
0010
0001
0100
1000
0100
0010
1010
0000
,  // measure 34
1000
0000
0000
0000
0000
0000
0100
0000
0000
0000
0000
0000
0001
0000
0000
0000
0000
0000
0100
0000
0000
0000
0000
0000
0010
0000
0000
0000
0001
0000
0000
0000
0100
0M00
0000
0000
0100
0000
0000
0000
1000
0000
0000
0000
0010
0000
0000
0000
,  // measure 35
0001
0010
0100
0001
0010
1000
0010
0100
,  // measure 36
1000
0000
0000
0000
0000
0000
0010
0000
0000
0100
0000
0000
0001
0000
0000
0000
1000
0000
0000
0000
0100
0000
0000
0000
0110
0000
0000
0000
0000
0000
0000
0000
0000
0000
0000
0000
0001
0000
0000
1000
0000
0000
0001
0000
0000
1000
0000
0000
,  // measure 37
0100
0010
0001
0100
1000
0100
0110
0000
,  // measure 38
0010
0000
0000
1000
0000
0000
0100
0000
0000
0001
0000
0000
0100
0000
1000
0000
0010
00M0
0010
0000
0001
0000
0100
0000
,  // measure 39
0010
1000
0100
0001
0100
0010
0001
0100
,  // measure 40
1000
0000
0000
0000
0000
0000
0100
0000
0000
0000
0000
0000
0000
0000
0000
0100
0000
0000
0000
0000
0000
0000
0000
0000
0010
0000
0000
0000
1000
0000
0000
0000
0100
0000
0M00
0000
0100
0000
0000
0000
0001
0000
0000
0000
1000
0000
0000
0000
,  // measure 41
0100
0001
1000
0010
0100
1000
1010
0000
,  // measure 42
1000
0000
0000
0100
0000
0000
0001
0000
0000
1000
0000
0000
0010
0000
0001
0000
0100
0M00
0100
0000
0010
0000
0001
0000
,  // measure 43
1000
0010
0100
1000
0100
0001
0010
0100
,  // measure 44
0010
0000
0000
0000
0000
0000
0001
0000
0000
1000
0000
0000
0000
0000
0000
0010
0000
0000
0000
0000
0000
0000
0000
0000
0100
0000
0000
0000
0100
0000
0000
0000
0100
0000
0000
0000
0001
0000
0000
0100
0000
0000
0001
0000
0000
0010
0000
0000
,  // measure 45
0100
0001
0100
1000
0010
0120
0000
0130
,  // measure 46
0010
0000
0000
1000
0000
0000
0100
0000
0000
0010
0000
0000
1000
0000
0010
0000
0001
000M
0001
0000
0100
0000
0010
0000
,  // measure 47
0001
1000
0010
0100
0001
0210
0000
0310
,  // measure 48
0001
0000
0000
1000
0000
0000
0010
0000
0000
0100
0000
0000
1000
0000
0100
0000
0001
000M
0001
0000
0010
0000
0100
0000
,  // measure 49
0001
0010
1000
0010
0100
2001
0000
3001
,  // measure 50
0100
0000
0000
1000
0000
0000
0100
0000
0000
0010
0000
0000
1000
0000
0100
0000
0001
000M
0001
0000
0010
0000
0100
0000
,  // measure 51
0001
0100
1000
0010
0100
2001
0000
3001
,  // measure 52
0010
0000
0100
1000
0000
1000
0000
0000
0010
0000
0200
0000
0000
0000
1300
0000
,  // measure 53
0100
0000
0010
0000
1000
0100
0000
1000
0000
0001
0000
0100
0000
0010
1000
0000
,  // measure 54
0001
0000
0000
0000
0000
0000
0010
0000
0000
0000
0000
0000
0000
0000
0000
0010
0000
0000
0000
0000
0000
0000
0000
0000
0010
0000
0000
0000
1000
0000
0000
0000
0001
0000
000M
0000
0001
0000
0000
0000
0010
0000
0000
0000
1000
0000
0000
0000
,  // measure 55
1000
0000
0010
0000
0001
1000
0000
0100
0000
0010
0000
0100
0000
0001
0000
1000
,  // measure 56
0000
0000
0000
0000
0000
0000
0010
0000
0000
0000
0000
0000
0100
0000
0000
1000
0000
0000
0000
0000
0000
1000
0000
0000
0010
0000
0000
0000
0100
0000
0000
0000
1000
0000
M000
0000
1000
0000
0000
0000
0010
0000
0000
0000
0100
0000
0000
0000
,  // measure 57
1000
0000
0100
0000
0010
0001
0000
0010
0000
0100
0000
0001
0000
1000
0000
0100
,  // measure 58
0000
0000
0000
0000
0000
0000
0010
0000
0000
0000
0000
0000
0000
0000
0000
0001
0000
0000
0000
0000
0000
0000
0000
0000
0100
0000
0000
0000
1000
0000
0000
0000
0001
0000
000M
0000
0001
0000
0000
0000
0010
0000
0000
0000
0100
0000
0000
0000
,  // measure 59
0001
0000
0100
0000
1000
0010
0000
0100
0000
1000
0000
0100
0000
0001
0000
1000
,  // measure 60
0100
0000
0010
0010
0000
0000
0010
0000
0002
0000
0000
0000
0103
0010
0100
0010
,  // measure 61
2000
0000
3100
0002
0000
0000
0003
0000
;

//---------------dance-single - ----------------
#NOTEDATA:;
#CHARTNAME:;
#STEPSTYPE:dance-single;
#DESCRIPTION:;
#CHARTSTYLE:;
#DIFFICULTY:Medium;
#METER:12;
#RADARVALUES:0.530860,0.638766,0.198931,0.151187,0.533134,467.000000,442.000000,25.000000,19.000000,0.000000,0.000000,0.000000,0.000000,0.000000,0.530860,0.638766,0.198931,0.151187,0.533134,467.000000,442.000000,25.000000,19.000000,0.000000,0.000000,0.000000,0.000000,0.000000;
#CREDIT:amazingseeds;
#NOTES:
0000
0000
0000
0000
,
0000
0000
0000
0000
,
0000
0000
0000
0000
,
0000
0000
0000
0000
,
1001
0000
0000
0011
0000
0000
1100
0000
,
0000
0000
0000
1010
0000
0000
0000
0000
0000
0000
0000
0000
1001
0000
0000
0000
0001
0000
1000
0000
0000
0000
0010
0000
,
0100
0000
0000
0101
0000
0000
0011
0000
,
0110
0000
0000
0000
0000
0000
0000
0000
0010
0000
0000
0000
0100
0000
0000
0000
0000
0000
0000
0000
0000
0000
0000
0000
1001
0000
0000
0000
0000
0000
0000
0000
0000
0000
0000
0000
1000
0000
0000
0001
0000
0000
0100
0000
0000
0000
0000
0000
,
0101
0000
0000
0100
0000
0000
1000
0000
0000
0100
0000
0000
0010
0000
1000
0000
,
0100
0000
0001
0000
0000
0000
0100
0000
0010
0000
0000
0010
0000
0000
0002
0000
,
1003
0000
0000
0010
0000
0000
0100
0000
0000
1000
0000
0000
0100
0000
0001
0000
,
1000
0000
0100
0000
0000
0000
0010
0000
1000
0000
0000
1000
0000
0000
0020
0000
,
0031
0000
0000
1000
0000
0000
0010
0000
0000
0100
0000
0000
1000
0000
0100
0000
,
0001
0000
1000
0000
0000
0000
1000
0000
0100
0000
0000
0100
0000
0000
0020
0000
,
0031
0000
0000
0100
0000
0000
1000
0000
0000
0100
0000
0000
0010
0000
1000
0000
,
0100
0000
0001
0000
0000
0000
1000
0000
0010
0000
0000
0010
0000
0000
0001
0000
,
1000
0000
0010
0100
0000
0000
0001
0000
0010
0000
0100
0000
0010
0000
0001
0000
,
1000
0000
0010
0001
0000
0000
0010
0000
0100
0000
0001
0000
1000
0000
0100
0000
,
1000
0000
0010
0100
0000
0000
0001
0000
0010
0000
1000
0000
0010
0000
0100
0000
,
1000
0000
0010
0000
0100
0000
0001
0000
1000
0100
0000
0100
0000
0000
0010
0000
,
0001
0100
0010
0000
0000
0000
0001
0000
0010
0000
1000
0000
0001
0000
0010
0000
,
0100
0000
0001
0100
0000
0000
1000
0000
0010
0000
0100
0000
1000
0000
0001
0000
,
0010
0000
0100
0010
0000
0000
1000
0000
0000
1000
0000
0000
0001
0000
0000
0001
,
0010
0000
0100
0000
0001
0000
0100
0000
1000
0001
0000
0001
0000
0000
0100
0000
,
0120
0000
0000
0000
1000
0000
0000
0000
0031
0000
0000
0000
0000
0000
0010
0000
1000
0000
0001
0000
0010
0000
0100
0000
1000
0001
0000
0200
0000
0300
0010
0000
,
1000
0001
0010
0200
0000
0300
0000
1000
0010
0100
0001
0010
0000
0001
0001
0000
,
1000
0000
0100
0000
0010
0000
0001
0000
0000
0000
0000
0000
0000
0000
1000
0000
0010
0000
0100
0000
0001
0000
1000
0000
0100
0010
0000
0200
0000
0300
1000
0000
,
1001
0000
0000
0000
,
0001
0000
0000
0000
0000
0000
0000
0000
0100
0000
0000
0000
0010
0000
0000
0000
0000
0000
0000
0000
1000
0000
0000
0000
0001
0000
0000
0000
0000
0000
0000
0000
0000
0000
0000
0000
0010
0000
0000
0100
0000
0000
1000
0000
0000
0000
0000
0000
,
0001
0100
1000
0100
0010
1000
1001
0000
,
1000
0000
0000
0100
0000
0000
0001
0000
0000
0100
0000
0000
0010
0000
0001
0000
1000
0000
0010
0000
1000
0000
0001
0000
,
1000
0100
0001
0100
0010
0001
1000
0010
,
0100
0000
0000
0000
0000
0000
1000
0000
0000
0000
0000
0000
0000
0000
0000
1000
0000
0000
0000
0000
0000
0000
0000
0000
0100
0000
0000
0000
0010
0000
0000
0000
0100
0000
0000
0000
0001
0000
0000
0000
1000
0000
0000
0000
0100
0000
0000
0000
,
0010
0001
1000
0100
0001
0100
1100
0000
,
0010
0000
0000
0001
0000
0000
1000
0000
0000
0010
0000
0000
0100
0000
0001
0000
1000
0000
0100
0000
1000
0000
0001
0000
,
1000
0010
0100
1000
0100
0001
0010
0100
,
1100
0000
0000
0000
0000
0000
0000
0000
0000
0000
0000
0000
1000
0000
0000
0000
0001
0000
0000
0000
1000
0000
0000
0000
0001
0000
0000
0000
0000
0000
0000
0000
0000
0000
0000
0000
0100
0000
0000
0010
0000
0000
0100
0000
0000
0010
0000
0000
,
1000
0001
0010
1000
0010
0100
1100
0000
,
1000
0000
0000
0010
0000
0000
0100
0000
0000
0001
0000
0000
0010
0000
0100
0000
0010
0000
0001
0000
1000
0000
0001
0000
,
0100
1000
0100
0010
1000
0100
0010
0001
,
1000
0000
0000
0000
0000
0000
0010
0000
0000
0000
0000
0000
0000
0000
0000
0010
0000
0000
0000
0000
0000
0000
0000
0000
1000
0000
0000
0000
0001
0000
0000
0000
1000
0000
0000
0000
0010
0000
0000
0000
0100
0000
0000
0000
0010
0000
0000
0000
,
0001
0010
1000
0001
0100
0010
1010
0000
,
1000
0000
0000
0100
0000
0000
0010
0000
0000
1000
0000
0000
0010
0000
0001
0000
0010
0000
0100
0000
1000
0000
0001
0000
,
1000
0010
0100
1000
0100
0001
1000
0100
,
0010
0000
0001
1000
0000
1000
0000
0000
1002
0000
0000
0000
0103
0010
0100
0010
,
1000
0100
0010
0001
1000
2001
0000
0100
,
3100
1000
0010
0100
0001
0102
0000
1000
,
1003
0100
0010
1000
0010
0012
0000
1000
,
1003
0010
0100
1000
0100
0102
0000
1000
,
1003
0100
0010
0001
1000
2001
0000
0010
,
3010
1000
0001
0010
0100
2100
0000
3001
,
0001
0100
0010
0001
1000
1200
0000
0301
,
0001
0000
1000
0100
0000
0100
0000
0000
0010
0000
0000
0020
0000
0000
0000
0000
,
0031
0000
1000
0000
0010
0100
0000
0001
0000
0001
0000
1000
0000
0100
0000
0010
,
0000
0000
0000
0000
0000
0000
0001
0000
0000
0000
0000
0000
0100
0000
0000
0001
0000
0000
0000
0000
0000
0001
0000
0000
1000
0000
0000
0000
0001
0000
0000
0000
1000
0000
0000
0000
0010
0000
0000
0000
0100
0000
0000
0000
0001
0000
0000
0000
,
1000
0000
0010
0000
0100
0001
0000
0010
0000
0100
0000
0010
0000
0001
0000
1000
,
0000
0000
0000
0000
0000
0000
0010
0000
0000
0000
0000
0000
0100
0000
0000
0001
0000
0000
0000
0000
0000
0001
0000
0000
1000
0000
0000
0000
0100
0000
0000
0000
0010
0000
0000
0000
0001
0000
0000
0000
0100
0000
0000
0000
0010
0000
0000
0000
,
1000
0000
0010
0000
0100
1000
0000
0100
0000
0010
0000
1000
0000
0100
0000
0001
,
0000
0000
0000
0000
0000
0000
0100
0000
0000
0000
0000
0000
1000
0000
0000
0010
0000
0000
0000
0000
0000
0010
0000
0000
0100
0000
0000
0000
1000
0000
0000
0000
0100
0000
0000
0000
0010
0000
0000
0000
1000
0000
0000
0000
0001
0000
0000
0000
,
0010
0000
1000
0000
0010
0100
0000
1000
0000
0001
0000
0100
0000
0010
0000
0100
,
0000
0000
0001
1000
0000
0100
0000
0000
0020
0000
0000
0000
0031
1000
0001
1000
,
0020
0000
0130
2000
0000
0000
3000
0000
;

//---------------dance-single - ----------------
#NOTEDATA:;
#CHARTNAME:;
#STEPSTYPE:dance-single;
#DESCRIPTION:;
#CHARTSTYLE:;
#DIFFICULTY:Easy;
#METER:9;
#RADARVALUES:0.368306,0.491358,0.334203,0.206888,0.107423,324.000000,282.000000,42.000000,26.000000,0.000000,0.000000,0.000000,0.000000,0.000000,0.368306,0.491358,0.334203,0.206888,0.107423,324.000000,282.000000,42.000000,26.000000,0.000000,0.000000,0.000000,0.000000,0.000000;
#CREDIT:amazingseeds;
#NOTES:
0000
0000
0000
0000
,
0000
0000
0000
0000
,
0000
0000
0000
0000
,
0000
0000
0000
0000
,
1000
0000
0000
0100
0000
0000
0001
0000
,
0000
0100
0000
0000
1100
0000
1001
0000
,
0101
0000
0000
0100
0000
0000
0010
0000
,
1010
1100
1020
0001
,
0130
0000
0020
0000
1030
0200
0000
0310
,
0000
1000
0000
0010
0100
0000
0000
0000
,
1000
0000
0020
0000
0130
2000
0000
3100
,
0000
0001
0000
0010
0001
0000
0000
0000
,
1000
0000
0020
0000
0130
0002
0000
0013
,
0000
1000
0000
0010
0100
0000
0000
0000
,
0001
0000
0200
0000
0310
0002
0000
0103
,
0000
0010
0000
0001
0010
0000
0000
0000
,
1010
0001
0010
0000
0100
0000
1000
0010
,
0100
0001
0000
0010
0001
0000
0100
0010
,
1000
0100
0000
0010
0001
0000
0001
0000
,
1001
0000
1000
0010
0100
0000
0100
0000
,
0101
1000
0100
0000
0010
0000
0001
0100
,
0010
1000
0000
0100
0010
0000
0100
1000
,
0010
0100
0000
0001
0010
0000
0010
0000
,
0110
0000
0100
1000
0001
0000
0001
0000
,
1001
0000
0001
0000
0100
0000
0000
0010
1000
0010
0000
0100
0000
0000
0000
0001
,
0010
0001
0000
1000
0000
0000
0000
0010
0100
0010
0100
0001
0000
0001
1000
0000
,
0100
0010
0000
0001
0000
0000
0000
0001
1000
0001
0000
0100
0000
0000
0000
0100
,
0010
0000
0000
0000
,
1010
1100
1002
0100
,
0013
0000
0010
0001
0000
1000
0010
0000
,
0100
0000
0001
0010
0110
0000
1100
0000
,
1020
0000
0031
0010
0100
0000
0001
0000
,
0010
0100
1100
0011
,
1001
0000
1000
0010
0000
0010
0100
0000
,
0001
0000
0010
0100
0110
0000
1100
0000
,
1020
0000
0031
0010
0100
0000
0001
0000
,
1000
0000
1000
0001
0000
0000
0020
0000
0000
0031
0000
0000
,
0011
0000
1000
0010
0000
0010
0100
0000
,
0001
0000
0010
0100
1100
0000
0011
0000
,
2001
0000
3010
0100
1000
0000
0100
0000
,
0001
0010
0011
1100
,
1001
0000
0001
0010
0000
0100
0001
0000
,
0100
0000
1000
0010
1010
0000
0101
0000
,
0021
0000
1030
0010
0100
0000
1000
0000
,
0000
0000
0010
0100
0000
0001
0000
0000
1000
0000
0000
0000
0200
0000
0000
0000
,
0310
0000
0001
0000
0100
0000
0000
0100
0000
0000
0020
0000
0000
0000
0000
0000
,
1030
0000
0001
0000
0010
0000
0000
0100
0000
0000
0002
0000
0000
0000
0000
0000
,
0103
0000
1000
0000
0010
0000
0000
0100
0000
0000
0002
0000
0000
0000
0000
0000
,
0013
0000
0100
0000
1000
0000
0000
0010
0000
0000
0200
0000
0000
0000
0000
0000
,
1300
0000
0100
0000
0001
0000
0000
0001
0000
0000
2000
0000
0000
0000
0000
0000
,
3100
0000
0010
0000
1000
0000
0000
1000
0000
0000
0002
0000
0000
0000
0000
0000
,
0103
0000
0010
0000
0001
0000
0000
0001
0000
0000
0200
0000
0000
0000
0000
0000
,
1300
0000
0100
0000
0010
0000
0000
1001
0000
0000
0102
0000
0000
0000
0000
0000
,
1003
0100
0010
0000
0010
1000
0010
0000
,
0001
1000
1010
0110
,
0001
0100
0010
0000
0001
0010
0001
0000
,
0010
1000
1001
0011
,
0010
0100
1000
0000
1000
0100
0001
0000
,
0100
0010
0011
0101
,
0100
0010
1000
0000
1000
0010
0001
0000
,
0010
0000
0100
0000
0102
0000
1000
1000
,
0013
0000
0001
0200
0000
0000
0300
0000
;
