#VERSION:0.83;
#TITLE:Finixe;
#SUBTITLE:;
#ARTIST:Silentroom;
#TITLETRANSLIT:;
#SUBTITLETRANSLIT:;
#ARTISTTRANSLIT:;
#GENRE:;
#ORIGIN:;
#CREDIT:;
#BANNER:;
#BACKGROUND:;
#PREVIEWVID:;
#JACKET:;
#CDIMAGE:;
#DISCIMAGE:;
#LYRICSPATH:;
#CDTITLE:;
#MUSIC:Finixe.ogg;
#OFFSET:0.540000;
#SAMPLESTART:42.880001;
#SAMPLELENGTH:15.000000;
#SELECTABLE:YES;
#BPMS:0.000=222.001,
36.000=111.000,
44.000=222.001,
92.000=111.000,
108.000=222.001,
271.000=443.998,
277.000=222.001,
278.000=443.998,
284.000=222.001,
285.000=443.999,
295.000=222.001,
343.000=111.001,
359.000=222.001,
471.000=443.999,
487.000=222.001;
#STOPS:;
#DELAYS:;
#WARPS:;
#TIMESIGNATURES:0.000=4=4;
#TICKCOUNTS:0.000=4;
#COMBOS:0.000=1;
#SPEEDS:0.000=1.000=0.000=0;
#SCROLLS:0.000=1.000;
#FAKES:;
#LABELS:0.000=Song Start;
#BGCHANGES:;
#KEYSOUNDS:;
#ATTACKS:
;

//---------------dance-single - ----------------
#NOTEDATA:;
#CHARTNAME:;
#STEPSTYPE:dance-single;
#DESCRIPTION:;
#CHARTSTYLE:;
#DIFFICULTY:Hard;
#METER:17;
#RADARVALUES:0.868726,1.432601,0.229730,0.500000,0.283784,900.000000,866.000000,34.000000,74.000000,0.000000,0.000000,0.000000,0.000000,0.000000,0.868726,1.432601,0.229730,0.500000,0.283784,900.000000,866.000000,34.000000,74.000000,0.000000,0.000000,0.000000,0.000000,0.000000;
#CREDIT:flamingosizzle;
#NOTES:
// measure 0
0000
0000
0000
0000
,  // measure 1
1010
1010
0000
0000
0101
0101
0000
0000
,  // measure 2
0110
0110
0000
0000
1010
1010
0000
0000
,  // measure 3
0101
0101
0000
0000
1001
1001
0000
0000
,  // measure 4
1010
1010
0000
0000
0110
0110
0000
0000
,  // measure 5
2000
3002
2003
3020
,  // measure 6
2030
0000
0000
0000
3002
0000
0000
0000
1003
0000
0000
0000
0010
0001
0010
0001
,  // measure 7
0010
0000
0000
0000
1000
0010
1000
0010
1000
0000
0000
0000
1000
0001
1000
0001
,  // measure 8
1000
0010
1000
0010
1000
0100
1000
0100
2000
0000
0000
0000
0000
0000
0000
0000
,  // measure 9
3001
2000
3002
0203
,  // measure 10
2300
0000
0000
0000
3000
0000
0001
1000
0001
0000
0000
0010
0000
0000
1000
0000
,  // measure 11
0001
0100
0001
0100
0010
1000
0001
1000
,  // measure 12
0100
0010
0001
1000
0010
1000
0001
0100
,  // measure 13
0010
1000
0010
1000
0010
0100
0001
0010
,  // measure 14
0100
1000
0010
0100
0010
1000
0001
0100
,  // measure 15
0010
0001
0100
1000
0100
0010
0100
0001
,  // measure 16
0100
1000
0100
0010
0001
0100
1000
0010
,  // measure 17
1000
0010
1000
0010
1000
0100
0010
0001
,  // measure 18
0100
0001
0100
0001
0100
0010
1000
0010
,  // measure 19
1000
0001
1000
0001
1000
0010
1000
0100
,  // measure 20
1000
0001
1000
0010
1000
0100
1000
0001
,  // measure 21
1000
0010
1000
0001
1000
0001
1000
0010
,  // measure 22
1000
0100
0010
0001
1000
0001
1000
0001
,  // measure 23
1000
0001
1000
0000
0100
0001
0100
0000
0010
1000
0010
0000
0100
0010
0100
0000
,  // measure 24
0001
0100
0001
0000
1000
0010
1000
0000
0100
0001
0100
0000
0010
1000
0010
0000
,  // measure 25
1000
0001
1000
0000
1000
0010
1000
0000
0100
0001
0100
0000
0010
1000
0010
0000
,  // measure 26
0100
0001
0100
0000
0010
1000
0010
0000
0100
0001
0100
0000
1000
0010
1000
0000
,  // measure 27
0100
0001
0100
0001
0010
1000
0010
1000
,  // measure 28
0100
0010
0100
0010
1000
0001
1000
0001
,  // measure 29
0100
0001
0100
0001
0100
1000
0100
1000
,  // measure 30
0010
0001
0010
0001
1000
0010
1000
0010
,  // measure 31
1000
0100
0010
0001
1000
0100
0010
0001
1000
0100
0010
0001
1000
0100
0010
0001
,  // measure 32
1000
0100
0010
0001
1000
0100
0010
0001
1000
0100
0010
0001
1000
0100
0010
0000
,  // measure 33
1000
1010
0000
0001
1001
0000
1000
1001
,  // measure 34
0000
2000
3002
2003
,  // measure 35
3001
0010
1000
0001
1000
0010
1000
0001
,  // measure 36
1000
0010
1000
0010
1000
0001
1000
0100
,  // measure 37
0010
0001
1000
0010
1000
0001
1000
0010
,  // measure 38
1000
0001
1000
0010
1000
0001
1000
0010
,  // measure 39
1000
0001
1000
0100
0010
0001
1000
0001
,  // measure 40
1000
0010
1000
0001
1000
0010
1000
0001
,  // measure 41
1000
0010
1000
0001
1000
0010
1000
0001
,  // measure 42
1000
0010
1000
0100
0010
0001
0100
0001
,  // measure 43
0100
0001
0010
1000
0001
0100
0010
1000
,  // measure 44
0001
0100
0010
1000
0001
0100
0010
1000
,  // measure 45
0010
0001
0100
1000
0100
1000
0100
0010
,  // measure 46
0001
0100
0001
1000
0001
1000
0001
0100
,  // measure 47
0010
0100
1000
0010
1000
0010
1000
0001
,  // measure 48
1000
0001
1000
0010
1000
0010
1000
0010
,  // measure 49
1000
1010
0000
0001
0101
0000
0010
0100
,  // measure 50
0020
2030
3002
0023
,  // measure 51
2030
3200
0320
0032
,  // measure 52
0000
2003
3020
2030
,  // measure 53
3002
2003
3002
0203
,  // measure 54
0000
0320
2030
3002
,  // measure 55
0203
0320
2030
3002
,  // measure 56
0203
0302
2003
3020
,  // measure 57
0032
0000
0000
0000
,  // measure 58
0000
0000
0000
0000
0003
1000
0001
1000
,  // measure 59
0001
1000
0001
0100
0001
0100
0001
0010
,  // measure 60
0100
0010
0100
0001
1000
0010
1000
0010
,  // measure 61
1000
1000
0001
0001
,  // measure 62
0100
0100
0010
0010
,  // measure 63
1000
1000
0001
0001
0100
0100
0010
0010
,  // measure 64
1000
1000
0001
0001
1000
1000
0010
0010
,  // measure 65
1000
0100
0010
0001
1000
0100
0010
0001
1000
0100
0010
0001
1000
0100
0010
0001
,  // measure 66
1000
0010
1000
0001
1000
0010
1000
0001
,  // measure 67
1000
0010
0001
0100
0010
0100
2002
0000
,  // measure 68
0000
0000
0000
0000
,  // measure 69
0000
3003
2020
0000
,  // measure 70
0000
0000
0000
0000
,  // measure 71
3030
2002
0000
0000
,  // measure 72
0000
0000
0000
0000
3003
0000
1000
0010
,  // measure 73
1000
0010
1000
0010
1000
0000
1000
0010
,  // measure 74
1000
0001
1000
0100
0010
0001
1000
0001
,  // measure 75
1000
0010
1000
0001
0100
1000
0001
0100
,  // measure 76
0010
1000
0001
1000
0010
0100
1000
0001
,  // measure 77
1000
0010
1000
0001
1000
0001
0000
0001
,  // measure 78
1000
0010
1000
0001
0100
0010
1000
0001
,  // measure 79
1000
0010
1000
0001
1000
0010
1000
0001
,  // measure 80
1000
0010
1000
0001
1000
0010
1000
0100
,  // measure 81
0010
0001
1000
0001
1000
0010
1000
0001
,  // measure 82
1000
0001
1000
0010
1000
0001
1000
0010
,  // measure 83
1000
0100
0010
0001
0100
0010
0110
0000
,  // measure 84
0000
0000
1001
0000
0000
0000
0000
0000
1000
0001
1000
0001
1000
0001
1000
0001
,  // measure 85
1000
0001
1000
0001
1000
0000
0000
0000
0000
0000
0000
0000
2001
0000
0000
0000
,  // measure 86
3002
0000
2003
3002
,  // measure 87
0203
0000
0000
0000
0000
0000
0301
1000
0001
2000
0000
0000
,  // measure 88
3002
0000
2003
3020
,  // measure 89
2030
0000
0000
3001
1000
0001
1000
0100
,  // measure 90
0010
0001
1000
0001
1000
0001
1000
0100
,  // measure 91
1000
0100
1000
0010
1000
0010
1000
0001
,  // measure 92
1000
0001
1000
0100
0010
0001
1000
0001
,  // measure 93
1000
0010
1000
0010
1000
0100
1000
0100
,  // measure 94
1000
0010
1000
0001
1000
0001
1000
0001
,  // measure 95
1000
0010
1000
0001
1000
0001
1001
0000
,  // measure 96
0000
0110
0000
0000
1001
0000
0001
0000
,  // measure 97
1000
0001
1000
0001
1000
0001
1000
0001
1000
0001
1000
0001
1000
0000
0010
0000
,  // measure 98
1000
0001
1000
0100
0001
0010
1000
0001
,  // measure 99
1000
0100
0010
0001
1000
0010
0100
0001
,  // measure 100
1000
0010
1000
0001
1000
0010
1000
0001
,  // measure 101
1000
0010
1000
0001
0100
0010
2000
0000
,  // measure 102
0010
3002
1000
0203
,  // measure 103
0010
0320
1000
2030
,  // measure 104
0001
0000
3002
0000
1000
0000
1003
0010
,  // measure 105
1000
0001
1000
0010
1000
0001
1000
0010
,  // measure 106
1000
0001
1000
0010
1000
0001
1000
0100
,  // measure 107
0010
0001
1000
0010
1000
0001
1000
0010
,  // measure 108
1000
0001
1000
0010
1000
0001
1000
0001
,  // measure 109
1000
0000
0010
0000
1000
0000
0001
0000
1000
0000
0010
0000
1000
0001
1000
0001
,  // measure 110
1000
0010
1000
0010
1000
0100
1000
0100
1000
0001
1000
0001
1000
0100
1000
0100
,  // measure 111
1000
0001
1000
0001
1000
0010
1000
0010
1000
0100
1000
0100
1000
0000
0000
0000
,  // measure 112
0000
2000
0000
3002
,  // measure 113
0000
0000
0203
0000
0000
0000
0301
1000
,  // measure 114
0001
0100
1000
0001
1000
0010
1000
0001
,  // measure 115
1000
0000
0010
0000
1000
0000
0001
0000
1000
0010
1000
0010
1000
0000
0010
0000
,  // measure 116
1000
0001
1000
0001
1000
0010
1000
0001
,  // measure 117
1000
0000
0100
0000
0010
0000
1000
0000
1000
0001
1000
0000
1000
0000
0100
0000
,  // measure 118
0001
0100
1000
0100
0001
0100
1000
0100
,  // measure 119
0001
0100
1000
0100
0001
0100
1000
0100
,  // measure 120
0001
0100
1000
0100
0001
0100
1000
0100
,  // measure 121
0001
0100
1000
0100
0001
0100
1000
0000
,  // measure 122
0000
0000
2002
0000
0000
0000
3003
0220
,  // measure 123
0000
0000
0000
0330
2002
0000
0000
0000
,  // measure 124
3003
0220
0000
0000
0000
0000
0000
0000
,  // measure 125
0000
0000
0000
0000
,  // measure 126
0000
0000
0000
0000
,  // measure 127
0000
0000
0000
0000
,  // measure 128
0000
0000
0330
0000
;

//---------------dance-single - ----------------
#NOTEDATA:;
#CHARTNAME:;
#STEPSTYPE:dance-single;
#DESCRIPTION:;
#CHARTSTYLE:;
#DIFFICULTY:Medium;
#METER:13;
#RADARVALUES:0.578185,0.738007,0.141892,0.324324,0.010135,599.000000,578.000000,21.000000,48.000000,0.000000,0.000000,0.000000,0.000000,0.000000,0.578185,0.738007,0.141892,0.324324,0.010135,599.000000,578.000000,21.000000,48.000000,0.000000,0.000000,0.000000,0.000000,0.000000;
#CREDIT:flamingosizzle;
#NOTES:
0000
0000
0000
0000
,
0100
0110
0000
0000
0001
1001
0000
0000
,
1000
1010
0000
0000
0010
0110
0000
0000
,
0001
0101
0000
0000
1000
1010
0000
0000
,
0001
0101
0000
0000
0100
0110
0000
0000
,
1000
0001
1000
0010
,
1000
0000
0001
0000
1000
0000
0001
0100
,
0001
0000
1000
0001
1000
0000
1000
0001
,
1000
0001
1000
0001
1000
0000
0000
0000
,
1001
1000
0001
1000
,
0001
0000
0000
0000
0000
0000
0100
0000
0001
0000
0000
0100
0000
0000
0010
0000
,
1000
0010
1000
0010
1000
0010
1000
0000
,
0100
0010
1000
0001
,
0100
0001
0100
0001
0100
0001
0100
0000
,
0010
1000
0001
0100
,
0010
1000
0010
1000
0010
1000
0010
0000
,
0100
0001
1000
0001
,
1000
0001
1000
0001
1000
0001
1000
0000
,
0010
0100
0001
1000
,
0001
0100
0001
0100
0001
0100
0001
0000
,
0010
1000
0001
0100
,
0010
1000
0010
1000
0010
1000
0010
0000
,
0100
0001
0100
0010
,
2000
3002
0203
0320
,
2030
3002
0203
0320
,
2030
3002
0203
0320
,
2030
3002
0203
0302
,
1003
0001
1000
0001
1000
0001
1000
0001
,
1000
0010
0100
0001
,
0100
0001
0100
0001
0100
0001
0100
0001
,
0100
0010
1000
0001
,
1000
0100
1000
0100
1000
0100
1000
0100
,
1000
0001
1000
0001
,
0100
0100
0000
0001
0001
0000
1000
1000
,
0000
2000
3002
2003
,
3001
1000
0001
1000
0001
1000
0001
1000
,
0001
0100
1000
0001
,
0100
0001
0100
0001
0100
0001
0100
0001
,
0100
0010
1000
0010
,
0100
0010
0100
0010
0100
0010
0100
0010
,
0100
0001
1000
0001
,
0100
1000
0100
1000
0100
1000
0100
1000
,
0100
0001
0100
0001
,
0010
0001
0010
0001
0010
0001
0010
0001
,
0010
1000
0010
0001
,
1000
0001
1000
0001
1000
0001
1000
0001
,
1000
0010
0100
0001
,
0100
0001
0100
0001
0100
0001
0100
0001
,
0100
0010
1000
0001
,
0100
0001
0100
0001
0100
0001
0100
0001
,
0100
0010
1000
0001
,
0100
0010
0001
2000
,
0000
3001
0100
0001
,
1000
0010
0100
0002
,
0000
1003
0100
0010
,
0001
1000
0010
1000
,
0001
1000
0010
1000
,
0002
0000
0000
0000
,
0000
0000
0000
0000
0003
1000
0001
1000
,
0001
1000
0010
1000
,
0001
1000
0001
1000
,
0010
1000
0010
1000
,
0010
1000
0001
1000
,
0001
1000
0001
0000
1000
0001
1000
0000
,
0001
1000
0001
0000
1000
0001
1000
0000
,
1000
0001
1000
0001
1000
0001
1000
0001
,
1000
0010
1000
0001
,
1000
0010
1000
0000
0010
0000
2020
0000
,
0000
0000
0000
0000
,
0000
3030
0202
0000
,
0000
0000
0000
0000
,
0303
2002
0000
0000
,
0000
3003
0000
1001
,
0000
0000
1001
0000
0000
0000
1000
0001
,
1000
0001
1000
0001
1000
0000
0010
0000
,
1000
0000
0001
0000
0100
0000
0001
0100
,
0001
0100
0001
0100
0001
0000
1000
0000
,
0010
0000
1000
0000
0010
0000
1000
0010
,
1000
0010
1000
0010
1000
0000
0010
0000
,
1000
0000
0010
0000
1000
0000
0100
0010
,
0100
0010
0100
0010
0100
0000
0001
0000
,
1000
0000
0001
0000
0100
0000
0001
0100
,
0001
0100
0001
0100
0001
0000
1000
0000
,
0010
1000
0010
1001
,
0000
0110
0000
0000
2002
0000
0000
0000
,
0000
3003
0000
1000
,
0001
0010
1000
0010
,
1000
0000
0000
0010
0000
0000
0001
0100
0001
0100
0000
0000
,
0010
1000
0001
0100
,
0002
0000
1003
0100
0010
1000
0010
0001
,
0010
0001
0010
0001
0010
0000
1000
0000
,
0001
0000
0100
0000
0010
0000
1000
0001
,
1000
0001
1000
0001
1000
0000
0010
0000
,
1000
0000
0001
0000
0100
0000
0010
0001
,
0010
0001
0010
0001
0010
0000
1000
0000
,
0001
0000
0100
0000
0010
0000
1000
0010
,
1000
0010
1000
0010
1000
0000
0100
0000
,
0010
0000
1000
0000
0001
0000
1000
0001
,
1000
0001
1000
0001
1000
0000
0010
0000
,
0100
0000
0001
0000
1000
0000
0100
0001
,
0100
0001
0100
0001
0100
0000
0010
0000
,
1000
0010
0100
0002
,
0000
2003
0000
3002
,
0000
0203
0000
0320
,
0000
2030
0000
0000
,
3000
0000
0000
0000
0000
0000
0100
0001
,
0100
0001
0100
0001
0100
0000
0001
0000
,
1000
0000
0010
0000
0100
0000
0010
0001
,
0010
0001
0010
0001
0010
0000
1000
0000
,
0001
0000
1000
0000
0010
0000
1000
0001
,
1000
0001
1000
0001
1000
0001
1000
0001
,
1000
0001
1000
0001
1000
0001
1000
0000
,
0000
0002
0000
2003
,
0000
0000
3002
0000
0000
0000
1003
0001
,
1000
0001
1000
0001
1000
0000
0010
0000
,
0100
0000
0001
0000
1000
0000
0001
0100
,
0001
0100
0001
0100
0001
0000
0010
0000
,
1000
0001
0100
1000
,
0001
1000
0001
1000
,
0001
1000
0001
1000
,
0001
1000
0001
1000
,
0001
1000
0001
1000
,
0000
0000
2002
0000
0000
0000
3003
0220
,
0000
0000
0000
0330
2002
0000
0000
0000
,
3003
0220
0000
0000
0000
0000
0000
0000
,
0000
0000
0000
0000
,
0000
0000
0000
0000
,
0000
0000
0000
0000
,
0000
0000
0330
0000
;

//---------------dance-single - ----------------
#NOTEDATA:;
#CHARTNAME:;
#STEPSTYPE:dance-single;
#DESCRIPTION:;
#CHARTSTYLE:;
#DIFFICULTY:Easy;
#METER:9;
#RADARVALUES:0.388996,0.477534,0.094595,0.054054,0.000000,403.000000,389.000000,14.000000,8.000000,0.000000,0.000000,0.000000,0.000000,0.000000,0.388996,0.477534,0.094595,0.054054,0.000000,403.000000,389.000000,14.000000,8.000000,0.000000,0.000000,0.000000,0.000000,0.000000;
#CREDIT:flamingosizzle;
#NOTES:
0000
0000
0000
0000
,
1000
1000
0000
0000
0001
0001
0000
0000
,
0100
0100
0000
0000
0010
0010
0000
0000
,
1000
1000
0000
0000
0001
0001
0000
0000
,
0100
0100
0000
0000
0001
0001
0000
0000
,
1000
0010
1000
0001
,
1000
0001
1000
0010
,
1000
0001
1000
0010
,
1000
0001
2000
0000
,
3001
0010
0100
1000
,
0001
1000
0001
0100
,
0010
1000
0010
1000
,
0010
0000
0100
0000
,
0001
0100
0001
0100
,
0001
0000
0010
0000
,
1000
0010
1000
0010
,
1000
0000
0100
0000
,
0001
0100
0001
0100
,
0001
0000
0010
0000
,
1000
0010
1000
0010
,
1000
0000
0100
0000
,
0001
0100
0001
0100
,
0001
0000
0010
0000
,
1000
1000
1000
1000
,
0001
0001
0001
0001
,
0100
0100
0100
0100
,
0010
0010
0010
0010
,
1000
0001
1000
0001
,
1000
0001
1000
0000
,
0001
0100
0001
0100
,
0001
0100
0001
0000
,
1000
0010
1000
0010
,
1000
0010
1000
0000
,
1000
1000
0000
0001
0001
0000
1000
1000
,
0000
0001
0010
0100
,
1000
0010
1000
0010
,
1000
0001
1000
0001
,
1000
0100
1000
0100
,
1000
0001
1000
0001
,
1000
0010
1000
0010
,
1000
0100
1000
0100
,
1000
0001
1000
0001
,
1000
0010
1000
0010
,
1000
0001
1000
0001
,
1000
0010
1000
0010
,
1000
0100
1000
0100
,
1000
0001
1000
0001
,
1000
0010
1000
0010
,
1000
0100
1000
0100
,
1000
1000
0000
0001
0001
0000
1000
1000
,
1000
0001
0100
1000
,
0001
1000
0001
1000
,
0000
0001
0010
0100
,
1000
0001
0100
0001
,
0000
1000
0001
1000
,
0010
1000
0100
1000
,
0001
1000
0100
0010
,
0002
0000
0000
0000
,
0003
0000
0000
0000
,
1000
0010
1000
0010
,
1000
0000
0010
0000
,
0100
0001
0100
0001
,
0100
0000
0010
0000
,
1000
0010
1000
0010
,
1000
0001
1000
0001
,
1000
0010
1000
0010
,
1000
0000
0000
0000
,
1001
0000
0000
1010
,
0000
0000
0000
0000
,
0000
0101
1010
0000
,
0000
0000
0000
0000
,
0110
1001
0000
0000
,
0000
0000
0000
0000
,
0000
0000
0000
1000
,
0001
1000
0001
1000
,
0001
1000
0100
0010
,
0001
1000
0001
1000
,
0100
0010
0001
1000
,
0100
0010
1000
0001
,
0100
0001
1000
0010
,
1000
0001
1000
0001
,
0100
0010
1000
0001
,
0100
0010
1000
0001
,
1000
0001
0100
1001
,
0000
1001
0000
0000
2002
0000
0000
0000
,
0000
3003
0000
1000
,
0010
1000
0100
0010
,
0001
1000
0001
1000
,
0010
1000
0001
1000
,
0010
1000
0010
0100
,
0010
0100
0010
0100
,
0000
0001
0000
1000
,
0001
1000
0001
1000
,
0000
0010
0000
1000
,
0010
1000
0010
1000
,
0000
0100
0000
0001
,
0100
0001
0100
0001
,
0000
0010
0000
1000
,
0010
1000
0010
1000
,
0000
0010
0000
0100
,
0001
0100
0001
0100
,
0000
0010
0000
1000
,
0010
1000
0010
1000
,
0000
0100
0000
0001
,
0100
0001
0100
0001
,
0000
0010
0000
1000
,
0010
1000
0010
1000
,
0000
0001
0000
0100
,
0001
0100
0001
0100
,
0000
0010
0000
1000
,
0001
1000
0001
1000
,
0001
1000
0001
1000
,
0000
0001
0000
1000
,
0000
0001
0000
1000
,
0010
1000
0010
1000
,
0000
0100
0000
0001
,
0100
0001
0100
0001
,
0000
0010
0000
2002
,
0000
0000
0000
0000
,
0000
0000
0000
0000
,
0000
0000
0000
0000
,
0000
0000
0000
3003
,
0000
0000
1001
0000
0000
0000
0000
0110
,
0000
0000
1001
0000
,
0000
0220
0000
0000
0000
0000
0000
0000
,
0000
0000
0000
0000
,
0000
0000
0000
0000
,
0000
0000
0000
0000
,
0000
0000
0330
0000
;
