#VERSION:0.83;
#TITLE:FIRE FIRE -DARK BLAZE REMIX-;
#SUBTITLE:;
#ARTIST:Yooh;
#TITLETRANSLIT:;
#SUBTITLETRANSLIT:;
#ARTISTTRANSLIT:;
#GENRE:;
#ORIGIN:;
#CREDIT:;
#BANNER:;
#BACKGROUND:;
#PREVIEWVID:;
#JACKET:;
#CDIMAGE:;
#DISCIMAGE:;
#LYRICSPATH:;
#CDTITLE:;
#MUSIC:FIRE FIRE -DARK BLAZE REMIX- .ogg;
#OFFSET:0.000000;
#SAMPLESTART:56.949001;
#SAMPLELENGTH:10.847000;
#SELECTABLE:YES;
#BPMS:0.000=177.000,
104.000=88.500,
120.000=177.000,
213.000=88.500,
221.000=177.000;
#STOPS:148.000=1.017;
#DELAYS:;
#WARPS:;
#TIMESIGNATURES:0.000=4=4;
#TICKCOUNTS:0.000=4;
#COMBOS:0.000=1;
#SPEEDS:0.000=1.000=0.000=0;
#SCROLLS:0.000=1.000;
#FAKES:;
#LABELS:0.000=Song Start;
#BGCHANGES:;
#KEYSOUNDS:;
#ATTACKS:
;

//---------------dance-single - ----------------
#NOTEDATA:;
#CHARTNAME:;
#STEPSTYPE:dance-single;
#DESCRIPTION:;
#CHARTSTYLE:;
#DIFFICULTY:Easy;
#METER:9;
#RADARVALUES:0.406523,0.483344,0.209240,0.209240,0.000000,340.000000,315.000000,25.000000,25.000000,0.000000,0.000000,0.000000,0.000000,0.000000,0.406523,0.483344,0.209240,0.209240,0.000000,340.000000,315.000000,25.000000,25.000000,0.000000,0.000000,0.000000,0.000000,0.000000;
#CREDIT:acceptablehandbag;
#NOTES:
// measure 0
0000
0000
0000
0000
,  // measure 1
0000
0000
0000
0000
,  // measure 2
1000
1000
0020
0130
,  // measure 3
0020
0130
0100
0000
,  // measure 4
0001
0001
0020
0130
,  // measure 5
0020
0130
1000
1001
,  // measure 6
0001
0001
0200
0310
,  // measure 7
1000
0100
0001
0100
,  // measure 8
0010
0010
0002
1003
,  // measure 9
0020
0000
0130
0000
,  // measure 10
1001
1000
0200
0310
,  // measure 11
0200
0310
0010
0000
,  // measure 12
0001
0001
0200
0310
,  // measure 13
0200
0310
1000
1001
,  // measure 14
0010
0100
0010
0000
,  // measure 15
1000
0001
1000
0000
,  // measure 16
1000
0010
0001
0010
,  // measure 17
0200
0000
0000
0000
0001
0301
0000
0000
,  // measure 18
2000
0010
3001
0000
,  // measure 19
0001
0010
0100
0000
,  // measure 20
1000
0001
0100
0000
,  // measure 21
0100
0000
0010
0000
1000
1000
0000
0000
,  // measure 22
0020
1000
0130
0000
,  // measure 23
1000
0100
0001
0000
,  // measure 24
0010
0100
0010
0000
,  // measure 25
0001
0000
0001
0000
1000
1000
0010
0000
,  // measure 26
0100
0000
0101
0000
0001
0010
0100
0000
,  // measure 27
0001
0100
1000
1000
0010
0100
0001
0000
,  // measure 28
0010
0000
0110
0000
0010
0001
0100
1000
,  // measure 29
0100
0000
0010
0000
1000
0001
0020
0000
,  // measure 30
0130
1000
0100
0100
,  // measure 31
1000
0010
1000
1000
,  // measure 32
0001
0010
0001
0001
,  // measure 33
0100
0001
0100
0100
,  // measure 34
1000
0100
0001
0100
,  // measure 35
1000
0100
0001
0100
,  // measure 36
0010
0010
0010
0000
0100
0100
0100
0000
,  // measure 37
2002
3003
0000
0000
0001
0000
0000
0000
1000
0000
0000
0000
0010
0000
0100
0000
,  // measure 38
0010
1000
0100
1000
,  // measure 39
0001
0100
1000
0100
,  // measure 40
0010
0000
1000
0000
0001
0000
0010
0010
,  // measure 41
0010
0000
1001
0000
1000
0000
0010
0100
,  // measure 42
0010
0001
0010
1000
,  // measure 43
0001
0010
0100
1000
,  // measure 44
1000
0000
0010
0010
0100
0000
0001
1000
,  // measure 45
0001
1001
0100
0010
,  // measure 46
0100
0000
0001
1000
0001
0000
0010
0100
,  // measure 47
0010
0001
1000
0010
,  // measure 48
0100
0000
1000
0000
0100
0000
0001
0001
,  // measure 49
0001
1001
1000
0100
,  // measure 50
0010
0000
1000
0000
0010
0000
0001
1000
,  // measure 51
0001
1001
0100
0110
,  // measure 52
1000
0001
0010
0200
,  // measure 53
0300
0000
1000
0000
1001
0000
0010
0100
,  // measure 54
1000
0000
0001
0001
1000
1000
0010
0100
,  // measure 55
0000
1001
1001
0010
,  // measure 56
0100
0001
0010
0100
,  // measure 57
1000
0000
0001
0100
0002
0000
1003
0000
,  // measure 58
0001
0100
0002
0000
1003
0000
0200
0000
,  // measure 59
0300
1001
1001
0100
,  // measure 60
0010
1000
1000
0001
,  // measure 61
0010
0000
0100
0000
1000
0001
0000
1000
,  // measure 62
0001
0000
0100
0000
0100
0000
0010
0010
,  // measure 63
0010
0000
1000
0001
1000
0000
0100
0000
,  // measure 64
0010
0000
0001
1000
0001
0000
0100
0000
,  // measure 65
0010
0000
0100
0010
0100
0000
0002
0000
,  // measure 66
1003
0200
0000
0310
,  // measure 67
0110
0000
0001
0000
1000
0000
0010
0100
,  // measure 68
0010
0000
1000
0000
0001
0000
0010
0100
,  // measure 69
0010
1000
0010
0001
,  // measure 70
0100
1000
0100
0001
,  // measure 71
0010
0110
0000
1001
,  // measure 72
0000
1010
1010
0202
,  // measure 73
0303
1000
1000
0001
,  // measure 74
0010
0001
0001
1000
,  // measure 75
0010
0000
0100
0001
0100
0000
0001
1000
,  // measure 76
0100
1001
1001
1001
,  // measure 77
0100
0000
0000
0000
;

//---------------dance-single - ----------------
#NOTEDATA:;
#CHARTNAME:;
#STEPSTYPE:dance-single;
#DESCRIPTION:;
#CHARTSTYLE:;
#DIFFICULTY:Medium;
#METER:13;
#RADARVALUES:0.618155,0.741128,0.200870,0.117174,0.213425,517.000000,493.000000,24.000000,14.000000,0.000000,0.000000,0.000000,0.000000,0.000000,0.618155,0.741128,0.200870,0.117174,0.213425,517.000000,493.000000,24.000000,14.000000,0.000000,0.000000,0.000000,0.000000,0.000000;
#CREDIT:acceptablehandbag;
#NOTES:
0000
0000
0000
0000
,
0000
0000
0000
0000
,
0001
0000
0000
0001
0000
0000
0100
0000
0100
0000
0000
0010
0000
0000
1000
0000
,
1000
0000
0000
0100
0000
0000
0010
0000
0001
0000
1000
0000
0001
0000
0000
0000
,
1000
0000
0000
1000
0000
0000
0010
0000
0010
0000
0000
0100
0000
0000
0001
0000
,
0001
0000
0000
1000
0000
0000
0100
0000
0001
0000
0100
0000
0100
0000
0000
0000
,
0010
0000
0000
0010
0000
0000
0001
0000
0001
0000
0000
1000
0000
0000
0010
0000
,
1000
0100
0001
0100
0020
0000
0031
0000
,
1000
0000
0000
1000
0000
0000
0010
0000
0010
0000
0000
0100
0000
0000
0001
0000
,
1000
0000
0001
0000
0010
0100
0000
0010
0000
0100
1000
0000
0001
0000
0100
0000
,
0010
0000
0000
0010
0000
0000
1000
0000
1000
0000
0000
0001
0000
0000
0010
0000
,
0010
0000
0000
0100
0000
0000
1000
0000
0001
0000
1000
0000
0010
0000
0000
0000
,
0100
0000
0000
0100
0000
0000
0001
0000
0001
0000
0000
1000
0000
0000
0100
0000
,
0100
0000
0000
0010
0000
0000
0001
0000
1000
0000
1000
0000
0001
0000
0000
0000
,
0100
0000
0100
0000
0000
0100
0000
0000
0100
0000
0000
0100
0000
0000
0100
0000
,
0010
0000
0010
0000
0000
0010
0000
0000
0010
0000
0000
0010
0000
0000
0010
0000
,
1000
0100
0001
0100
0020
0000
0031
0000
,
2000
0000
0000
0000
0010
3010
0000
0000
,
0010
1010
0100
0101
,
1000
1100
0010
0011
,
1000
0001
0100
0010
2000
3000
0020
0030
,
1000
0001
0010
0100
0001
0100
1000
0000
,
0001
0011
0100
1100
,
0010
1001
0100
1010
,
0001
0100
1000
0100
0001
0100
1000
0000
,
1000
0100
0010
0000
0010
1000
0200
0000
,
0310
0000
0001
0000
0101
0000
0010
0000
1000
0001
1000
0000
0100
0000
0000
0000
,
1000
0000
0000
0000
0001
0000
0000
0000
0101
0000
0000
0000
0000
0000
0000
0000
0010
0000
0000
0100
0000
0000
0100
0000
1001
0000
0000
0000
0000
0000
0000
0000
,
1000
0000
0010
0000
1010
0000
0100
0000
0001
1000
0001
0010
0100
0100
1000
0000
,
0001
0000
0100
0000
1000
0000
0100
0000
0010
1000
0100
0010
0002
0000
0003
0000
,
1000
0000
1000
0000
0001
0010
0100
0000
,
1000
0000
1000
0000
0001
0010
0100
0000
,
1001
0000
1000
0000
0010
0100
0001
0000
,
1000
0000
1000
0000
0010
0100
0001
0000
,
1000
0010
0001
0000
1000
0100
0001
0000
,
1000
0100
0001
0000
1000
0010
0001
0000
,
1000
1000
0010
0010
0100
0100
0001
0001
,
0020
0030
0000
0000
0010
0000
0100
0000
1000
0000
0001
0000
1000
0000
0010
0000
,
0100
0000
0100
1000
0100
0001
0010
0100
,
1000
0000
0001
0100
0001
0000
1000
0001
,
1000
0100
0010
0100
1000
0001
0100
0100
,
0100
0000
0010
0100
0001
1000
0001
0010
,
0100
0000
0001
0100
1000
0010
0100
1000
,
0100
0001
1000
0001
0100
0000
0100
0010
,
1000
0100
0010
0010
0001
1000
0010
0010
,
0100
0000
0100
0010
1000
0001
0010
0100
,
1000
0001
0100
1000
0100
0010
1000
0001
,
0010
0100
0001
0100
1000
0000
1000
0010
,
0100
0000
0001
1000
0001
0100
0010
0010
,
0010
0010
0100
0001
1000
0100
0010
0001
,
1000
0010
0001
0010
0100
0001
1000
0100
,
0001
0100
0010
0001
1000
0000
1000
0010
,
0100
0000
0100
0010
1000
0001
0020
0000
,
0030
0000
0001
1001
0000
1100
0000
1001
,
0000
0000
0000
0000
0101
0000
0000
0000
0100
0000
0010
0000
0010
0000
0100
0000
0010
0000
0010
0000
0100
0000
0010
0000
1000
0000
0000
0001
0000
0000
1000
0000
,
0200
0000
0300
0000
1000
0000
0000
0001
0000
0000
1000
0000
0010
0000
0000
0100
,
0000
0001
0010
0100
1000
1000
0001
0001
,
0100
0000
0010
1000
0100
0001
0100
0000
,
0010
0001
0100
1000
0100
0000
0100
0001
,
0020
0000
0000
0000
0130
0000
0000
1000
0000
0000
0001
0000
0100
0000
0000
0010
,
0000
0000
0100
0000
0001
0000
0001
0000
1000
0000
0100
0010
0000
0100
0010
0000
,
0001
0000
1000
0010
1000
0001
0010
0001
,
1000
0000
0010
0000
0100
0000
1000
0000
0100
0000
1000
0000
0100
0000
0010
0100
,
0010
0000
0000
0000
0010
0000
0000
0010
1000
0000
0001
0000
1000
0000
0000
0100
,
0000
0010
0001
1000
1000
0010
0100
0100
,
0001
0000
1000
0010
0001
0010
0100
0001
,
1000
0010
0002
0000
0203
0000
1300
0000
,
1001
0000
0000
0000
0001
0000
0000
0001
0100
0000
0010
0000
1000
0000
1000
0000
,
0001
0000
0000
0000
1000
0000
0000
1000
0100
0000
0010
0000
0001
0000
0001
0000
,
1000
0000
0001
0100
1000
0001
0010
0100
,
0001
1000
0100
0001
0100
0010
0001
0100
,
1000
0100
0010
0000
1010
0000
0001
0000
,
0011
0000
0010
0001
0100
1000
0200
0000
,
0300
0000
0000
0000
0010
0000
0000
0010
0100
0000
0001
0000
1000
0000
0000
1000
,
0100
0000
0010
0000
0001
0000
0000
0010
0001
0000
1000
0000
0010
0000
0100
0000
,
0010
0000
0010
0001
0010
0001
0010
1000
,
0010
1000
1001
0000
1001
0000
1001
0000
,
0110
0000
0000
0000
;

//---------------dance-single - ----------------
#NOTEDATA:;
#CHARTNAME:;
#STEPSTYPE:dance-single;
#DESCRIPTION:;
#CHARTSTYLE:;
#DIFFICULTY:Hard;
#METER:16;
#RADARVALUES:0.845330,1.192250,0.242718,0.133914,0.778373,707.000000,678.000000,29.000000,16.000000,0.000000,0.000000,0.000000,0.000000,0.000000,0.845330,1.192250,0.242718,0.133914,0.778373,707.000000,678.000000,29.000000,16.000000,0.000000,0.000000,0.000000,0.000000,0.000000;
#CREDIT:acceptablehandbag;
#NOTES:
0000
0000
0000
0000
,
0000
0000
0000
0000
,
1001
0000
0000
1000
0010
0000
0100
0000
0002
0000
0000
1003
0000
0000
0001
0010
,
0002
0000
0000
1003
0000
0000
0100
0000
0000
0000
0110
0000
1001
0000
0000
0000
,
0001
0000
0000
0001
0010
0000
0100
0000
2000
0000
0000
3001
0000
0000
1000
0010
,
2000
0000
0000
3001
0000
0000
0100
0010
0100
0000
0010
1000
0001
0000
0000
0000
,
1000
0000
0000
1000
0100
0000
0010
0000
0002
0000
0000
1003
0000
0000
0010
0100
,
0010
0100
1000
0100
0002
0000
1003
0000
,
0001
0000
0000
0001
0100
0000
0010
0000
2000
0000
0000
3001
0000
0000
1000
0100
,
0010
0000
0010
0000
0001
1000
0000
0001
0000
0100
0001
0100
0001
0000
0000
0000
,
1000
0000
0000
1000
0010
0000
0100
0000
0010
0000
0000
0010
1000
0000
0001
0010
,
0001
0000
0000
0001
1000
0000
0100
0000
1000
0000
1001
0000
0110
0000
0000
0000
,
0100
0000
0000
0100
0001
0000
1000
0000
0001
0000
0000
0001
0010
0000
0100
1000
,
0100
0000
0000
0100
1000
0000
0001
1000
0001
0000
1000
0010
0100
0000
0000
0000
,
0100
0000
0100
0000
0000
1001
0000
0000
0101
0000
0000
1001
0000
0000
1000
0000
,
0100
0000
0100
0000
0000
1001
0000
0000
1100
0000
0000
1001
0000
0000
1000
0000
,
0010
0001
0010
0100
0001
1000
0100
0000
,
2000
0000
0000
0000
0001
3001
0000
0000
,
1000
0100
1000
0100
0010
0000
0100
0000
0010
0000
0001
0000
1000
0000
0000
0000
,
0010
0000
0001
0000
0010
0000
0100
0001
1000
0000
0100
0000
0010
0000
0000
0000
,
0001
1000
0001
0000
1000
0000
0010
0000
0200
0000
0300
0000
0020
0000
0030
0000
,
1000
0001
0010
0100
0001
0001
0100
1000
,
0001
1000
0001
1000
0010
0000
1000
0000
0010
0000
0100
0000
0001
0000
0000
0000
,
0100
0000
1000
0100
1000
0000
0100
0000
0010
0000
1000
0000
0001
0000
0000
0000
,
1000
0100
1000
0000
0001
0010
0001
0000
1000
0000
0010
0000
0100
0000
0000
0000
,
0100
0000
0100
0000
0001
0000
0000
0000
1000
0000
1000
0100
0002
0000
0000
0000
,
0103
0000
0000
0000
0110
0000
0000
0000
0010
0000
0001
0000
1000
0000
0000
0000
0010
0000
0100
0001
0000
0100
0001
0000
1000
0000
0000
0000
0001
0000
0000
0000
,
0010
0000
0100
0000
0001
0000
0100
0010
0001
0000
0000
0000
1000
0000
0000
0000
0010
0000
0000
0100
0000
0000
0010
0000
1010
0000
0001
0100
0001
0000
0000
0000
,
1000
0000
0000
0000
1001
0000
0000
0000
0001
0000
0010
0000
0010
0000
0000
0000
0100
0000
0100
0000
0001
0000
0100
0000
1000
0001
1000
0001
1000
0000
0000
0000
,
0010
0000
0100
0000
1000
0000
0001
0000
0010
0000
1000
0000
0100
0000
0010
0000
0001
1000
0001
1000
0010
0100
0010
0100
0002
0000
0000
0000
0003
0000
0000
0000
,
1000
0100
1000
0000
0010
0000
0100
0000
0001
0000
1000
0000
0010
0000
0100
0000
,
0001
0010
0001
0000
0010
0000
0100
0000
1000
0000
0001
0000
0100
0000
0000
0000
,
0001
0100
0001
0000
0010
0000
0100
0000
1000
0000
0001
0000
0010
0000
0100
0000
,
1000
0010
1000
0000
0010
0000
0100
0000
0001
0000
1000
0000
0100
0000
0000
0000
,
1000
0000
0001
0010
0100
0000
1000
0000
0001
0000
1000
0100
0010
0000
0001
0000
,
1000
0000
0001
0100
0010
0000
1000
0000
0001
0000
0100
0010
1000
0000
0001
0000
,
0100
0010
0100
0000
0010
0100
0010
0000
1000
0001
1000
0001
1000
0001
1000
0001
,
0020
0030
0000
0000
0010
0100
1000
0000
0010
0000
0100
0010
0100
0000
0001
0000
,
1000
0000
0100
0010
0100
0000
0001
0000
0100
0000
0010
0001
1000
0000
0010
0000
,
0100
0000
0000
0000
0100
0010
0100
0010
1000
0000
0000
0000
0001
0000
0010
0000
,
1000
0010
0100
1000
0001
0100
0110
1001
,
0101
0000
0000
0000
0100
0010
1000
0000
0001
0000
0010
0100
1000
0000
0001
0000
,
1000
0000
0010
0000
0001
0000
0010
0100
0010
0000
1000
0000
0001
0010
0001
0000
,
1000
0000
0000
0000
0010
0100
0001
1000
0001
0000
0000
0000
0010
0000
0100
0001
,
0100
0000
0010
0000
0001
1000
0001
0000
1000
0010
0100
0000
0001
1000
0001
0000
,
0010
0000
0100
0000
1000
0001
1000
0010
0100
0000
0001
0000
1000
0000
0100
0000
,
0001
0000
0100
0010
0001
0000
0100
0000
1000
0000
0100
0010
0100
0000
0001
0000
,
1000
0000
0000
0000
0001
0010
0001
0010
0100
0000
0000
0000
0100
0000
0001
0000
,
0100
0000
1000
0000
0001
0100
0001
0000
1000
0000
0010
0000
0100
0000
0100
0000
,
0100
0000
0100
0000
0001
1000
0001
0010
0100
0000
1000
0000
0010
0000
1000
0000
,
0001
0000
0100
0000
1000
0000
0100
0010
0100
0000
0001
0000
1000
0001
1000
0001
,
0010
0100
1000
1000
0001
0001
0100
0100
,
0010
0000
0010
0000
1000
0001
1000
0100
0001
0000
0100
0010
0200
0000
0000
0000
,
0300
0000
1000
1100
0001
0101
1000
1010
,
0001
0000
0000
0000
0011
0000
0000
0000
1000
0000
0001
0000
0001
0000
0010
0000
0100
0000
0100
0000
1000
0000
0001
0000
0100
0000
0000
0100
0000
0000
0100
0000
,
0020
0000
0030
0000
1000
0000
0000
1000
0010
0000
1000
0000
0001
0000
0000
0011
,
0000
0000
1000
0001
1000
0000
0010
0100
0010
0000
1000
0010
0100
0000
0010
1000
,
0100
0000
0000
0000
0010
0000
0001
1000
0001
0000
0100
0000
1000
0000
0100
0000
,
0010
0000
1000
0001
1000
0000
0100
0000
0001
0000
0100
0000
0010
0001
0010
0001
,
1000
0000
0000
0000
0010
0000
0000
0010
0100
0000
0001
0000
1000
0000
0000
1100
,
0000
0000
0100
0010
0100
0000
1000
0001
1000
0000
0010
0001
0000
0010
1000
0000
,
0001
0000
0000
0000
1000
0010
0100
0000
0001
0000
1000
0010
0100
0000
0001
0000
,
1000
0010
0100
0000
0001
1000
0001
1000
0001
1000
0001
1000
0100
0000
0100
0010
,
0001
0000
0000
0000
1000
0000
0000
1000
0010
0000
0100
0010
0100
0000
0000
1001
,
0000
0000
0001
0010
0100
0000
1000
0001
1000
0000
0010
0100
0001
0000
0100
0001
,
0010
0000
0000
0000
0100
0000
1000
0001
1000
0000
0010
0000
0001
0000
0010
0000
,
0100
0000
0001
1000
0001
0000
0010
0000
0100
0000
1000
0000
0001
0000
0001
0000
,
0101
0000
0000
0000
1000
0010
1000
0010
0000
0000
0100
0010
1000
0000
0001
0000
,
0011
0000
0000
0000
0001
0010
0001
0010
0000
0000
0100
0010
0001
0000
0001
1000
,
0010
0000
0000
0000
0100
0001
0100
0001
1000
0000
0100
0010
0001
0000
1000
0001
,
0100
0000
1000
0100
0001
0000
0100
0010
0100
0000
0001
1000
0100
0000
0001
0000
,
0100
1000
0010
0000
0101
0000
0010
0000
,
1100
0000
1000
0100
0001
0010
2000
0000
,
3000
0000
0000
0000
0001
0000
0001
0000
1000
0010
0000
0100
0000
0100
0000
0001
,
0010
0000
0100
0000
1000
0000
1000
0000
0001
0100
0000
0010
0000
0010
0000
1000
,
0100
0000
0010
0000
0001
1000
0001
1000
0001
1000
0001
1000
0010
0100
0010
0100
,
0010
0100
0010
0100
0001
0000
0000
0000
1000
0000
0000
0000
0001
0000
0000
0000
,
1100
0000
0000
0000
;

//---------------dance-single - ----------------
#NOTEDATA:;
#CHARTNAME:;
#STEPSTYPE:dance-single;
#DESCRIPTION:;
#CHARTSTYLE:;
#DIFFICULTY:Challenge;
#METER:18;
#RADARVALUES:1.064135,1.578925,0.108805,0.192501,1.452126,890.000000,877.000000,13.000000,23.000000,0.000000,0.000000,0.000000,0.000000,0.000000,1.064135,1.578925,0.108805,0.192501,1.452126,890.000000,877.000000,13.000000,23.000000,0.000000,0.000000,0.000000,0.000000,0.000000;
#CREDIT:acceptablehandbag;
#NOTES:
0000
0000
0000
0000
,
0000
0000
0000
0000
,
0001
0000
0000
0001
0100
0000
0010
0000
0020
0000
0000
0130
0000
0000
0001
1000
,
0002
0000
0000
1003
0000
0000
0100
0010
0001
0000
1000
0001
1000
0000
0000
0000
,
1000
0000
0000
1000
0100
0000
0010
0000
0020
0000
0000
0130
0000
0000
1000
0001
,
2000
0000
0000
3010
0000
0000
0010
0100
0001
0000
1000
0100
0010
0000
0010
0000
,
0001
0000
0000
0001
1000
0000
0010
0000
0020
0000
0000
1030
0000
0000
0001
1000
,
0100
0000
0001
0000
0001
0000
0100
0000
1000
0001
1000
0001
0100
0000
0000
0000
,
0010
0000
0000
0010
1000
0000
0001
0000
0002
0000
0000
1003
0000
0000
0100
0010
,
0001
0000
1000
0000
1000
0010
0000
0100
0000
0100
0010
0100
0001
1000
0001
1000
,
0100
0000
0000
0100
0010
0000
0001
0000
1000
0000
0000
1000
0010
0000
0100
0010
,
0100
0000
0000
0100
0001
0000
1000
0100
1000
0000
0001
0010
0100
0000
0000
0000
,
0010
0000
0000
0010
0001
0000
1000
0000
0010
0000
0000
0010
0100
0000
0001
1000
,
0001
0000
0000
0001
0010
0000
0100
1000
0001
0000
1000
0010
0100
0000
0000
0000
,
0100
0000
0100
0000
0000
1001
0000
0000
1100
0000
0000
0110
0000
0000
1000
0001
,
0100
0000
0100
0000
0000
1001
0000
0000
0101
0000
0000
0110
0000
0000
0010
0100
,
0001
1000
0001
1000
0100
0010
0001
1000
0010
0100
0010
0100
0001
1000
0001
0010
,
0200
0000
0000
0000
0010
0310
0000
0000
,
0001
1000
0010
0100
0001
0000
1000
0100
1000
0000
0100
0000
0010
0000
0001
1000
,
0010
0000
0001
0000
0010
0000
0100
0001
1000
0000
0100
0000
0010
0000
0001
0000
,
1000
0010
0100
0000
1000
0000
0100
0000
0002
0000
0003
0000
2000
0000
3000
0000
,
0001
0010
0001
0010
0100
0000
1000
0000
0010
0000
0010
0000
0100
0000
0001
0000
,
1000
0100
0010
0001
1000
0000
0010
0100
0001
0000
1000
0000
0010
0000
0100
0010
,
0001
0000
0010
0100
0010
0000
1000
0000
0001
0000
0010
0000
1000
0000
0010
0100
,
1000
0001
1000
0010
1000
0001
1000
0010
1000
0010
0100
0001
1000
0010
0000
0010
,
0100
0000
0100
0000
0002
0000
0000
0000
1003
0000
0010
0100
0020
0000
0000
0000
,
1030
0000
0000
0000
0000
0000
0001
0000
0000
0000
0000
0000
1000
0000
0000
0000
0000
0000
0001
0000
0000
0000
0000
0000
0010
0000
0000
0000
0000
0000
0000
0000
0000
0000
0000
0000
0100
0000
0000
0000
0000
0000
1000
0000
0000
0000
0000
0000
0001
0000
0000
0000
0000
0000
0000
0000
0000
0000
0000
0000
1000
0000
0000
0000
0000
0000
0000
0000
0000
0000
0000
0000
0010
0000
0000
0000
0000
0000
0000
0000
0000
0000
0000
0000
0100
0000
0000
0000
0000
0000
0001
0000
0000
0000
0000
0000
1000
0000
0000
0000
0000
0000
0000
0000
0000
0000
0000
0000
0100
0000
0000
0000
0000
0000
0010
0000
0000
0000
0000
0000
0000
0000
0000
0000
0000
0000
0100
0000
0000
0000
0000
0000
0010
0000
0000
0000
0000
0000
0000
0000
0000
0000
0000
0000
0001
0000
0000
0000
0000
0000
0000
0000
1000
0000
0000
0000
0000
0000
0000
0000
0001
0000
0000
0000
0000
0000
0000
0000
0200
0000
0000
0000
0000
0000
0000
0000
0000
0000
0000
0000
0000
0000
0000
0000
0000
0000
0000
0000
0000
0000
0000
0000
,
0310
1000
0010
0100
0001
0000
0010
0100
2000
0000
3000
0000
0002
0000
0003
0000
0100
0000
0000
0100
0000
0000
0100
0000
0010
0000
1000
0001
1000
0000
0000
0000
,
0100
0010
0001
1000
0001
0000
0100
0010
0100
0000
0100
0000
0001
0010
0001
0010
1000
0000
1000
0000
0010
0100
0010
0100
1000
0001
1000
0001
0100
0000
0000
0000
,
0010
1000
0100
0010
0001
0000
0100
0010
0100
0000
0000
0000
0001
0010
0001
1000
0010
0100
0001
1000
0100
0010
0001
1000
0020
0000
0000
0000
0030
0000
0000
0000
,
0010
0100
0010
1000
0001
0000
1000
0100
0010
0000
1000
0000
0010
0000
0001
1000
,
0100
0010
0100
1000
0001
0000
1000
0010
0100
0000
1000
0000
0100
0000
0001
1000
,
0010
0100
0010
1000
0001
0000
1000
0100
0010
0000
1000
0000
0010
0000
0001
1000
,
0100
0010
0100
1000
0001
0000
1000
0010
0100
0000
1000
0000
0100
0000
0001
1000
,
0010
0100
0010
0100
0002
0000
1003
0000
0100
0010
0100
0010
0002
0000
1003
0000
,
0010
0100
0010
0100
0002
0000
1003
0000
0100
0010
0100
0010
0002
0000
1003
0000
,
0010
0100
0001
0000
0010
0100
0001
0000
1000
0001
1000
0001
0010
0100
0010
0100
,
2000
3000
0000
0000
1000
0001
0100
0010
1000
0000
0001
1000
0001
0000
0010
0000
,
0100
0000
1000
0010
0100
0000
1000
0000
0100
0000
0001
1000
0001
0000
0010
0000
,
0100
1000
0000
1000
0001
0100
0001
0100
1000
0000
0100
0010
1000
0000
0100
0000
,
0001
0000
0100
0000
0010
0001
1000
0001
0100
0010
1000
0001
0010
0000
1000
0010
,
0100
0000
1000
0000
0001
1000
0010
0100
0001
0000
1000
0001
1000
0000
0100
0000
,
0010
0000
0001
1000
0010
0100
0010
0100
1000
0000
0100
0000
0001
1000
0001
0000
,
0010
0000
0100
1000
0001
1000
0001
0100
1000
0000
0100
0000
0010
0000
1000
0001
,
0010
0000
1000
0000
0010
0100
1000
0001
1000
0010
0100
0001
1000
0100
1000
0100
,
0001
0000
0100
0000
0010
0001
1000
0001
0100
0010
0100
0010
1000
0000
0100
0000
,
0001
0000
0100
0010
0001
0000
1000
0000
0010
0000
0100
1000
0100
0000
0010
0000
,
1000
0001
0000
0001
0010
0100
0010
0100
1000
0000
0010
0100
0001
0000
0100
0000
,
1000
0000
0100
0000
0010
1000
0001
1000
0100
0010
0001
1000
0010
0000
0010
0000
,
0010
0000
0010
0000
0100
0010
0100
0001
1000
0100
0010
0001
1000
0000
0010
0000
,
0001
0000
0010
0100
1000
0000
0100
0010
0100
0000
0001
0000
1000
0100
0010
0001
,
0100
0010
0100
0010
1000
0001
1000
0100
0010
0000
0001
1000
0001
0100
1000
0100
,
0010
1000
0100
0010
0001
1000
0010
0100
2000
0000
3100
0001
1000
0000
0001
0000
,
0010
0000
0000
0000
0000
0000
0000
0000
0100
1000
0001
0100
0010
0000
0100
0010
0100
0000
0001
0000
1000
0000
0100
0010
1000
0000
0010
0100
1000
0000
0001
0000
,
1000
0010
1000
0010
0100
0001
0100
0001
1000
0000
0100
0000
0100
0000
0001
0000
0100
0000
0100
0000
1000
0000
0001
0000
0101
0000
0000
0110
0000
0000
0101
0000
,
0001
0000
1000
0000
0100
0000
0010
0000
0000
0000
0000
0000
0001
0000
0000
1000
0000
0000
0000
0000
0000
1000
0000
0000
0100
0000
0000
0000
0000
0000
0010
0000
0000
0000
0000
0000
0001
0000
0000
1000
0000
0000
0000
0000
0000
1000
0000
0000
,
0010
0000
0100
0000
0001
0100
0010
0100
1000
0000
0100
0010
1000
0000
0100
0010
,
0001
0000
1000
0000
0010
0000
0100
0001
1000
0000
0100
0000
0001
0000
0100
0000
,
0010
0000
0100
1000
0001
0000
0100
0000
1000
0000
0100
0000
0010
1000
0100
0010
,
0002
0000
0000
0000
1003
0010
0000
0010
0100
0000
0001
1000
0001
0010
0000
0010
,
0100
0000
1000
0001
1000
0000
0010
0100
0001
0000
1000
0100
0000
1000
0100
0000
,
0001
0000
0100
0010
0001
0000
1000
0010
1000
0000
0001
0000
1000
0010
1000
0000
,
0001
0000
0100
1000
0100
1000
0100
1000
0100
0010
0100
0010
1000
0000
0100
0010
,
0001
0000
1000
0000
0010
0100
0001
1000
0001
0000
0010
0100
1000
0000
0001
0000
,
1000
0000
0010
0100
0010
0100
0001
1000
0001
0000
0010
0100
1000
0000
0001
0000
,
1000
0000
0010
0100
1000
0000
0100
0010
1000
0000
0100
0000
0010
0000
0100
0000
,
0001
0000
0100
0010
0001
0000
1000
0000
0010
0100
0010
1000
0001
0010
0100
1000
,
0001
0000
0000
0000
1000
0010
0100
0010
0001
0000
0010
0100
0001
0000
0010
0000
,
0100
0000
1000
0001
1000
0010
0100
0010
0001
0000
0010
0100
0001
0000
0001
0010
,
0100
0000
1000
0000
0001
0100
0001
0100
1000
0000
0100
0010
1000
0001
0010
1000
,
0010
0100
1000
0001
1000
0010
0001
0010
0100
0001
0010
0100
1000
0001
1000
0001
,
0100
0010
0100
0010
1000
0001
1000
0100
0010
0000
0001
1000
0001
0100
0010
0100
,
0001
0010
0100
0010
0001
1000
0010
0100
1000
0000
0100
0010
1000
0000
1000
0000
,
0002
0000
0003
0000
1000
0000
1000
0000
0001
0010
0000
1000
0000
1000
0000
0010
,
0100
0010
0001
1000
0001
0000
0001
0000
1000
0010
0000
0001
0000
0001
0000
0010
,
0100
0010
1000
0001
1000
0100
1000
0001
0100
0010
0100
0001
1000
0100
0010
0001
,
1000
0010
0100
0001
1001
0000
0000
0000
1001
0000
0000
0000
1001
0000
0000
0000
,
0110
0000
0000
0000
;
