#VERSION:0.83;
#TITLE:Ether Strike;
#SUBTITLE:;
#ARTIST:Akira Complex;
#TITLETRANSLIT:;
#SUBTITLETRANSLIT:;
#ARTISTTRANSLIT:;
#GENRE:;
#ORIGIN:;
#CREDIT:;
#BANNER:;
#BACKGROUND:;
#PREVIEWVID:;
#JACKET:;
#CDIMAGE:;
#DISCIMAGE:;
#LYRICSPATH:;
#CDTITLE:;
#MUSIC:Ether Strike.ogg;
#OFFSET:0.796000;
#SAMPLESTART:111.511002;
#SAMPLELENGTH:15.000000;
#SELECTABLE:YES;
#BPMS:0.000=156.000;
#STOPS:;
#DELAYS:;
#WARPS:;
#TIMESIGNATURES:0.000=4=4;
#TICKCOUNTS:0.000=4;
#COMBOS:0.000=1;
#SPEEDS:0.000=1.000=0.000=0;
#SCROLLS:0.000=1.000;
#FAKES:;
#LABELS:0.000=Song Start;
#BGCHANGES:;
#KEYSOUNDS:;
#ATTACKS:
;

//---------------dance-single - ----------------
#NOTEDATA:;
#CHARTNAME:;
#STEPSTYPE:dance-single;
#DESCRIPTION:;
#CHARTSTYLE:;
#DIFFICULTY:Easy;
#METER:9;
#RADARVALUES:0.377883,0.450396,0.257369,0.436097,0.121535,370.000000,334.000000,36.000000,61.000000,0.000000,0.000000,0.000000,0.000000,0.000000,0.377883,0.450396,0.257369,0.436097,0.121535,370.000000,334.000000,36.000000,61.000000,0.000000,0.000000,0.000000,0.000000,0.000000;
#CREDIT:sneakmayor;
#NOTES:
0000
0000
0000
0000
,
0000
0000
0000
0000
,
0000
0000
0000
0000
,
0000
0000
0000
0000
,
0000
0000
0020
0030
,
2002
0000
0000
0000
,
0000
0000
0000
3003
,
0220
0000
0000
0000
0000
0000
0000
0330
,
0000
0000
1000
0000
0000
1000
0000
0000
0001
0000
0000
0001
0000
0000
0100
0000
,
0010
1000
0010
1000
,
0001
0010
0001
0010
,
0100
1000
0100
1000
,
0001
0100
0220
0330
,
1000
0000
0000
1000
0000
0000
1000
0000
0000
0100
0000
0000
0010
0000
0000
0010
,
0000
0000
0010
0000
0000
0001
0000
0000
0100
0000
0000
0100
0000
0000
0100
0000
,
0010
1000
0001
0000
0010
0001
1000
0000
,
0100
0010
0100
0010
0000
0000
0000
0000
,
1001
0001
0100
0010
,
1001
1000
0100
0010
,
1001
0001
0100
0010
,
1001
0000
0000
0000
1000
0000
0100
0000
0010
0000
0000
0010
0000
0000
0000
0000
,
0110
0001
0100
0010
,
0110
1000
0100
0010
,
0110
0000
0001
0000
0110
0000
1000
1000
,
0000
0000
0001
0000
0000
0010
0000
0000
1000
0000
0000
0010
0000
0000
0001
0000
,
1000
0000
0100
0000
0010
0001
0010
0000
,
1001
0000
0000
0000
0001
0000
0000
0000
0100
0000
0000
0100
0000
0000
0010
0000
,
0000
0010
0000
0000
1000
0000
0000
0000
0100
0000
0010
0000
0100
0000
0000
0000
,
1001
0000
0000
0000
1000
0000
0000
0000
0010
0000
0000
0010
0000
0000
0010
0000
,
0100
0000
0001
0000
0010
0001
0010
0000
,
1001
0000
0100
0000
1000
0010
1000
0000
,
1002
0000
0103
0000
2001
0000
3100
0010
,
0000
0000
0001
0000
0000
0100
0000
0000
1000
0000
0000
0100
0000
0000
0001
0000
,
1000
0000
0010
1000
0010
0000
1000
0000
,
1100
0000
0010
0001
0010
0000
0001
0000
,
0101
0000
0010
1000
0010
0000
1000
0000
,
1100
0010
0220
0330
,
0001
0000
0000
0001
0000
0000
0001
0000
0000
0010
0000
0000
0100
0000
0000
0100
,
0000
0000
0100
0000
0000
1000
0000
0000
0010
0000
0000
0010
0000
0000
0010
0000
,
0100
0001
1000
0000
0100
1000
0001
0000
,
0100
0010
0100
0010
0200
0000
0310
0000
,
2002
0000
0000
0000
,
0000
0000
0000
3003
,
0220
0000
0000
0000
,
0000
0000
0000
0330
,
0202
0000
0000
0000
,
0000
0000
0000
0303
,
2020
0000
0000
3030
,
1000
0000
0000
1000
0000
0000
0001
0000
0000
0001
0000
0000
0010
0000
0000
0000
,
0200
0000
0000
0000
,
0000
0000
0000
0000
,
0320
0000
0000
0000
,
0000
0030
2002
3003
,
1000
0000
0000
0010
0000
0000
1000
0000
0000
0010
0000
0000
0100
0000
0000
0001
,
0000
0000
0100
0000
0001
0000
0000
0000
1000
0000
0000
0001
0000
0000
1000
0000
,
0100
0010
0001
0000
0100
0010
1000
0000
,
0001
1000
0001
1000
0000
0000
0000
0000
,
0120
0000
0000
0000
1030
0100
2000
0000
,
0010
0100
3002
0010
,
0203
0000
0000
0000
0301
1000
0020
0000
,
0001
0000
0000
0000
1000
0000
0000
0000
0130
0000
0000
0100
0000
0000
0100
0000
,
0002
0000
0000
0000
0013
0100
0020
0000
,
0001
1000
0230
0010
,
2300
0000
0000
0000
3001
0100
0002
0000
,
1000
0000
0013
0000
0220
0000
0330
0100
,
0020
0000
0000
0000
0031
0100
0002
0000
,
1000
0010
2003
0010
,
3200
0000
0000
0000
1300
0001
0020
0000
,
1000
0000
0000
0000
0001
0000
0000
0000
0130
0000
0000
0100
0000
0000
0100
0000
,
2000
0000
0000
0000
3010
0100
0020
0000
,
0001
1000
0230
0010
,
0302
0000
0000
0000
1003
0100
0020
0000
,
0000
0200
0000
0330
,
0001
0010
0100
0000
1000
0001
0010
0000
,
0100
1000
0001
0000
0100
0000
0110
0000
,
0002
0100
2003
0100
,
3010
0000
0000
0000
0110
0000
0000
0000
0100
0000
0000
0100
0000
0000
0100
0000
,
0010
1000
0100
0000
0010
0001
1000
0000
,
0010
0100
0001
0000
1000
0000
0100
0000
,
0220
0330
2002
3003
,
1000
0000
0000
1000
0000
0000
0001
0000
0000
0001
0000
0000
1001
0000
0000
0000
,
1000
0001
0100
0000
0010
0100
0001
0000
,
1000
0100
0010
0000
0100
0000
0110
0000
,
2000
0100
3002
0100
,
0013
0000
0000
0000
0110
0000
0000
0000
0100
0000
0000
0100
0000
0000
0100
0000
,
0010
0001
1000
0000
0100
1000
0010
0000
,
0100
0001
1000
0000
0100
0000
0010
0000
,
0220
0330
2002
3003
,
0010
0000
0010
0000
0000
0100
0000
0000
0010
0000
0000
0100
0000
0000
0002
0000
,
2000
0000
0000
0000
,
3003
0000
0000
0000
;

//---------------dance-single - ----------------
#NOTEDATA:;
#CHARTNAME:;
#STEPSTYPE:dance-single;
#DESCRIPTION:;
#CHARTSTYLE:;
#DIFFICULTY:Medium;
#METER:12;
#RADARVALUES:0.546398,0.643422,0.364606,0.293115,0.336010,535.000000,484.000000,51.000000,41.000000,0.000000,0.000000,0.000000,0.000000,0.000000,0.546398,0.643422,0.364606,0.293115,0.336010,535.000000,484.000000,51.000000,41.000000,0.000000,0.000000,0.000000,0.000000,0.000000;
#CREDIT:sneakmayor;
#NOTES:
// measure 0
0000
0000
0000
0000
,  // measure 1
0000
0000
0000
0000
,  // measure 2
0000
0000
0000
0000
,  // measure 3
0000
0000
0000
0000
,  // measure 4
0000
0000
0020
0030
,  // measure 5
2002
0000
0000
0000
,  // measure 6
0000
0000
0000
0000
0000
0000
0000
0000
3003
0000
0000
0100
0000
0010
0000
0000
,  // measure 7
0220
0000
0000
0000
0030
0000
0000
0320
,  // measure 8
0000
0000
1030
0000
0000
1100
0000
0000
0010
0000
0000
0011
0000
0000
0001
0000
,  // measure 9
1000
0100
1000
0100
,  // measure 10
0110
0000
0001
0000
0100
0000
0001
0100
,  // measure 11
0110
1000
0100
1000
,  // measure 12
0110
0000
0001
0000
1002
0000
0103
0010
,  // measure 13
0100
0000
0000
0110
0000
0000
0001
0000
0000
0010
0000
0000
0110
0000
0000
1000
,  // measure 14
0000
0000
0010
0000
0000
0110
0000
0000
0001
0000
0000
0010
0000
0000
0100
0000
,  // measure 15
1000
0010
1000
0010
0100
0001
0100
0001
,  // measure 16
1000
0001
1000
0000
0001
1000
0001
0000
0000
0000
0000
0000
0000
0000
0000
0000
,  // measure 17
0110
0000
0001
0100
0001
0010
0001
0100
,  // measure 18
0010
0000
1000
0100
1000
0010
1000
0100
,  // measure 19
0010
0000
0001
1000
0010
1000
0001
1000
,  // measure 20
0010
0000
0000
0000
0100
0000
0001
0000
0010
0100
0000
0010
0100
0000
0000
0000
,  // measure 21
1001
0000
1000
0100
1000
0001
1000
0100
,  // measure 22
0010
0000
0001
0100
0001
1000
0001
0100
,  // measure 23
0010
0000
1000
0001
0010
0100
0100
0100
,  // measure 24
0000
0000
0010
0000
0000
0110
0000
0000
0100
0000
0000
0110
0000
0000
0010
0000
,  // measure 25
1001
0000
0001
0100
1000
0100
0001
0100
,  // measure 26
0010
0000
0000
0000
1000
0000
0100
0000
0010
0001
0000
0010
0001
0000
0001
0000
,  // measure 27
0000
1001
0000
0000
1000
0000
0010
0000
0001
0000
0010
0000
1000
0000
0010
0000
,  // measure 28
0100
0000
0000
0000
0001
0000
0010
0000
1001
0000
0000
0001
0000
0000
1001
0000
,  // measure 29
1000
0000
0010
0001
0010
0100
1000
0100
,  // measure 30
0001
0000
0010
1000
0010
0100
0001
0100
,  // measure 31
1000
0000
0010
0100
0001
1000
1000
1000
,  // measure 32
0000
0000
0010
0000
0000
1010
0000
0000
0100
0000
0000
0101
0000
0000
0001
0000
,  // measure 33
1000
0000
0100
1000
0010
0001
0010
0100
,  // measure 34
0001
0000
0010
0100
0001
0100
0010
0001
,  // measure 35
1000
0000
0010
0100
1000
0100
0010
1000
,  // measure 36
0001
0000
0010
0100
0020
0000
0130
0000
,  // measure 37
1000
0000
0000
1100
0000
0000
0010
0000
0000
0001
0000
0000
0101
0000
0000
0010
,  // measure 38
0000
0000
1000
0000
0000
1100
0000
0000
0010
0000
0000
0001
0000
0000
0101
0000
,  // measure 39
0010
1000
0010
0001
0010
0100
0010
1000
,  // measure 40
0100
0010
0100
0000
0010
0100
0010
0000
0001
1000
0000
1000
0000
1000
0000
0000
,  // measure 41
0220
0000
0000
0000
,  // measure 42
0000
0000
0000
0000
0000
0000
0000
0000
0330
0000
0000
0000
0000
0010
0000
0000
,  // measure 43
2002
0000
0000
0000
,  // measure 44
0000
0000
0000
3003
,  // measure 45
2020
0000
0000
0000
,  // measure 46
0000
0000
0000
0000
0030
0000
0000
0000
0000
0000
0000
0100
0000
3100
0000
0000
,  // measure 47
0022
0000
0000
0030
,  // measure 48
0103
0000
0000
0110
0000
0000
0010
0000
0000
0110
0000
0000
0001
1000
0000
0000
,  // measure 49
0002
0000
0000
0000
,  // measure 50
0000
0000
0000
0000
,  // measure 51
2003
0000
0000
0000
,  // measure 52
0000
0000
0000
0000
3200
0000
0310
0010
,  // measure 53
0001
0000
0000
0100
0000
0000
1010
0000
0000
1000
0000
0000
0100
0000
0000
0011
,  // measure 54
0000
0000
0001
0000
0000
0100
0000
0000
1010
0000
0000
1000
0000
0000
0100
0000
,  // measure 55
0010
0001
0100
0010
1000
0100
0010
0001
,  // measure 56
1000
0001
1000
0000
0001
1000
0001
0000
0000
0000
0000
0000
0000
0000
0000
0000
,  // measure 57
0100
0010
0100
0000
0010
0000
0100
0000
0010
0000
1000
0000
0001
1000
0001
0000
,  // measure 58
1000
0001
1000
0001
0020
0000
0230
0000
,  // measure 59
1300
0010
1000
0000
0010
0000
1000
0000
0010
0000
0100
0000
0001
0010
0001
0000
,  // measure 60
0010
0000
0001
0000
0010
0000
0001
0000
0010
0000
0000
0110
0000
0000
1000
0000
,  // measure 61
0001
0100
0001
0000
0100
0000
0001
0000
0100
0000
0010
0000
1000
0100
1000
0000
,  // measure 62
0100
1000
0100
1000
0020
0000
0230
0000
,  // measure 63
0301
0010
0001
0000
0100
0000
0001
0000
0010
0000
0001
0000
1000
0010
1000
0000
,  // measure 64
0100
0000
1000
0000
0010
0000
1000
0000
0200
0000
0000
0000
0000
0320
0000
0000
,  // measure 65
0031
1000
0001
0000
1000
0000
0001
0000
1000
0000
0010
0000
0100
0010
0100
0000
,  // measure 66
0010
0100
0010
0100
0002
0000
2003
0000
,  // measure 67
3100
0010
0100
0000
0010
0000
0001
0000
1000
0000
0010
0000
0100
0010
0100
0000
,  // measure 68
0010
0000
1000
0000
0100
0000
0010
0000
0001
0000
0000
1001
0000
0000
1000
0000
,  // measure 69
0010
1000
0010
0000
1000
0000
0010
0000
1000
0000
0100
0000
0010
0001
0010
0000
,  // measure 70
0001
0010
0001
0010
0002
0000
0203
0000
,  // measure 71
0310
0100
0010
0000
0100
0000
0001
0000
0010
0000
0100
0000
2000
0000
0000
0000
,  // measure 72
0000
0002
0000
3003
,  // measure 73
1000
0010
0000
1000
0000
0000
0001
0000
0100
0000
0000
0001
0000
0000
0010
0000
,  // measure 74
0001
0100
0000
0001
0000
0000
0010
0000
0001
0000
0000
1000
0000
0000
0100
0000
,  // measure 75
1000
0010
1000
0010
0100
0001
0100
0001
,  // measure 76
1001
0000
0000
0000
1001
0000
0000
1000
0100
0000
0000
0100
0000
0000
0100
0000
,  // measure 77
0010
0001
0000
0010
0000
0000
0100
0000
1000
0000
0000
0001
0000
0000
0100
0000
,  // measure 78
0010
1000
0000
0010
0000
0000
0100
0000
0001
0000
0000
1000
0000
0000
0100
0000
,  // measure 79
0220
0330
2002
3003
,  // measure 80
0001
0000
0000
0011
0000
0000
0101
0000
0000
1001
0000
0000
1000
0000
0100
0000
,  // measure 81
0010
0001
0000
0100
0000
0000
0010
0000
0001
0000
0000
0010
0000
0000
1000
0000
,  // measure 82
0100
1000
0000
0010
0000
0000
1000
0000
0100
0000
0000
0001
0000
0000
0100
0000
,  // measure 83
1000
0001
0100
0001
1000
0100
1000
0010
,  // measure 84
0110
0000
0000
0000
0110
0000
0000
0001
1000
0000
0000
1000
0000
0000
1000
0000
,  // measure 85
0010
0100
0000
0010
0000
0000
0001
0000
0010
0000
0000
0100
0000
0000
0010
0000
,  // measure 86
1000
0100
0000
0010
0000
0000
0100
0000
0001
0000
0000
0100
0000
0000
1000
0000
,  // measure 87
2020
3030
0202
0303
,  // measure 88
1000
0000
1100
0000
0000
1010
0000
0000
1100
0000
0000
0110
0000
0000
0002
0000
,  // measure 89
2000
0000
0000
0000
,  // measure 90
3003
0000
0000
0000
;

//---------------dance-single - ----------------
#NOTEDATA:;
#CHARTNAME:;
#STEPSTYPE:dance-single;
#DESCRIPTION:;
#CHARTSTYLE:;
#DIFFICULTY:Hard;
#METER:16;
#RADARVALUES:0.785384,0.900791,0.564782,0.193027,0.983006,769.000000,690.000000,79.000000,27.000000,0.000000,0.000000,0.000000,0.000000,0.000000,0.785384,0.900791,0.564782,0.193027,0.983006,769.000000,690.000000,79.000000,27.000000,0.000000,0.000000,0.000000,0.000000,0.000000;
#CREDIT:sneakmayor;
#NOTES:
0000
0000
0000
0000
,
0000
0000
0000
0000
,
0000
0000
0000
0000
,
0000
0000
0000
0000
,
0000
0000
0020
0030
,
2002
0000
0000
0000
,
0000
0000
0000
0000
0000
0000
0000
0000
3003
0000
0000
0110
0000
0001
1000
0010
,
0200
0000
0000
0000
0000
0000
0000
0320
,
0000
0000
1030
0000
0000
1100
0000
0000
0101
0000
0000
1100
0000
0000
0001
0000
,
0100
0100
0100
0100
,
1001
0000
0000
0000
0100
0000
0000
0000
0100
0000
0000
0000
0001
0100
0010
1000
,
0100
0100
0100
0100
,
1001
0000
0000
0000
0100
0000
0000
0000
0210
0000
0000
0000
0310
0000
0010
0100
,
0010
0000
0000
0001
0000
0000
0101
0000
0000
1010
0000
0000
1000
0000
0000
1100
,
0000
0000
0011
0000
0000
0001
0000
0000
0101
0000
0000
1010
0000
0000
1000
0000
,
0100
0010
0100
0000
1000
0010
1000
0000
0001
0100
0001
0000
0010
0100
0010
0000
,
0001
0100
0010
1000
0001
0100
0010
1000
0000
0000
0000
0000
0000
0000
0000
0000
,
0110
0000
0000
0000
1000
0010
1000
0000
0001
0100
0001
0000
1000
0100
1000
0000
,
0101
0000
0000
0000
0001
0010
0001
0000
1000
0100
1000
0000
0001
0100
0001
0000
,
1010
0000
0000
0000
1000
0100
1000
0000
0001
0010
0001
0000
1000
0010
1000
0000
,
0101
0000
0000
0000
1000
0100
0010
0100
0010
0001
0000
0100
0001
0010
0000
0000
,
0110
0000
0000
0000
1000
0010
0100
0000
0001
0010
0100
0000
1000
0010
0100
0010
,
0100
0000
0000
0000
0001
0100
0010
0000
1000
0100
0010
0000
0001
0100
0010
0100
,
0010
0000
0000
0000
1000
0010
1000
0000
0100
0000
1000
0010
1000
0100
1000
0010
,
0000
0000
0101
0000
0000
0011
0000
0000
0101
0000
0000
0011
0000
0000
1000
0000
,
0100
0000
0000
0000
0001
0100
1000
0000
1000
0100
0010
0000
0001
1000
0010
1000
,
0001
0000
0000
0000
0100
0010
0100
0010
1000
0100
1000
0010
1000
0100
0010
0000
,
0000
0001
0100
0000
1000
0100
0001
0000
0001
0100
0010
0000
1000
0001
0010
0001
,
1000
0000
0000
0000
0010
0100
0010
0100
0001
0010
0000
0001
0100
0000
0010
0000
,
0110
0000
0000
0000
1000
0100
1000
0001
0100
0010
0100
0010
1000
0100
1000
0000
,
0011
0000
0000
0000
0001
0100
0001
1000
0100
0010
0100
0010
0001
0100
0001
0000
,
1010
0000
0000
0000
0001
0010
0001
0000
0100
0000
0001
0010
0001
0100
0001
0010
,
0000
0000
1100
0000
0000
1010
0000
0000
1100
0000
0001
0100
0010
1000
0001
0100
,
0010
0000
0000
0000
1000
0100
1000
0000
0100
0001
0100
0000
0010
0001
0010
0000
,
1100
0000
0000
0000
0001
0100
0001
0000
0100
1000
0100
0000
0010
1000
0010
0000
,
0101
0000
0000
0000
1000
0100
1000
0000
0100
0010
0100
0000
0010
0001
0010
0000
,
1001
0000
0000
0000
1000
0010
0100
0001
0200
0000
0000
0000
0310
0000
0000
0000
,
1000
0000
0000
1100
0000
0000
0101
0000
0000
1010
0000
0000
0001
0000
0000
0011
,
0000
0000
1010
0000
0000
0101
0000
0000
1000
0000
0000
1100
0000
0000
0101
0000
,
0010
1000
0100
0000
0010
0001
0100
0000
0001
1000
0100
0000
1000
0001
0100
0000
,
0010
1000
0010
1000
0001
0100
0001
0100
0010
1000
0000
1100
0000
0011
0000
0000
,
2002
0000
0000
0000
,
0000
0000
0000
0000
0000
0000
0000
0000
3003
0000
1000
0001
0100
0010
0000
0000
,
0220
0000
0000
0000
,
0000
0000
0000
0330
,
2020
0000
0000
0000
,
0000
0000
0000
0000
0000
0000
0000
0000
3030
0000
0000
0101
0000
0001
0010
0001
,
0200
0000
0000
0000
,
0310
0000
0000
1001
0000
0000
0110
0000
0000
1001
0000
0000
1000
0100
0000
0000
,
0020
0000
0000
0000
,
0000
0000
0000
0000
,
0230
0000
0000
0000
,
0000
0000
0000
0000
0300
0000
0000
0000
2001
0000
0000
0000
3010
0000
0010
0100
,
0010
0000
0000
0101
0000
0000
0110
0000
0000
1010
0000
0000
1100
0000
0000
0110
,
0000
0000
0011
0000
0000
0101
0000
0000
0110
0000
0000
1010
0000
0000
0001
0000
,
1000
0100
0010
0000
0001
0100
0010
0000
0100
0001
1000
0000
0100
1000
0001
0000
,
0100
0010
0100
0010
0100
0010
0100
0010
0000
0000
0000
0000
0000
0000
0000
0000
,
1000
0100
1000
0100
1000
0100
1000
0100
0010
0000
0001
0000
1000
0010
1000
0010
,
1000
0010
1000
0010
1000
0010
1000
0010
0100
0000
0001
0000
1000
0000
0100
0000
,
0010
0001
0010
0001
0010
0001
0010
0001
0010
0000
0001
0000
0100
0001
0100
0001
,
0100
0001
0100
0001
0100
0001
0100
0001
0100
0000
0000
0110
0000
0000
0110
0000
,
1000
0010
1000
0001
0010
0001
1000
0010
1000
0000
0001
0000
0100
0010
0100
0001
,
1000
0001
0100
0010
0100
0001
1000
0001
0100
0000
0010
0000
1000
0000
0001
0000
,
0010
0100
0010
0100
0010
0100
0010
0100
0010
0000
0001
0000
0100
0010
0100
0010
,
0100
0010
0100
0010
1000
0001
1000
0001
0020
0000
0000
0000
0000
0230
0000
0000
,
1300
0100
1000
0001
1000
0100
1000
0001
1000
0000
0010
0000
0100
0001
1000
0001
,
0100
0001
1000
0001
0100
0001
1000
0001
0100
0000
0010
0000
1000
0000
0001
0000
,
1000
0100
0010
0001
1000
0100
0010
0001
1000
0000
0010
0000
0100
0001
1000
0010
,
0100
0001
1000
0010
0100
0001
1000
0010
0100
0000
0000
0110
0000
0000
0110
0000
,
0001
0010
0001
0100
0001
0010
0001
0100
0001
0000
0010
0000
0100
1000
0010
1000
,
0100
1000
0010
1000
0100
1000
0010
1000
0100
0000
0010
0000
0001
0000
0100
0000
,
0001
0010
0001
1000
0010
1000
0001
0010
0001
0000
1000
0000
0020
0000
0000
0000
,
0000
0200
0000
0330
,
0001
0100
0000
0010
0000
1000
0100
0000
1000
0010
0000
0100
0000
0001
0010
0000
,
0100
1000
0000
0010
0000
1000
0100
0000
0010
0001
0000
0100
0000
0001
0010
0000
,
0100
1000
0100
0000
1000
0000
0010
0000
0100
0001
0100
0000
0010
0000
1000
0000
,
1001
0000
0000
0000
1001
0000
0001
0010
0100
0000
0000
0100
0000
0000
0100
0000
,
1000
0010
0000
0100
0000
0001
0010
0000
0001
0100
0000
0010
0000
1000
0100
0000
,
0010
0001
0000
0100
0000
0001
0010
0000
0100
1000
0000
0010
0000
1000
0100
0000
,
0012
0000
0000
0000
0103
0000
0000
0000
2010
0000
0000
0000
3100
0010
0100
0010
,
0100
0000
0000
0011
0000
0000
0101
0000
0000
1010
0000
0000
1100
0000
0010
0000
,
0001
0100
0000
0010
0000
0100
0001
0000
0010
0100
0000
0001
0000
0100
1000
0000
,
0001
0100
0000
0010
0000
0001
0010
0000
0100
0001
0000
0010
0000
0100
1000
0000
,
0010
0001
0010
0000
0100
0000
0001
0000
0010
1000
0010
0000
0100
0000
1000
0000
,
1010
0000
0000
0000
0011
0000
0001
0100
0010
0000
0000
0010
0000
0000
0010
0000
,
1000
0100
0000
0010
0000
0100
1000
0000
0010
0100
0000
1000
0000
0100
0001
0000
,
1000
0100
0000
0010
0000
1000
0010
0000
0100
1000
0000
0010
0000
0100
0001
0000
,
1002
0000
0000
0000
0103
0000
0000
0000
2001
0000
0000
0000
3100
0010
0100
0010
,
0100
0000
0011
0000
0000
0101
0000
0000
1100
0000
0000
1010
0000
0000
0002
0000
,
2000
0000
0000
0000
,
3003
0000
0000
0000
;
