#VERSION:0.83;
#TITLE:Double Dribble;
#SUBTITLE:;
#ARTIST:lapix;
#TITLETRANSLIT:;
#SUBTITLETRANSLIT:;
#ARTISTTRANSLIT:;
#GENRE:;
#ORIGIN:;
#CREDIT:;
#BANNER:;
#BACKGROUND:;
#PREVIEWVID:;
#JACKET:;
#CDIMAGE:;
#DISCIMAGE:;
#LYRICSPATH:;
#CDTITLE:;
#MUSIC:Double Dribble.ogg;
#OFFSET:0.345714;
#SAMPLESTART:1.908000;
#SAMPLELENGTH:18.285715;
#SELECTABLE:YES;
#BPMS:0.000=105.000,
148.000=210.000,
208.000=105.000,
218.000=210.000,
234.000=420.000,
282.000=105.000;
#STOPS:257.000=1.143;
#DELAYS:;
#WARPS:;
#TIMESIGNATURES:0.000=4=4;
#TICKCOUNTS:0.000=4;
#COMBOS:0.000=1;
#SPEEDS:0.000=1.000=0.000=0;
#SCROLLS:0.000=1.000;
#FAKES:;
#LABELS:0.000=Song Start;
#BGCHANGES:;
#KEYSOUNDS:;
#ATTACKS:
;

//---------------dance-single - ----------------
#NOTEDATA:;
#CHARTNAME:;
#STEPSTYPE:dance-single;
#DESCRIPTION:;
#CHARTSTYLE:;
#DIFFICULTY:Hard;
#METER:16;
#RADARVALUES:0.653240,0.977892,0.637499,0.228240,0.582407,581.000000,500.000000,81.000000,29.000000,0.000000,0.000000,0.000000,0.000000,0.000000,0.653240,0.977892,0.637499,0.228240,0.582407,581.000000,500.000000,81.000000,29.000000,0.000000,0.000000,0.000000,0.000000,0.000000;
#CREDIT:anusindication;
#NOTES:
// measure 0
0000
0000
0000
0000
,  // measure 1
0000
0000
0000
0000
,  // measure 2
0000
0000
0000
0000
,  // measure 3
0000
0000
0000
0000
0000
0000
0000
0000
0000
0000
1001
0000
0000
0101
0000
0000
,  // measure 4
1001
0000
0000
0000
0000
1000
0100
0010
0001
0001
0010
0100
0010
0010
0100
1000
,  // measure 5
0001
0001
0100
0010
0000
0001
0000
0010
0000
1000
0100
0000
0000
0010
0001
0010
,  // measure 6
0100
0100
0010
0001
0000
1000
0000
0100
0000
0001
0100
0000
0000
0010
0001
0000
,  // measure 7
1000
0100
0001
0100
0000
0000
0010
0000
0000
0000
1100
0000
0000
0011
0000
0000
,  // measure 8
1002
0000
0000
0000
0003
0100
0010
1000
0001
0001
0010
0100
1000
1000
0100
0010
,  // measure 9
0002
0103
2000
3100
,  // measure 10
0002
0103
2000
3100
,  // measure 11
1000
1010
0000
1100
0000
0110
0000
1100
0000
1010
0000
0101
0000
0011
0000
2002
,  // measure 12
0000
0000
3000
0003
,  // measure 13
1010
0000
0000
0001
0000
0010
0000
0100
1100
0000
0000
0100
0000
0010
0000
0001
,  // measure 14
1001
0000
0000
0001
0000
0100
0000
0010
0110
0000
0000
0010
0000
1000
0000
0100
,  // measure 15
0110
0000
0000
0001
0000
1000
0000
0010
1010
0000
0000
0010
0000
0100
0000
0001
,  // measure 16
0011
0000
0100
0010
0100
0010
0001
0000
1001
0000
1001
0000
1000
0001
0020
0000
,  // measure 17
0031
0000
0000
0000
0100
0000
0000
0000
0010
0000
0000
0000
1000
0000
0000
0000
0100
0000
0000
0000
0010
0100
0010
0000
0001
0000
1000
0000
0200
0000
0000
0000
,  // measure 18
0310
0001
0010
0100
0010
0001
0000
0000
,  // measure 19
0011
0000
0000
0000
0110
0000
0000
0000
0011
0000
0000
0000
1000
0000
0000
0000
0001
0000
0000
0000
1000
0001
1000
0000
0010
0000
1000
0000
0100
0000
0000
0000
,  // measure 20
0010
0000
0100
0100
1000
0001
0100
0001
1000
0000
0100
0000
0020
0000
0000
0000
,  // measure 21
0031
0000
0001
0000
0000
1000
0000
0010
0000
0100
0100
0000
0000
0000
0000
0000
,  // measure 22
0010
0000
1000
0000
0000
0001
0000
0001
0000
0010
0010
0000
0000
0000
0000
0000
,  // measure 23
0100
0000
0000
0000
0010
0000
0000
0000
0000
0000
0001
0010
0001
0010
0001
0010
0001
0000
0100
0000
1000
0000
0100
0000
0001
0000
0010
0000
1000
0000
0010
0000
,  // measure 24
0001
0100
0001
0100
0010
0100
0010
1000
0100
1000
0001
1000
0001
0100
0010
0000
0000
0000
0000
0000
0000
0000
0000
0000
0000
0000
0000
0000
0000
0000
0000
0000
,  // measure 25
1001
0000
0000
0011
0000
1100
0000
0001
0100
0000
0000
0110
0000
1010
0000
1000
,  // measure 26
0100
0000
0000
0110
0000
1100
0000
0010
0002
0000
1000
0000
1003
0000
0000
0000
,  // measure 27
0110
0000
0100
0001
0000
0010
0100
0100
1000
0000
0001
0000
1000
0000
0001
0000
,  // measure 28
0100
0000
0010
1000
0010
0100
0001
0010
0100
0000
0010
0000
0110
0000
0000
0000
,  // measure 29
1000
0000
0001
0100
0002
0000
0000
0000
0000
0000
0000
0000
0000
0000
0013
0100
,  // measure 30
0010
0000
0001
0010
0002
0000
0000
0000
0000
0000
0000
0000
0000
0000
0000
0000
,  // measure 31
0103
0010
1000
0000
0100
0000
0200
0000
0000
0000
0000
0000
0310
0001
0010
0100
,  // measure 32
1000
0000
0010
0000
0100
0000
0010
0000
1000
0000
0001
0000
0010
0000
0100
0000
0010
0100
0010
0000
0100
0000
1000
0000
0001
1000
0001
0000
1000
0000
0100
0000
,  // measure 33
0020
0031
0200
0310
,  // measure 34
2000
3001
0002
0103
0200
0310
0020
1030
,  // measure 35
0001
0100
0000
0101
0000
1010
0000
1100
0000
0110
0000
0011
0000
1001
0000
0220
,  // measure 36
0000
0000
0000
0330
,  // measure 37
1001
1001
1001
1001
,  // measure 38
1001
0000
1001
0000
1001
0001
0010
0100
,  // measure 39
1001
1001
1001
1001
,  // measure 40
1001
0000
1001
0000
1001
1000
0100
0010
,  // measure 41
0011
0011
0011
0011
,  // measure 42
0011
0000
0011
0000
0011
0001
1000
0001
,  // measure 43
0011
0011
0011
0011
,  // measure 44
0011
0001
0000
1000
0100
1000
0000
0001
,  // measure 45
0100
0010
0100
0010
0100
0010
0100
0010
,  // measure 46
1000
0001
0010
0001
1000
0100
0000
0100
,  // measure 47
1000
0000
0001
0100
0001
0100
0001
0100
,  // measure 48
0001
0011
0000
0101
0000
2001
0000
0000
,  // measure 49
3010
1000
0010
1000
0001
0100
0001
0100
,  // measure 50
0001
0010
0001
0010
0100
1000
0100
1000
,  // measure 51
0001
1000
0001
1000
0001
1000
0001
1000
0001
1000
0001
1000
0001
1000
0001
0000
,  // measure 52
1000
0000
0200
0000
0000
0000
0000
0000
0310
0000
0000
0110
0000
1100
0000
1000
,  // measure 53
0010
0000
0000
0000
0100
0010
0100
0000
0010
0000
1000
0000
0002
0000
0000
0000
0013
0000
0000
0000
0000
0000
0110
0000
0000
0000
0011
0000
0000
0000
0001
0000
,  // measure 54
1000
1010
1010
0100
1001
1000
0001
1000
,  // measure 55
0001
0010
0100
1000
0001
1000
0001
1000
,  // measure 56
0001
0010
0001
1000
0100
0010
0100
1000
,  // measure 57
0001
0000
0000
0000
0101
0000
0000
0000
1010
0000
0000
0000
0200
0000
0320
0030
,  // measure 58
0200
0300
0200
0300
0001
0000
0010
0000
,  // measure 59
0001
0010
0100
1000
,  // measure 60
0100
1000
0010
0100
,  // measure 61
0001
1000
0010
0100
,  // measure 62
0001
1000
0001
1000
,  // measure 63
0100
1000
0001
0100
,  // measure 64
0001
0000
1000
0000
0001
1000
0001
1000
,  // measure 65
0001
1000
0001
1000
0001
1000
0001
1000
,  // measure 66
0001
1000
0001
0100
0001
1000
0001
1000
,  // measure 67
0001
1000
0001
1000
0001
1000
0001
0100
,  // measure 68
0001
0100
0001
1000
0001
1000
0001
0100
,  // measure 69
0001
0100
0001
0010
0100
1000
0010
0100
,  // measure 70
0001
0010
0100
0000
0010
0100
0010
0000
,  // measure 71
1001
0000
0000
0000
;

//---------------dance-single - ----------------
#NOTEDATA:;
#CHARTNAME:;
#STEPSTYPE:dance-single;
#DESCRIPTION:;
#CHARTSTYLE:;
#DIFFICULTY:Medium;
#METER:13;
#RADARVALUES:0.477843,0.698494,0.330555,0.086574,0.318750,425.000000,383.000000,42.000000,11.000000,0.000000,0.000000,0.000000,0.000000,0.000000,0.477843,0.698494,0.330555,0.086574,0.318750,425.000000,383.000000,42.000000,11.000000,0.000000,0.000000,0.000000,0.000000,0.000000;
#CREDIT:anusindication;
#NOTES:
0000
0000
0000
0000
,
0000
0000
0000
0000
,
0000
0000
0000
0000
,
0000
0000
0000
0000
0000
0000
0000
0000
0000
0000
1000
0000
0000
0100
0000
0000
,
0011
0000
0000
0000
0010
0001
0100
0010
,
1000
0010
0100
0010
0000
1000
0000
0001
0000
0010
0100
0000
0000
0010
0100
1000
,
0001
0100
0010
1000
0000
0001
0000
1000
0000
0100
0010
0000
0000
0010
0100
0000
,
1000
1000
0001
1000
0000
0000
0001
0000
0000
0000
1010
0000
0000
0011
0000
0000
,
1010
0000
0000
0000
0000
1000
0010
0100
0001
0010
0001
0100
0010
0100
0001
1000
,
0100
1000
0010
0001
,
0100
1000
0100
0001
,
1000
0001
0000
0010
0000
0001
0000
0100
0000
0010
0000
1000
0000
0001
0000
2002
,
0000
0000
0003
3000
,
0101
0011
1100
1010
,
0101
0011
1001
1100
,
1001
1010
0011
0101
,
1001
0000
0000
0000
1010
0000
0000
0000
0101
0000
0101
0000
1000
0001
0020
0000
,
0130
0000
0000
0000
1100
0000
0000
0000
0011
0000
0001
0100
0001
0100
0010
0000
,
1010
0000
1100
0000
1010
0100
0100
0000
,
1010
0110
1010
0000
1100
0000
0110
0010
,
0011
0001
0100
1000
0010
0001
1000
0000
,
0001
0000
0100
0000
0000
0001
0000
0100
0000
0001
0100
0000
0000
0000
0000
0000
,
0010
0000
1000
0000
0000
0010
0000
1000
0000
0010
1000
0000
0000
0000
0000
0000
,
0001
0000
1000
0000
0001
0010
0100
1000
0010
0001
0010
1000
0100
1000
0001
0000
,
1000
0100
0010
0001
1000
0100
0010
0001
0000
0000
0000
0000
0000
0000
0000
0000
,
1000
0100
0000
0001
0100
1000
0010
0000
,
0100
0010
1000
0000
1001
0110
1001
0000
,
1000
0000
0100
1000
0000
1000
0100
0010
0001
0000
0010
0000
0001
0000
0000
0000
,
0100
0000
0001
0000
0010
0100
1000
0000
,
0001
0000
1000
0010
0200
0000
0000
0000
0000
0000
0000
0000
0300
0000
0010
1000
,
0001
0000
0010
0001
2000
0000
0000
0000
0000
0000
0000
0000
3000
0000
0000
0000
,
0001
1000
0001
0000
1000
0000
0020
0000
0000
0000
0000
0000
0130
0001
0010
0001
,
1000
0100
0010
0000
0100
0010
0001
1000
0010
0010
1000
0001
0010
0010
0001
1000
,
0001
0100
1000
0100
,
0001
0010
0001
1000
,
0001
1000
0000
0010
0000
1000
0000
0001
0000
0010
0000
0100
0000
0010
0000
0022
,
0000
0000
0000
0033
,
1000
1000
1000
1000
,
1000
0000
1000
0000
1000
0100
0010
0100
,
1000
1000
1000
1000
,
1000
0000
1000
0000
1000
0100
0010
0001
,
0100
0100
0100
0100
,
0100
0000
0100
0000
0100
0010
1000
0001
,
0100
0100
0100
0100
,
0010
1000
0000
1000
0001
0010
0000
0010
,
0001
1000
0001
0000
1000
0000
0100
0000
,
1000
0000
0010
0000
0100
0001
0000
0010
,
0100
0000
0010
0001
0100
0000
0010
0000
,
1000
0001
0000
0010
0100
0000
1000
0000
,
0010
0100
0010
0000
1000
0010
1000
0000
,
0001
0100
0001
0000
0010
0001
0010
0000
,
0100
0010
0001
0010
0100
1000
0100
0010
,
0001
0000
0200
0000
0000
0000
0000
0000
0310
0000
0000
1010
0000
0101
0000
0001
,
0010
0000
0001
0010
1000
0010
0001
0000
1001
0000
0000
0101
0000
1100
0000
0001
,
0100
0010
0010
0000
1000
0000
0010
0000
,
1000
0001
0010
0100
,
0010
0000
0001
0000
0100
0000
0010
1000
,
0001
0010
0100
0000
0010
0000
0010
0001
,
2000
3000
2000
3000
0001
0000
0100
0000
,
0000
0010
1000
0001
,
0000
0010
0100
1000
,
0000
0100
1000
0010
,
0000
0100
0001
0010
,
0000
0100
0010
0001
,
0000
0100
0010
1000
,
0010
1000
0001
0100
,
0001
0100
0010
1000
,
0010
1000
0001
0100
,
0001
0100
0010
1000
,
0001
0100
0010
1000
,
0001
0000
0100
0000
0010
1000
0100
0000
,
1001
0000
0000
0000
;

//---------------dance-single - ----------------
#NOTEDATA:;
#CHARTNAME:;
#STEPSTYPE:dance-single;
#DESCRIPTION:;
#CHARTSTYLE:;
#DIFFICULTY:Easy;
#METER:9;
#RADARVALUES:0.290079,0.447036,0.039352,0.094444,0.118055,258.000000,253.000000,5.000000,12.000000,0.000000,0.000000,0.000000,0.000000,0.000000,0.290079,0.447036,0.039352,0.094444,0.118055,258.000000,253.000000,5.000000,12.000000,0.000000,0.000000,0.000000,0.000000,0.000000;
#CREDIT:anusindication;
#NOTES:
0000
0000
0000
0000
,
0000
0000
0000
0000
,
0000
0000
0000
0000
,
0000
0000
0000
0000
,
0000
0000
0000
0000
,
1000
0000
0000
0001
0000
0010
0000
0100
0000
0000
0000
0000
0010
0000
0000
0000
,
0001
0000
0000
1000
0000
0010
0000
1000
0000
0000
0000
0000
0010
0000
0000
0000
,
1000
0000
0000
0000
0001
0000
0000
0000
0000
0000
0010
0000
0000
0001
0000
0000
,
0100
0000
0010
1000
,
0002
1003
2000
3010
,
0020
0130
0200
0301
,
1000
0001
0000
1000
0000
0001
0000
1000
0000
0001
0000
1000
0000
0001
0000
0020
,
0000
0000
0000
0030
,
0100
0010
0001
0100
,
0010
1000
0001
0010
,
0001
1000
0010
1000
,
0001
0000
1000
0000
0010
0010
1000
0100
,
0010
0001
0100
0010
,
1000
0100
0010
0000
,
0100
0100
0100
0000
1000
0000
0010
0000
,
0100
0000
0001
0000
1000
0001
1000
0000
,
0001
0000
1000
0000
0000
0001
0000
1000
0000
0001
1000
0000
0000
0000
0000
0000
,
0001
0000
1000
0000
0000
0001
0000
1000
0000
0001
1000
0000
0000
0000
0000
0000
,
0001
0000
1000
0000
0000
0001
0100
0000
0010
0000
1000
0000
0010
0000
0100
0000
,
0001
0010
1000
0010
0001
1000
0001
0000
,
1000
0001
0000
1000
1000
0001
0100
0000
,
0001
0010
0100
0000
1001
0010
0010
0000
,
1000
0100
1000
0001
0100
0001
0010
0001
,
1000
0100
0010
0001
,
1000
0001
0200
0000
0000
0000
0300
0000
,
0001
1000
0020
0000
0000
0000
0030
0000
,
1000
0001
0010
0020
0000
0000
0030
0000
,
0200
0000
0000
0000
1300
0100
1000
0100
,
0010
0001
0100
0010
,
1000
0010
0100
0001
,
1000
0001
0000
1000
0000
0001
0000
1000
0000
0001
0000
1000
0000
0001
0000
0200
,
0000
0000
0000
0300
,
0010
1000
0010
1000
,
0010
1000
0010
0000
,
0100
0001
0100
0001
,
0100
0001
0100
0000
,
0001
1000
0001
1000
,
0001
1000
0001
0000
,
0010
0001
0010
0001
,
0010
0000
0000
0000
,
0100
1000
0100
1000
,
0100
0010
0100
0010
,
0001
0010
0001
0010
,
0001
1000
0001
1000
,
0001
0100
0001
0100
,
0010
0100
0010
0100
,
0010
0010
0010
0010
,
1001
0002
0000
0000
1003
0000
0001
0000
,
0010
0001
1000
0100
,
0010
0000
0100
1000
,
0010
0100
0001
0010
,
0100
0010
0001
0100
,
0010
1000
0001
0100
,
1001
0110
1001
0000
,
0000
0000
0001
0000
,
0000
0000
1000
0000
,
0000
0000
0010
0000
,
0000
0000
1000
0000
,
0000
0000
0100
0000
,
0000
0000
0010
0000
,
0001
0000
0100
0000
,
0010
0000
1000
0000
,
0001
0000
0100
0000
,
0010
0000
1000
0000
,
0001
0000
0010
0000
,
0100
0000
0000
0000
1000
0100
0020
0000
,
0130
0000
0000
0000
;
