#VERSION:0.83;
#TITLE:毒;
#SUBTITLE:;
#ARTIST:長谷川白紙;
#TITLETRANSLIT:Doku;
#SUBTITLETRANSLIT:;
#ARTISTTRANSLIT:Hakushi Hasegawa;
#GENRE:;
#ORIGIN:;
#CREDIT:;
#BANNER:;
#BACKGROUND:;
#PREVIEWVID:;
#JACKET:;
#CDIMAGE:;
#DISCIMAGE:;
#LYRICSPATH:;
#CDTITLE:;
#MUSIC:Doku.ogg;
#OFFSET:-0.000000;
#SAMPLESTART:39.014000;
#SAMPLELENGTH:15.000000;
#SELECTABLE:YES;
#BPMS:0.000=203.000;
#STOPS:;
#DELAYS:;
#WARPS:;
#TIMESIGNATURES:0.000=4=4;
#TICKCOUNTS:0.000=4;
#COMBOS:0.000=1;
#SPEEDS:0.000=1.000=0.000=0;
#SCROLLS:0.000=1.000;
#FAKES:;
#LABELS:0.000=Song Start;
#BGCHANGES:;
#KEYSOUNDS:;
#ATTACKS:
;

//---------------dance-single - ----------------
#NOTEDATA:;
#CHARTNAME:;
#STEPSTYPE:dance-single;
#DESCRIPTION:;
#CHARTSTYLE:;
#DIFFICULTY:Easy;
#METER:9;
#RADARVALUES:0.473392,0.543470,0.498596,0.521608,0.000000,432.000000,367.000000,65.000000,68.000000,0.000000,0.000000,0.000000,0.000000,0.000000,0.473392,0.543470,0.498596,0.521608,0.000000,432.000000,367.000000,65.000000,68.000000,0.000000,0.000000,0.000000,0.000000,0.000000;
#CREDIT:pillfriends;
#NOTES:
// measure 0
0000
0000
0000
0000
,  // measure 1
0000
0000
0000
0000
,  // measure 2
0000
0000
0000
0000
,  // measure 3
0000
0000
0000
0000
,  // measure 4
0000
0000
0000
0000
,  // measure 5
0001
0100
0010
0100
,  // measure 6
0010
0000
1000
0000
0100
0010
0100
0000
,  // measure 7
1000
0000
0010
0000
1000
0000
0100
0020
,  // measure 8
0000
0030
0002
0000
0003
2000
0000
3000
,  // measure 9
0110
0001
0010
0001
,  // measure 10
0100
0001
0100
0001
,  // measure 11
0010
0100
0010
0000
0100
0000
1000
0010
,  // measure 12
0000
0000
0101
0000
0000
1010
0000
0000
,  // measure 13
1001
0000
1000
0000
0100
0000
0010
0001
,  // measure 14
0000
0001
0010
0000
0100
0000
1000
0000
,  // measure 15
0010
1000
0010
0000
0100
0000
0001
1000
,  // measure 16
0000
0000
1100
0000
0000
0101
0000
0000
,  // measure 17
0110
1000
0010
1000
,  // measure 18
0100
1000
0100
1000
,  // measure 19
0010
0100
0010
0000
0100
0000
0001
0010
,  // measure 20
0000
0000
1100
0000
0000
0011
0000
0000
,  // measure 21
1001
0000
0001
0000
0100
0000
0010
1000
,  // measure 22
0000
1000
0010
0000
0100
0000
0001
0000
,  // measure 23
0010
0001
0010
0000
0100
0000
1000
0001
,  // measure 24
0000
0000
0101
0000
0000
1100
0000
0000
,  // measure 25
1001
0000
0001
0000
0010
0000
1000
0020
,  // measure 26
0000
0031
0100
0010
,  // measure 27
1001
0000
1000
0000
0010
0000
0001
0020
,  // measure 28
0000
1030
0100
0010
,  // measure 29
1001
0000
0001
0000
0100
0000
1000
0200
,  // measure 30
0000
0301
0010
0100
,  // measure 31
1000
0100
1000
0000
0001
0010
0001
0000
,  // measure 32
0200
0000
0000
0300
,  // measure 33
0020
0000
0000
2030
0000
0000
3200
0000
,  // measure 34
0000
0320
0000
0000
0130
0000
0110
0000
,  // measure 35
2000
0000
0000
3020
0000
0000
0230
0000
,  // measure 36
0000
0302
0000
0000
0103
0000
0100
0000
,  // measure 37
0020
0000
0000
0230
0000
0000
0302
0000
,  // measure 38
0000
0023
0000
0000
0130
0000
0110
0000
,  // measure 39
0002
0000
0000
0023
0000
0000
0230
0000
,  // measure 40
0000
2300
0000
0000
3010
0000
0010
0000
,  // measure 41
0101
0000
0000
1100
0000
0000
0101
0000
,  // measure 42
0000
1010
0000
0000
1000
0000
0001
0000
,  // measure 43
0011
0000
0000
0101
0000
0000
0011
0000
,  // measure 44
0000
0101
0000
0000
0010
0000
0100
0000
,  // measure 45
0110
0000
0000
1001
0000
0000
1100
0000
,  // measure 46
0000
0101
0000
0000
1000
0000
0100
0000
,  // measure 47
0110
0000
0000
0011
0000
0000
1010
0000
,  // measure 48
0000
0110
0000
0000
1001
0000
1000
0001
,  // measure 49
1000
0100
0010
0100
,  // measure 50
0010
0000
0001
0000
0100
0010
0100
0000
,  // measure 51
0001
0000
0010
0000
0001
0000
0100
0020
,  // measure 52
0000
0030
2000
0000
3000
0002
0000
0003
,  // measure 53
0200
0000
0320
0000
,  // measure 54
2030
0000
3002
0000
,  // measure 55
0013
0000
1000
0000
0010
0000
0001
1000
,  // measure 56
0000
0000
1100
0000
0000
0011
0000
0000
,  // measure 57
2000
0000
3020
0000
,  // measure 58
0230
0000
0302
0000
,  // measure 59
0013
0000
0010
0000
0100
0000
0100
0010
,  // measure 60
0000
0000
0110
0000
0000
1001
0000
0000
,  // measure 61
0110
0001
0100
0010
,  // measure 62
1000
0000
0100
0000
0010
0100
0010
0000
,  // measure 63
0100
0000
1000
0000
0010
0000
0100
0002
,  // measure 64
0000
0000
2003
0000
0000
3200
0000
0000
,  // measure 65
0310
0000
0100
0000
1000
0000
0010
0100
,  // measure 66
0000
0100
0010
0000
0100
0000
0001
0000
,  // measure 67
0010
0100
0010
0000
0100
0000
1000
0002
,  // measure 68
0000
0003
0200
0000
0300
0020
0000
0030
,  // measure 69
0200
0000
0300
1001
0000
0001
1000
0000
,  // measure 70
0010
0000
0001
0000
0010
0000
0010
2000
,  // measure 71
0000
0000
3000
0110
0000
0000
0001
0000
,  // measure 72
0010
0001
0200
0320
,  // measure 73
1030
0000
0000
1100
0000
0000
1010
0000
,  // measure 74
0000
1001
0000
0000
0011
0000
0000
0101
,  // measure 75
0000
0000
1001
0000
0000
1001
0000
0000
,  // measure 76
0220
0000
0000
0330
,  // measure 77
2000
0000
0000
3200
0000
0000
0302
0000
,  // measure 78
0000
0203
0000
0000
1300
0000
1000
0000
,  // measure 79
0002
0000
0000
0203
0000
0000
2300
0000
,  // measure 80
0000
3200
0000
0000
0000
0000
0300
0000
,  // measure 81
0002
0000
0000
0023
0000
0000
2030
0000
,  // measure 82
0000
3020
0000
0000
0000
0000
0031
0000
,  // measure 83
2000
0000
0000
3200
0000
0000
0320
0000
,  // measure 84
0000
0230
0000
0000
0300
0000
0000
0000
,  // measure 85
1001
0000
0000
1010
0000
0000
0011
0000
,  // measure 86
0000
0101
0000
0000
0010
0000
0100
0000
,  // measure 87
0110
0000
0000
1010
0000
0000
0101
0000
,  // measure 88
0000
1100
0000
0000
0010
0000
0010
0000
,  // measure 89
1001
0000
0000
1100
0000
0000
0101
0000
,  // measure 90
0000
1010
0000
0000
0010
0000
0100
0000
,  // measure 91
0101
0000
0000
0011
0000
0000
1010
0000
,  // measure 92
0000
1100
0000
0000
0001
1000
0001
0000
,  // measure 93
1000
0100
0010
1000
,  // measure 94
0010
0001
0100
0010
,  // measure 95
0100
1000
0100
0001
,  // measure 96
0010
0000
0100
0000
0010
0100
0010
0000
,  // measure 97
0001
0100
0010
0001
,  // measure 98
0010
1000
0100
0010
,  // measure 99
0100
0001
0100
1000
,  // measure 100
0010
0000
0100
0000
0010
0100
0010
0000
,  // measure 101
1000
0001
0010
0001
,  // measure 102
0100
0000
0010
0000
0100
0010
0100
0000
,  // measure 103
0010
0000
1000
0000
0100
0000
0100
0020
,  // measure 104
0000
0000
0032
0000
0000
2003
0000
0000
,  // measure 105
3001
1000
0010
1000
,  // measure 106
0100
0000
0010
0000
0100
0010
0100
0000
,  // measure 107
0010
0000
0001
0000
0100
0000
0100
0020
,  // measure 108
0000
0000
2030
0000
0000
3002
0000
0000
,  // measure 109
0003
0000
0000
0000
;

//---------------dance-single - ----------------
#NOTEDATA:;
#CHARTNAME:;
#STEPSTYPE:dance-single;
#DESCRIPTION:;
#CHARTSTYLE:;
#DIFFICULTY:Medium;
#METER:15;
#RADARVALUES:0.693652,0.710691,0.092049,0.567633,0.161085,633.000000,621.000000,12.000000,74.000000,0.000000,0.000000,0.000000,0.000000,0.000000,0.693652,0.710691,0.092049,0.567633,0.161085,633.000000,621.000000,12.000000,74.000000,0.000000,0.000000,0.000000,0.000000,0.000000;
#CREDIT:pillfriends;
#NOTES:
0000
0000
0000
0000
,
0000
0000
0000
0000
,
0000
0000
0000
0000
,
0000
0000
0000
0000
,
0000
0000
0000
0000
,
1000
0001
1000
0001
0100
0010
1000
0100
,
0000
0010
0001
0100
0001
0010
0001
0000
,
0100
0010
0100
0010
1000
0100
1000
0002
,
0000
0100
0000
0000
2003
0000
0000
0100
0000
0000
3020
0000
0000
0100
0000
0000
,
0130
0000
1001
0000
0001
0100
0010
1000
,
0000
1000
0100
0010
0001
0100
0001
0100
,
0000
1000
0100
0001
0100
0001
1000
0100
,
0000
0010
0000
0000
0100
0000
0000
0001
0000
0000
0100
0000
0000
1000
0000
0000
,
0010
0100
0001
1000
0010
0001
0010
1000
,
0000
0001
0100
0000
0100
0010
1000
0100
,
0010
0010
0010
0000
0100
0001
0100
1000
,
0000
0010
0000
0000
0001
0000
0000
0010
0000
0000
1000
0000
0000
0001
0000
0000
,
0100
0000
1001
0000
1000
0100
0010
0001
,
0000
0001
0100
0010
1000
0100
1000
0100
,
0000
0001
0100
1000
0100
1000
0001
0100
,
0000
0010
0000
0000
0100
0000
0000
1000
0000
0000
0100
0000
0000
0001
0000
0000
,
0010
0100
1000
0001
0010
1000
0010
0001
,
0000
1000
0100
0000
0100
0010
0001
0100
,
0010
0010
0010
0000
0100
1000
0100
0001
,
0000
0010
0000
0000
1000
0000
0000
0010
0000
0000
0001
0000
0000
1000
0000
0000
,
0100
0010
1000
0010
0001
0010
0001
0100
,
0000
1000
0100
0001
0010
0000
0110
0000
,
1000
0010
0100
1000
0100
1000
0100
0001
,
0000
0010
0100
1000
0010
0000
0110
0000
,
0100
0010
0001
0010
1000
0010
1000
0100
,
0000
0001
0100
1000
0010
0000
0110
0000
,
0001
0010
0001
0100
0001
0010
1000
0010
,
0001
0000
0001
0000
0001
0000
1000
0000
1000
0000
1000
0000
,
0200
0000
1300
0002
0000
0103
0020
0000
,
0130
2000
0000
3100
0001
0000
0001
0000
,
0020
0000
0130
2000
0000
3010
0002
0000
,
0013
2000
0000
3001
0100
0000
0110
0000
,
0200
0000
0301
2000
0000
3100
0020
0000
,
0130
0002
0000
0103
1000
0000
1000
0000
,
0020
0000
0130
0002
0000
0013
2000
0000
,
3010
0002
0000
1003
0100
0000
0110
0000
,
0001
0100
1000
0100
0000
0010
1000
0100
,
0001
0100
0000
1000
0020
0000
0230
0000
,
0301
0010
0100
1000
0000
1000
0001
0100
,
0010
1000
0000
1000
0001
0000
1001
0000
,
1000
0100
0001
0100
0000
0010
0001
0100
,
1000
0100
0000
0001
0020
0000
0230
0000
,
1300
0010
0100
0001
0000
0001
0010
0100
,
1000
0001
0000
0001
0010
0000
0001
0100
,
0001
1000
0001
1000
0100
0010
0001
0100
,
0000
0010
1000
0100
1000
0010
1000
0000
,
0100
0010
0100
0010
0001
0100
0001
2000
,
0000
0100
0000
0000
3002
0000
0000
0100
0000
0000
0023
0000
0000
0100
0000
0000
,
0230
0000
0000
0000
0000
1300
0010
0100
,
0000
1000
0100
0010
0000
1000
0100
0010
,
0000
0100
1000
0010
0000
0100
0001
0020
,
0000
0100
0000
0000
0032
0000
0000
0100
0000
0000
2003
0000
0000
0100
0000
0000
,
3020
0000
0000
0000
0000
0130
0001
0100
,
0000
0001
0020
0000
0000
0000
0031
0100
,
0010
1000
0010
1000
0001
0010
0100
2000
,
0000
0100
0000
0000
3002
0000
0000
0100
0000
0000
2003
0000
0000
0100
0000
0000
,
3010
0000
1001
0000
1000
0010
0100
0001
,
0000
0001
0010
0100
1000
0010
1000
0010
,
0000
0001
0010
1000
0010
1000
0001
0010
,
0000
0100
0000
0000
0010
0000
0000
1000
0000
0000
0010
0000
0000
0001
0000
0000
,
0100
0010
1000
0001
0100
1000
0100
0001
,
0000
1000
0010
0000
0010
0100
0001
0010
,
0100
0100
0100
0000
0010
1000
0010
0001
,
0000
0100
0000
0000
1000
0000
0000
0100
0000
0000
0001
0000
0000
1000
0000
0000
,
0020
0000
0030
1001
0000
1000
0100
0001
,
1000
0010
0001
0010
0001
0100
0010
0010
,
0100
0010
0000
1001
0000
0001
0100
0001
,
0010
0000
0000
0001
0000
0000
0100
0000
0000
0010
0000
0000
1000
0000
0000
0000
1000
0000
0001
0000
0000
0000
0001
0000
,
0020
0000
0130
0002
0000
0103
2000
0000
,
3010
0200
0000
0310
0002
0000
0013
2000
,
0000
3100
0020
0000
0130
2000
0000
3010
,
0200
0000
0000
0000
,
0302
0000
0000
0023
0000
0000
2030
0000
,
0000
3002
0000
0000
0103
0000
0100
0000
,
2000
0000
0000
3020
0000
0000
0032
0000
,
0000
2003
0000
0000
0000
0000
3000
0000
,
0200
0000
0000
0302
0000
0000
0023
0000
,
0000
2030
0000
0000
3001
0000
0100
0000
,
2000
0000
0000
3200
0000
0000
0320
0000
,
0000
0032
0000
0000
0000
0000
0003
0000
,
1000
0100
0001
0100
0000
0010
0001
0100
,
1000
0100
0000
0001
0020
0000
0230
0000
,
1300
0010
0100
0001
0000
0001
0010
0100
,
1000
0001
0000
0001
1000
0000
1001
0000
,
0001
0100
1000
0100
0000
0010
1000
0100
,
0001
0100
0000
1000
0020
0000
0230
0000
,
0301
0010
0100
1000
0000
1000
0010
0100
,
0001
1000
0000
1000
0200
0000
0320
0000
,
0031
0100
1000
0100
0001
0100
0001
0010
,
0001
0100
0010
0100
0010
0001
0010
1000
,
0001
0100
0001
0010
1000
0010
1000
0010
,
0001
1000
0100
1000
0010
0100
0001
1000
,
0100
0001
0100
1000
0100
1000
0010
0100
,
1000
0100
1000
0100
0010
0001
0010
1000
,
0010
1000
0100
1000
0100
0001
1000
0010
,
0001
0010
0001
0100
0010
1000
0002
0000
,
0013
0100
0010
0100
1000
0010
0100
0001
,
0000
0010
0100
1000
0100
1000
0010
0000
,
0100
1000
0100
0010
0100
0001
0010
0200
,
0000
0010
0000
0000
2300
0000
0000
0010
0000
0000
3002
0000
0000
0010
0000
0000
,
0103
0010
0100
0010
1000
0100
0010
0001
,
0000
0100
0010
1000
0010
1000
0100
0010
,
0001
0100
1000
0100
0010
0100
0001
0020
,
0000
0100
0000
0000
0032
0000
0000
0100
0000
0000
2003
0000
0000
0100
0000
0000
,
3000
0000
0000
0000
;

//---------------dance-single - ----------------
#NOTEDATA:;
#CHARTNAME:;
#STEPSTYPE:dance-single;
#DESCRIPTION:;
#CHARTSTYLE:;
#DIFFICULTY:Hard;
#METER:17;
#RADARVALUES:0.893090,1.043337,0.682693,0.613657,0.391206,815.000000,726.000000,89.000000,80.000000,0.000000,0.000000,0.000000,0.000000,0.000000,0.893090,1.043337,0.682693,0.613657,0.391206,815.000000,726.000000,89.000000,80.000000,0.000000,0.000000,0.000000,0.000000,0.000000;
#CREDIT:pillfriends;
#NOTES:
0000
0000
0000
0000
,
0000
0000
0000
0000
,
0000
0000
0000
0000
,
0000
0000
0000
0000
,
0000
0000
0000
0000
,
0001
0000
1000
0000
0001
0000
0100
0010
0100
0000
0010
0000
1000
0000
0100
0000
,
0000
0010
0001
0100
0100
0001
0010
0100
,
1000
0000
0001
0100
0001
0000
0010
0000
0100
0000
0010
0000
0100
0000
1000
0000
,
0000
0010
0000
0000
0110
0000
0000
0001
0000
0000
0010
0000
0000
0110
0000
0000
,
1000
0010
0100
0001
1000
0010
0100
0001
,
0010
0000
0001
1000
0010
0000
0100
0000
0010
0000
0100
0001
1000
0000
0100
0000
,
0010
1000
0010
0001
0010
0100
1000
0010
,
0000
0101
0000
0000
0001
0000
0000
0010
0000
0000
1100
0000
0000
1000
0000
0000
,
0100
0010
0001
1000
0001
0100
0010
0010
,
1000
0000
0100
1000
0010
0000
1000
0000
0001
0000
0100
0001
0010
0000
0100
0000
,
1000
0010
0001
0010
0100
0010
1000
0001
,
0000
0011
0000
0000
0001
0000
0000
1000
0000
0000
1010
0000
0000
1000
0000
0000
,
0001
0010
0100
1000
0001
0010
0100
1000
,
0010
0000
1000
0001
0010
0000
0100
0000
0010
0000
0100
1000
0001
0000
0100
0000
,
0010
0001
0010
1000
0010
0100
0001
0010
,
0000
1100
0000
0000
1000
0000
0000
0010
0000
0000
0101
0000
0000
0001
0000
0000
,
0100
0010
1000
0001
1000
0100
0010
0010
,
0001
0000
0100
0001
0010
0000
0001
0000
1000
0000
0100
1000
0010
0000
0100
0000
,
0001
0010
1000
0010
0100
0010
0001
1000
,
0000
1010
0000
0000
1000
0000
0000
0001
0000
0000
0011
0000
0000
0001
0000
0000
,
0100
0000
0010
0000
1000
0000
0010
0000
0100
1000
0100
0000
0001
0000
0020
0000
,
0000
0130
1000
0001
0100
0110
1010
0000
,
1000
0000
0010
0000
0100
0000
0001
0000
0010
0100
0010
0000
0001
0000
0200
0000
,
0000
0310
1000
0001
0010
0110
1100
0000
,
0100
0000
0010
0000
0001
0000
0010
0000
0100
0001
0100
0000
1000
0000
0020
0000
,
0000
0130
0001
1000
0110
0010
0011
0000
,
1000
0010
0001
0010
0100
0010
1000
0100
,
2000
0000
0001
0000
3001
0000
0002
0000
1000
0000
1003
0000
,
1020
0000
0130
0102
0000
1003
2100
0000
,
3001
0012
0000
0103
0010
0000
1001
0000
,
0120
0000
0130
2001
0000
3010
0102
0000
,
0013
2100
0000
3010
0100
0000
1001
0000
,
0021
0000
0130
2100
0000
3001
0102
0000
,
1003
2010
0000
3100
0010
0000
1001
0000
,
0120
0000
0130
1002
0000
0013
2100
0000
,
3010
0102
0000
0013
0100
0000
0110
0000
,
1002
0013
0100
1000
0010
0100
0120
1030
,
0001
0020
0000
0130
1000
0010
0100
0001
,
1002
0103
0010
1000
0100
0010
0210
1300
,
0010
0200
0000
0010
0310
0000
0110
0000
,
0102
1003
0100
0010
0001
1000
1020
0130
,
0001
2000
0000
3100
0010
0100
0010
0001
,
0201
0310
1000
1200
0310
0001
2001
3010
,
0100
0002
0000
0000
2003
0000
0100
3100
,
1000
0000
0001
0000
1000
0000
0010
0100
0010
0000
0100
0000
0001
0000
0010
0000
,
0000
0100
1000
0010
0010
1000
0100
0010
,
0001
0000
1000
0100
1000
0000
0100
0000
0010
0000
0100
0000
0010
0000
0001
0000
,
0000
0100
0000
0000
0110
0000
0000
1000
0000
0000
0100
0000
0000
0110
0000
0000
,
0002
0000
0000
0000
0000
0013
0001
0200
,
0000
0310
0100
0002
0000
0013
0100
0002
,
0000
0103
0010
2000
0000
3010
0001
0010
,
0000
0001
0000
0000
0100
0000
0000
0101
0000
0000
0010
0000
0000
1000
0000
0000
,
2100
0000
0000
0000
0000
3100
0001
0200
,
0000
0310
0002
0000
0000
0000
1003
0010
,
1000
0100
1000
0000
0001
0100
0001
0000
0010
0100
0010
0100
0010
0000
0100
0000
,
0000
1001
0000
0000
0110
0000
0000
1001
0000
0000
0110
0000
0000
0010
0000
0000
,
0001
0100
0010
1000
0001
0100
0010
1000
,
0100
0000
1000
0001
0100
0000
0010
0000
0100
0000
0010
1000
0001
0000
0010
0000
,
0100
0001
0100
1000
0100
0010
0001
0100
,
0000
1010
0000
0000
1000
0000
0000
0100
0000
0000
0011
0000
0000
0001
0000
0000
,
0010
0100
1000
0001
1000
0010
0100
0100
,
0001
0000
0010
0001
0100
0000
0001
0000
1000
0000
0010
1000
0100
0000
0010
0000
,
0001
0100
1000
0100
0010
0100
0001
0010
,
0000
0110
0000
0000
1001
0000
0000
1010
0000
0000
0011
0000
0000
0001
0000
0000
,
0200
0000
0000
0000
0300
0000
1001
0000
0000
0000
1000
0100
0010
0000
0001
0100
,
0010
0000
1000
0000
0100
0000
1000
0001
0010
0001
1000
0000
0020
0000
0230
0000
,
0301
1000
0001
1000
0010
0000
0110
0000
0000
0000
1000
0000
0100
0000
1000
0010
,
1000
0000
0000
0100
0000
0000
0010
0000
0000
0001
0000
0000
0100
0000
0010
0000
1000
0000
0001
0000
0100
0000
0010
0000
,
2000
0000
3100
0012
0000
0103
1020
0000
,
0130
1002
0000
0013
2100
0000
3010
0102
,
0000
0013
2100
0000
3010
1002
0000
0013
,
0200
0000
0000
0000
,
2300
0000
0000
0010
0000
0000
3200
0000
,
0000
0001
0000
0000
2300
0000
0010
0000
,
3002
0000
0000
0100
0000
0000
0023
0000
,
0000
0200
0000
0000
0000
0000
0330
0000
,
0002
0000
0000
0100
0000
0000
0023
0000
,
0000
1000
0000
0000
0032
0000
0100
0000
,
2003
0000
0000
0010
0000
0000
0001
0000
,
0000
0000
0000
3200
0000
0000
0000
0000
0000
0000
0000
0000
0310
0000
0000
0000
0010
0000
0000
0000
0010
0000
0000
0000
,
1002
0103
0010
1000
0100
0010
0210
1300
,
0001
0200
0000
0310
1000
0100
0010
0001
,
1002
0013
0100
1000
0010
0100
0120
1030
,
0100
0020
0000
0100
0130
0000
0110
0000
,
0012
1003
0010
0100
0001
1000
1200
0310
,
0001
2000
0000
3010
0100
0010
0100
0001
,
0021
0130
1000
1020
0130
0001
2001
3100
,
0010
0000
0002
0000
0000
0000
0103
0000
0010
1000
0010
1000
0001
0100
0001
0100
,
0001
0000
0010
0000
0100
0000
1000
0000
0001
1000
0010
1000
0001
0000
0100
0000
,
0010
0000
1000
0100
0010
0000
0001
0010
0100
0000
1000
0010
0100
0000
0001
0000
,
0010
0000
0001
0000
1000
0000
0010
0000
0100
0010
1000
0010
0100
0000
0001
0000
,
0010
0000
0100
1000
0100
0000
0010
0000
0001
0000
0001
0000
0001
0000
0000
0000
,
1000
0000
0010
0000
0100
0000
0001
0000
1000
0001
0010
0001
1000
0000
0100
0000
,
0010
0000
0001
0100
0010
0000
1000
0010
0100
0000
0001
0010
0100
0000
1000
0000
,
0010
0000
1000
0000
0001
0000
0010
0000
0100
0010
0001
0010
0100
0000
1000
0000
,
0010
0000
0100
0001
0100
0000
0010
0000
1000
0000
1000
0000
2000
0000
0000
0000
,
3001
0000
0100
0000
0001
0000
0010
0100
0010
0000
0100
0000
1000
0000
0010
0000
,
0000
0000
0100
0001
0010
0000
0100
1000
0010
0000
0100
0000
0010
0000
0100
0000
,
0001
0010
1000
0001
0100
1000
0100
1000
,
0000
1010
0000
0000
0011
0000
0000
1010
0000
0000
0101
0000
0000
0011
0000
0000
,
1000
0000
0100
0000
1000
0000
0010
0100
0010
0000
0100
0000
0001
0000
0010
0000
,
0000
0000
0100
1000
0010
0000
0100
0001
0010
0000
0100
0000
0010
0000
0100
0000
,
1000
0010
0001
1000
0100
0001
0100
0001
,
0000
0011
0000
0000
1010
0000
0000
0011
0000
0000
0101
0000
0000
1100
0000
0000
;
