#VERSION:0.83;
#TITLE:Digital World;
#SUBTITLE:;
#ARTIST:Amaranthe;
#TITLETRANSLIT:;
#SUBTITLETRANSLIT:;
#ARTISTTRANSLIT:;
#GENRE:;
#ORIGIN:;
#CREDIT:;
#BANNER:;
#BACKGROUND:;
#PREVIEWVID:;
#JACKET:;
#CDIMAGE:;
#DISCIMAGE:;
#LYRICSPATH:;
#CDTITLE:;
#MUSIC:Digital World.ogg;
#OFFSET:0.000000;
#SAMPLESTART:101.198502;
#SAMPLELENGTH:14.000000;
#SELECTABLE:YES;
#DISPLAYBPM:75.000000:150.000000;
#BPMS:0.000=150.000,
32.000=75.000,
48.000=150.000,
142.000=300.000,
144.000=150.000,
158.000=300.000,
160.000=150.000,
173.000=300.000,
175.000=75.000,
182.000=300.000,
184.000=75.000,
191.000=300.000,
193.000=75.000,
209.000=150.000,
263.000=300.000,
265.000=150.000;
#STOPS:142.000000=0.066667,
142.333328=0.066667,
142.666672=0.066667,
143.000000=0.066667,
143.333328=0.066667,
143.666672=0.066667,
158.000000=0.050000,
158.250000=0.050000,
158.500000=0.050000,
158.750000=0.050000,
159.000000=0.050000,
159.250000=0.050000,
159.500000=0.050000,
159.750000=0.050000,
172.000000=0.400000,
173.000000=0.066667,
173.333328=0.066667,
173.666672=0.066667,
174.000000=0.066667,
174.333328=0.066667,
174.666672=0.066667,
182.000000=0.066667,
182.333328=0.066667,
182.666672=0.066667,
183.000000=0.066667,
183.333328=0.066667,
183.666672=0.066667,
191.000000=0.050000,
191.250000=0.050000,
191.500000=0.050000,
191.750000=0.050000,
192.000000=0.050000,
192.250000=0.050000,
192.500000=0.050000,
192.750000=0.050000,
263.000000=0.066667,
263.333344=0.066667,
263.666656=0.066667,
264.000000=0.066667,
264.333344=0.066667,
264.666656=0.066667;
#DELAYS:;
#WARPS:;
#TIMESIGNATURES:0.000=4=4;
#TICKCOUNTS:0.000=4;
#COMBOS:0.000=1;
#SPEEDS:0.000=1.000=0.000=0;
#SCROLLS:0.000=1.000;
#FAKES:;
#LABELS:0.000=Song Start;
#BGCHANGES:;
#KEYSOUNDS:;
#ATTACKS:
;

//---------------dance-single - ----------------
#NOTEDATA:;
#CHARTNAME:;
#STEPSTYPE:dance-single;
#DESCRIPTION:;
#CHARTSTYLE:;
#DIFFICULTY:Hard;
#METER:14;
#RADARVALUES:0.595964,1.220860,0.421862,0.437486,0.488266,534.000000,480.000000,54.000000,56.000000,0.000000,0.000000,0.000000,0.000000,0.000000,0.595964,1.220860,0.421862,0.437486,0.488266,534.000000,480.000000,54.000000,56.000000,0.000000,0.000000,0.000000,0.000000,0.000000;
#CREDIT:clunksquelch;
#DISPLAYBPM:75.000000:150.000000;
#NOTES:
// measure 0
0000
0000
0000
0000
,  // measure 1
0000
0000
0000
0000
,  // measure 2
0000
0000
0000
0000
,  // measure 3
0000
0000
0000
0000
,  // measure 4
2001
0000
0000
0000
0010
0000
0010
0000
0001
0000
0001
0000
0100
0000
3100
0010
,  // measure 5
0002
0000
0100
0100
1000
1003
1001
0000
,  // measure 6
0201
0000
0000
0000
1000
0000
1000
0000
0010
0000
0010
0000
0301
0000
0001
1000
,  // measure 7
0100
0010
0001
0100
1000
0100
0001
1000
,  // measure 8
0100
0010
0001
0100
0010
1000
0010
0200
0000
0301
1000
0200
0000
0000
0300
0000
,  // measure 9
0000
0010
0001
0200
0000
0310
1000
0200
0000
0310
0001
0101
0000
1010
0000
0000
,  // measure 10
0000
1000
0001
0020
0000
0130
1000
0020
0000
0130
0001
2000
0000
0000
3000
0000
,  // measure 11
0000
0001
0100
0010
1000
0100
1000
0002
0000
0013
0100
0000
1100
0000
0101
0000
,  // measure 12
1001
0001
0100
1000
0100
0001
1000
1100
,  // measure 13
0110
0010
0001
0100
1000
0100
0001
0101
,  // measure 14
0110
0010
1000
0001
0020
0000
0130
1000
,  // measure 15
0020
0000
0000
0000
0130
0000
0001
0000
1001
0000
0000
0000
0110
0000
0001
1000
,  // measure 16
0100
1000
0001
0010
1000
0010
0001
0011
,  // measure 17
0101
0001
1000
0010
0001
0010
1000
1010
,  // measure 18
1100
1000
0001
0100
1000
0100
0001
1000
,  // measure 19
0200
0000
1000
0000
0001
0001
0010
0310
,  // measure 20
1001
0000
0001
0100
1000
0100
0101
0000
,  // measure 21
2200
0000
3300
0000
1000
0100
0010
0001
,  // measure 22
0101
0000
0001
0010
1000
0010
0011
0000
,  // measure 23
2020
0000
3030
0000
1001
0000
0101
0010
,  // measure 24
0110
0000
0001
1000
0100
1000
0010
0100
,  // measure 25
0002
0000
1003
0100
0002
0000
0103
1000
,  // measure 26
1002
0000
0100
0100
0010
0010
1000
1003
,  // measure 27
2001
0000
0000
0000
0100
0000
0100
0000
0010
0000
3010
0100
0010
0100
0010
0100
,  // measure 28
0020
0000
1030
0100
0001
0100
1200
0000
,  // measure 29
0001
0000
0300
0000
1000
0010
0100
0010
,  // measure 30
0001
0010
1000
0100
0001
0100
1100
0000
,  // measure 31
0202
0000
0303
0000
1001
0000
1010
0100
,  // measure 32
0110
2000
3200
0302
,  // measure 33
0023
0000
1030
0100
0001
0100
1000
0000
,  // measure 34
1002
0000
0000
0000
0100
0000
0100
0000
1000
0000
1000
0000
0010
0000
0013
0100
,  // measure 35
2000
0000
0000
0000
0000
0000
0100
0000
0000
3100
0000
0000
0010
0000
0001
0000
0100
0000
0010
0000
0100
0000
0001
0000
,  // measure 36
2000
0000
3000
0000
,  // measure 37
0010
0000
0000
0010
0000
0000
0010
0000
0200
0000
0000
0000
0302
0000
0000
0000
,  // measure 38
0013
0000
0000
0010
0000
0000
0010
0000
0200
0000
0000
0000
0000
0000
0000
0000
,  // measure 39
2300
0000
0000
0001
0000
0000
3001
0000
0100
0001
1000
0001
0100
0001
1000
0001
,  // measure 40
0020
0000
0030
0000
,  // measure 41
0100
1000
0000
0100
1000
0000
0001
0100
0002
0000
0000
0000
0003
0000
0000
0000
,  // measure 42
0100
0010
0000
0100
0010
0000
1000
0001
2000
0000
0000
0000
0000
0000
0000
0000
,  // measure 43
3000
0000
0000
0000
0000
0000
0000
0000
0000
0000
0000
0000
0000
0000
0000
0000
0000
0000
0000
0000
0000
0000
0000
0000
0000
0000
0000
0000
0000
0000
0000
0000
0000
0000
0000
0000
0000
0000
0000
0000
0000
0000
0000
0000
0000
0000
0000
0000
0001
0000
0000
0000
0000
0000
0000
0000
0000
0000
0000
0000
0000
0000
0000
0000
0001
0000
0000
0000
0000
0000
0000
0000
0000
0000
0000
0000
0000
0000
0000
0000
0001
0000
0000
0000
0000
0000
0000
0000
0000
0000
0000
0000
0000
0000
0000
0000
1000
0000
0000
0000
0000
0000
0000
0000
0000
0000
0000
0000
0000
0000
0000
0000
1000
0000
0000
0000
0000
0000
0000
0000
0000
0000
0000
0000
0000
0000
0000
0000
1000
0000
0000
0000
0000
0000
0000
0000
0000
0000
0000
0000
0000
0000
0000
0000
0010
0000
0000
0000
0000
0000
0000
0000
0000
0000
0000
0000
0000
0000
0000
0000
0000
0000
0100
0000
0000
0000
0000
0000
0001
0000
0000
0000
0000
0000
0000
0000
0000
0000
0000
0000
1000
0000
0000
0000
0000
0000
0001
0000
0000
0000
0000
0000
,  // measure 44
1000
0000
0100
1000
0100
1000
0100
1000
0100
0000
0000
1000
0001
0000
0100
0001
0100
0000
0010
0100
0010
0100
0010
0100
0010
0000
0000
1000
0001
0000
0010
0001
,  // measure 45
0010
0000
0000
0000
0000
0000
0000
0000
0000
0000
0000
0000
0001
0000
0000
0000
0000
0000
1000
0000
0000
0000
0000
0000
0001
0000
0000
0000
0000
0000
1000
0000
0000
0000
0000
0000
0001
0000
0000
0000
0000
0000
1000
0000
0000
0000
0000
0000
0001
0000
0000
0000
0000
0000
0000
0000
0010
0000
0000
0000
0000
0000
0000
0000
0100
0000
0000
0000
0000
0000
0000
0000
1000
0000
0000
0000
0000
0000
0000
0000
0010
0000
0000
0000
0000
0000
0000
0000
0100
0000
0000
0000
0000
0000
0000
0000
0001
0000
0000
0000
0000
0000
0000
0000
0000
0000
0000
0000
0000
0000
0000
0000
0001
0000
0000
0000
0000
0000
0000
0000
0000
0000
0000
0000
0000
0000
0000
0000
0001
0000
0000
0000
0000
0000
0000
0000
0000
0000
0000
0000
0000
0000
0000
0000
1000
0000
0000
0000
0000
0000
0000
0000
0000
0000
0000
0000
0000
0000
0000
0000
1000
0000
0000
0000
0000
0000
0000
0000
0000
0000
0000
0000
0000
0000
0000
0000
1000
0000
0000
0000
0000
0000
0000
0000
0000
0000
0000
0000
0000
0000
0000
0000
,  // measure 46
0010
0000
0000
0100
0001
0000
1000
0100
1000
0100
1000
0000
0001
1000
0001
1000
0001
0000
0000
1000
0010
0000
0100
0001
0100
0001
0100
0000
0001
1000
0001
1000
,  // measure 47
0001
0000
0000
0000
0000
0000
0000
0000
0000
0000
0000
0000
0000
0000
0000
0000
0000
0000
1000
0000
0000
0000
0000
0000
0001
0000
0000
0000
0000
0000
0000
0000
0000
0000
0000
0000
0010
0000
0000
0000
0000
0000
0001
0000
0000
0000
0000
0000
0010
0000
0000
0000
0000
0000
0001
0000
0000
0000
0000
0000
0010
0000
0000
0000
0000
0000
0000
0000
0000
0000
0000
0000
0001
0000
0000
0000
0000
0000
1000
0000
0000
0000
0000
0000
0001
0000
0000
0000
0000
0000
1000
0000
0000
0000
0000
0000
0001
0000
0000
0000
0000
0000
0000
0000
0100
0000
0000
0000
0000
0000
0000
0000
0001
0000
0000
0000
0000
0000
0000
0000
0010
0000
0000
0000
0000
0000
0000
0000
0100
0000
0000
0000
0000
0000
0000
0000
1000
0000
0000
0000
0000
0000
0000
0000
0001
0000
0000
0000
0000
0000
0000
0000
0000
0000
0000
0000
0100
0000
0000
0000
0000
0000
0000
0000
0000
0000
0000
0000
0001
0000
0000
0000
0000
0000
0000
0000
0000
0000
0000
0000
0100
0000
0000
0000
0000
0000
0000
0000
0000
0000
0000
0000
,  // measure 48
0010
1000
0010
1000
0001
0000
0000
0000
0000
0000
0000
0000
0000
0000
0000
0000
,  // measure 49
0000
0000
0000
0000
,  // measure 50
0000
0000
1000
1000
0001
0001
0100
0100
,  // measure 51
0010
0010
1000
1000
0001
0001
0010
0020
,  // measure 52
0130
1000
0001
0100
0110
0000
0000
0000
0001
0000
0010
0000
1000
0000
0010
0000
,  // measure 53
0011
0000
2010
0000
3001
0000
1000
0010
,  // measure 54
0001
0010
1010
0000
1000
0100
0001
0100
,  // measure 55
1100
0102
1003
1010
,  // measure 56
0110
1000
1001
0000
0001
0010
1000
0010
,  // measure 57
0100
1000
0020
0000
1030
0010
0002
0000
,  // measure 58
0013
1000
1002
0000
0010
0010
0100
0100
,  // measure 59
1000
0000
1003
0000
2001
0000
0000
0000
0010
0000
0010
0000
0100
0000
3100
0010
,  // measure 60
0001
0010
0100
0010
0002
0000
0000
0000
1003
0000
0010
0000
0001
0000
0010
0000
,  // measure 61
1020
0000
0001
0000
0030
0000
1000
0010
,  // measure 62
0100
0010
0001
0010
1000
0100
0001
0100
,  // measure 63
1100
0102
1003
1100
,  // measure 64
0110
0001
2001
0000
3020
0000
0032
0000
,  // measure 65
0203
0000
0000
0000
0000
0000
1300
0000
0000
0000
0000
0000
0001
0000
0000
1000
0000
0000
0010
0000
0010
0000
0010
0000
,  // measure 66
0100
0100
0100
2002
0000
0000
3003
0000
0000
0000
0000
0000
;

//---------------dance-single - ----------------
#NOTEDATA:;
#CHARTNAME:;
#STEPSTYPE:dance-single;
#DESCRIPTION:;
#CHARTSTYLE:;
#DIFFICULTY:Medium;
#METER:11;
#RADARVALUES:0.392845,0.519515,0.296866,0.234368,0.132808,352.000000,314.000000,38.000000,30.000000,0.000000,0.000000,0.000000,0.000000,0.000000,0.392845,0.519515,0.296866,0.234368,0.132808,352.000000,314.000000,38.000000,30.000000,0.000000,0.000000,0.000000,0.000000,0.000000;
#CREDIT:clunksquelch;
#DISPLAYBPM:75.000000:150.000000;
#NOTES:
0000
0000
0000
0000
,
0000
0000
0000
0000
,
0000
0000
0000
0000
,
0000
0000
0000
0000
,
1001
0000
0001
0000
0100
0001
0010
0000
,
1001
0000
1000
0000
0100
1000
0010
0000
,
1001
0000
0001
0000
0010
0001
0100
0000
,
0001
1000
0100
0000
0010
0001
1000
0000
,
0010
0000
0100
0000
0001
0000
1000
0100
0000
0010
0001
0010
0000
0000
0000
0000
,
0001
0000
0100
0010
0000
1000
0010
1000
0000
0001
1000
0001
0000
1000
0000
0000
,
0100
0000
0010
0001
0000
1000
0001
1000
0000
0001
0100
0001
0000
0000
0000
0000
,
0100
0000
0010
1000
0010
0000
1000
0001
0000
0010
0001
0000
0010
0000
0100
0000
,
1000
0000
0010
0000
1000
0010
0001
0000
,
0110
0000
1000
0000
0001
0010
1000
0000
,
0110
0001
2000
0010
,
3002
0010
1003
0110
,
1001
0000
0001
0000
1000
0100
0001
0000
,
0110
0000
1000
0000
0001
0100
1000
0000
,
0110
0000
0001
0000
1000
0100
0010
0000
,
0210
0010
0010
0310
,
1001
0000
0001
0100
0010
0000
1010
0000
,
0202
0303
0001
1000
,
1001
0000
0001
0010
0100
0000
1100
0000
,
0022
0033
0010
0100
,
1001
0000
0001
0000
0100
0000
1000
0100
,
0001
0000
1000
0100
0010
0000
0100
0000
,
1001
0000
0001
0100
0010
1000
0100
0000
,
1001
0000
1000
0100
0010
0001
0100
0000
,
1001
0000
0001
0010
0100
1000
0001
0000
,
0202
0000
0303
0000
0001
1000
0010
0100
,
0001
0000
0010
0000
1000
0010
0001
0000
,
0022
0033
0010
0100
,
1001
0001
0010
1000
,
0100
0000
0001
0000
1000
0010
0100
0000
,
0110
0000
0010
1000
0100
0010
0001
0000
,
1001
0000
0001
0100
0020
0000
0000
0000
,
2030
0000
3000
0000
,
0001
0000
0000
0100
0000
0000
0010
0000
0000
0000
0000
0000
0000
0000
0000
0000
,
1000
0000
0000
0100
0000
0000
0010
0000
0000
0000
0000
0000
0000
0000
0000
0000
,
0001
0000
0000
0010
0000
0000
0100
0000
2000
0000
0000
0000
3002
0000
0000
0000
,
0203
0000
0300
0000
,
0010
0000
0000
1000
0000
0000
0001
0000
0010
0000
0000
0000
0100
0000
0000
0000
,
1000
0000
0000
0001
0000
0000
0100
0000
0010
0000
0000
0000
1000
0000
0000
0000
,
0000
0000
0000
0000
0002
0000
0000
0000
2003
0000
0000
0000
3010
0000
0100
0001
,
1000
0000
1000
0000
0100
0000
0010
0001
1000
0000
1000
0000
0010
0000
0100
0001
,
1000
1000
0100
0010
0002
0000
0000
0000
,
1003
0010
0001
0000
0010
0000
0010
0000
1000
0100
0001
0000
0100
0000
0100
0000
,
1000
0000
0000
0010
0000
0000
0001
0000
0000
0000
0000
0000
0010
0000
0000
0000
0000
0000
0010
0000
0000
0000
0000
0000
1000
0000
0000
0000
0100
0000
0000
0000
0001
0000
0000
0000
0200
0000
0000
0000
0000
0000
0000
0000
0000
0000
0000
0000
,
0320
0130
0000
0000
,
0000
0000
0000
0000
,
0000
1000
1000
0001
,
0001
0100
0100
0010
,
0010
0100
1001
0000
0001
0100
1000
0000
,
0110
0000
0202
0000
0303
0000
0001
1000
,
0001
0000
1001
0000
1000
0100
0001
0000
,
0110
2200
3300
0100
,
0010
0000
1001
0000
0001
0000
1000
0100
,
0001
0000
0100
0000
0010
0001
0100
0000
,
0010
0000
1001
0000
0001
0100
0010
1000
,
0100
0000
1001
0000
1000
0100
0010
0001
,
0100
0000
1001
0000
0001
0100
1000
0100
,
0001
0202
0303
1000
,
0001
0100
1000
0000
0100
0000
0010
1000
,
0100
2200
3300
0100
,
0010
1001
0001
0100
,
1000
0000
0000
0010
0000
0000
0001
0000
0000
0100
0010
0100
,
0010
0100
0010
0200
0000
0000
0300
0000
0000
0000
0000
0000
;

//---------------dance-single - ----------------
#NOTEDATA:;
#CHARTNAME:;
#STEPSTYPE:dance-single;
#DESCRIPTION:;
#CHARTSTYLE:;
#DIFFICULTY:Easy;
#METER:7;
#RADARVALUES:0.223207,0.284659,0.195306,0.085935,0.000000,200.000000,175.000000,25.000000,11.000000,0.000000,0.000000,0.000000,0.000000,0.000000,0.223207,0.284659,0.195306,0.085935,0.000000,200.000000,175.000000,25.000000,11.000000,0.000000,0.000000,0.000000,0.000000,0.000000;
#CREDIT:clunksquelch;
#DISPLAYBPM:75.000000:150.000000;
#NOTES:
0000
0000
0000
0000
,
0000
0000
0000
0000
,
0000
0000
0000
0000
,
0000
0000
0000
0000
,
1001
0000
0001
0100
,
1000
0000
0001
0010
,
1000
0000
0001
0010
,
1000
0010
0001
0000
,
1001
1000
0010
0010
,
0000
0000
0100
0000
0001
1000
0001
0000
,
0000
1000
0100
0100
,
0000
0000
0010
0000
0001
1000
0001
0000
,
1001
0000
0100
0010
,
1001
0000
0100
0010
,
1001
0000
0001
0000
,
1000
0100
0001
0000
,
0110
0000
0001
1000
,
0110
0000
0001
1000
,
0110
0000
0001
0000
,
2000
0000
0000
3000
,
1001
0000
0001
0100
,
1000
0000
0110
0000
,
1001
0000
1000
0100
,
0001
0000
0110
0000
,
1002
0000
0100
0000
,
1000
0000
0013
0000
,
1001
0000
0001
0100
,
0010
0000
1000
0100
,
0010
0000
0001
0010
,
1000
0000
0110
0000
,
1001
0000
1000
0010
,
0001
0000
0110
0000
,
2001
0000
0010
0000
,
0001
0000
3100
0000
,
1001
0000
1000
0010
,
0100
0000
0020
0000
,
0130
0000
0000
0000
,
0001
0000
0000
0000
,
1000
0000
0000
0000
,
0200
0000
0000
0000
,
0310
0000
0000
0000
,
0001
1000
0001
0000
,
0100
0010
0100
0000
,
0020
0000
0000
1030
,
0010
0000
0001
0010
1000
0000
0001
0010
,
1000
0000
0001
0100
2000
0000
0000
0000
,
3001
0000
0100
0000
1000
0100
0001
0000
,
1000
0100
0001
0000
1000
0010
0002
0000
,
0000
1003
0000
0000
,
0000
0000
0000
0000
,
0000
0001
0001
1000
,
1000
0001
0001
1000
,
1000
0001
1001
0000
0000
0000
1000
0000
,
0010
0001
0000
0010
,
0100
1001
0000
0001
,
0010
1000
0000
0010
,
0100
1002
0000
0100
,
0100
0100
0000
1003
,
0000
1001
0000
0001
,
0100
0010
1000
0100
,
0010
0000
0001
0000
0000
0000
1000
0001
,
1000
0000
0010
0100
,
0010
0000
1001
0000
0001
0000
0010
0100
,
0010
0100
0000
0010
,
0100
2001
0000
0010
,
0010
3010
0000
0020
,
0000
0130
0000
0000
;
