#VERSION:0.83;
#TITLE:Debug Dance;
#SUBTITLE:;
#ARTIST:lapix;
#TITLETRANSLIT:;
#SUBTITLETRANSLIT:;
#ARTISTTRANSLIT:;
#GENRE:;
#ORIGIN:;
#CREDIT:;
#BANNER:;
#BACKGROUND:;
#PREVIEWVID:;
#JACKET:;
#CDIMAGE:;
#DISCIMAGE:;
#LYRICSPATH:;
#CDTITLE:;
#MUSIC:Debug Dance.ogg;
#OFFSET:-0.000404;
#SAMPLESTART:89.007004;
#SAMPLELENGTH:15.000000;
#SELECTABLE:YES;
#BPMS:0.000=151.000;
#STOPS:;
#DELAYS:;
#WARPS:;
#TIMESIGNATURES:0.000=4=4;
#TICKCOUNTS:0.000=4;
#COMBOS:0.000=1;
#SPEEDS:0.000=1.000=0.000=0;
#SCROLLS:0.000=1.000;
#FAKES:;
#LABELS:0.000=Song Start;
#BGCHANGES:;
#KEYSOUNDS:;
#ATTACKS:
;

//---------------dance-single - ----------------
#NOTEDATA:;
#CHARTNAME:;
#STEPSTYPE:dance-single;
#DESCRIPTION:;
#CHARTSTYLE:;
#DIFFICULTY:Easy;
#METER:10;
#RADARVALUES:0.445900,0.453092,0.318843,0.318843,0.067125,372.000000,334.000000,38.000000,38.000000,0.000000,0.000000,0.000000,0.000000,0.000000,0.445900,0.453092,0.318843,0.318843,0.067125,372.000000,334.000000,38.000000,38.000000,0.000000,0.000000,0.000000,0.000000,0.000000;
#CREDIT:milkychief;
#NOTES:
0000
0000
0000
0000
,
0000
0000
0000
0000
,
0000
0000
0000
0000
,
0000
0000
0000
0000
,
0001
0010
0100
1000
,
0001
0000
0000
0000
0100
0000
0000
0000
0010
0000
0000
0010
0000
0000
0000
0000
,
1002
0013
2001
3010
,
0100
0010
0100
0020
0000
0000
1030
0000
,
0001
0010
0100
0000
0010
0000
1000
0000
,
0010
0100
1000
0000
0001
0000
0100
0100
,
0010
0000
0000
1000
0000
0000
0001
0000
0000
1000
0000
0000
0010
0000
0000
0000
,
1000
0001
1000
0001
0000
0000
0000
0000
,
1000
0100
0010
0000
0100
0000
0001
0000
,
0100
0010
0001
0000
1000
0001
1000
0000
,
0020
0000
0000
0000
,
0000
0000
0100
0100
,
1030
0000
1001
0001
0010
0000
0100
0001
,
0200
0001
0010
1300
,
0001
0100
0010
0000
1000
0100
0010
0000
,
0011
1010
0021
0130
,
1000
0100
1000
1000
0001
0000
0100
1000
,
0200
1000
0010
0301
,
1001
0110
1001
0110
,
1001
0000
0000
0000
0000
0000
0000
0000
0000
1000
0000
0000
0001
0000
0000
0000
,
1000
1010
0000
0000
0001
0011
0000
0000
,
1000
0000
0000
0010
0000
0000
0001
0000
0000
0010
0000
0000
1000
0000
0000
0000
,
0001
0101
0000
0000
1000
1100
0000
0000
,
0001
0000
0000
0100
0000
0000
1000
0000
0000
0100
0000
0000
0001
0000
0000
0000
,
1001
1000
0010
0100
,
0001
1000
0100
0010
,
0001
1000
0001
1000
0001
1000
0002
0000
,
0103
0000
0000
0100
0000
0000
0100
0000
0100
0000
0000
0000
0110
0000
0000
0000
,
1001
0000
0001
0010
0100
2000
0000
0000
,
3002
0203
0320
2030
,
3001
0000
1000
0100
0010
0002
0000
0000
,
2003
3020
0230
0302
,
1003
0000
0001
0010
0100
2000
0000
0000
,
3002
0203
0320
2030
,
3001
0000
1000
0100
0010
0002
0000
0000
,
2003
3020
0230
0301
,
1001
0000
1000
0100
0010
0001
1000
0000
,
2010
3100
0012
0103
,
1001
0000
0001
0100
0010
1000
0001
0000
,
0012
0103
2010
3100
,
1001
0000
1000
0100
0010
0001
1000
0000
,
2010
3100
0012
0103
,
1001
0010
1001
0100
,
1001
0000
0000
0000
0110
0000
0000
0000
1001
0000
0000
1000
0000
0001
0000
0000
,
1000
0100
0010
0000
0100
0010
0001
0000
,
1000
0010
0100
0001
,
1000
0100
1000
0001
0100
0001
1000
0000
,
0001
0010
0100
1000
,
2001
0010
0001
3000
,
1002
0010
1000
0003
,
1010
0011
1010
0011
,
0010
0100
0010
0100
2000
0000
3001
0000
,
1000
0100
1000
0000
0001
0100
0010
0000
,
0001
0000
0001
0000
0010
0100
0001
0000
,
1000
0010
1000
0000
0001
0010
0100
0000
,
0001
0000
0000
0000
0001
0000
0000
0000
0200
0000
0000
0010
0000
0000
1300
0000
,
0001
0010
0001
0000
1000
0010
0100
0000
,
1000
0000
1000
0000
0100
0010
1000
0000
,
0001
0100
0001
0000
1000
0100
0010
0000
,
1000
0000
0000
0010
0000
0100
0000
0010
0000
0000
0000
0000
0001
0000
0000
0000
,
1000
0001
0100
0001
1000
0100
0010
0000
,
1000
0000
1000
0000
0010
0100
1000
0000
,
0001
1000
0100
1000
0001
0100
0010
0000
,
0001
0000
0000
0000
0001
0000
0000
0000
0020
0000
0000
0100
0000
0000
1030
0000
,
0001
0010
0001
0010
0100
0010
0100
0010
,
1000
0000
1000
0000
0010
0100
1000
0000
,
0001
0100
0001
0100
0010
0100
0010
0100
,
1000
0000
1000
0000
0100
0010
1000
0000
,
0001
0000
0000
0000
;

//---------------dance-single - ----------------
#NOTEDATA:;
#CHARTNAME:;
#STEPSTYPE:dance-single;
#DESCRIPTION:;
#CHARTSTYLE:;
#DIFFICULTY:Medium;
#METER:14;
#RADARVALUES:0.710804,0.724948,0.352405,0.318843,0.578951,593.000000,551.000000,42.000000,38.000000,0.000000,0.000000,0.000000,0.000000,0.000000,0.710804,0.724948,0.352405,0.318843,0.578951,593.000000,551.000000,42.000000,38.000000,0.000000,0.000000,0.000000,0.000000,0.000000;
#CREDIT:milkychief;
#NOTES:
0000
0000
0000
0000
,
0000
0000
0000
0000
,
0000
0000
0000
0000
,
0000
0000
0000
0000
,
1000
0000
0010
0000
1000
0000
0001
0000
0020
0000
0000
0100
0000
0000
0031
0000
,
2000
0000
0010
0000
0000
3001
0000
0000
0011
0000
0000
1100
0000
0000
1000
0000
,
1001
0000
0010
0000
0100
0000
0001
0000
1002
0000
0000
0010
0000
0000
1003
0000
,
0100
1000
0001
0100
0010
0100
0001
0001
,
1001
0000
1000
0000
0100
0000
0000
0010
0000
0100
0010
0000
1000
0000
0010
0000
,
0001
0000
1000
0000
0010
0000
0000
0100
2000
0000
3100
0000
0010
0000
0010
0000
,
1000
0000
0000
1000
0000
0000
0001
0000
0000
0001
0000
0000
0010
0000
0100
0000
,
1000
0000
1000
0000
1000
0000
1000
0000
0001
0100
0020
0000
0000
1030
0000
0000
,
1001
0000
0001
0000
0010
0000
0000
0100
0000
0010
0100
0000
0001
0000
0100
0000
,
1000
0000
0001
0000
0100
0000
0010
0100
0010
0000
1000
0001
2000
0000
0000
0000
,
3100
0000
0000
0000
0010
0000
0000
0000
0001
0000
0000
0000
1000
0000
0000
0000
0000
0000
0010
0000
0000
0100
0000
0000
0000
0000
0000
0100
0000
0000
0001
0000
0000
0000
0000
0000
0010
0000
0000
0100
0000
0000
0000
0000
0000
0100
0000
0000
,
1000
0001
2000
0000
0000
0010
0000
0000
3001
0000
0010
0000
0001
0000
0010
0000
,
0200
0000
0010
0000
1300
0000
0100
1000
0001
0000
1000
0000
0010
0000
0100
1000
,
0200
0000
1000
0000
0000
0010
0000
0000
0301
0000
1000
0000
0100
0000
0010
0000
,
0110
0001
2002
3003
0110
1000
2002
3003
,
0110
0000
0001
0000
0110
0000
1000
0000
0110
0000
0001
0000
1000
0100
1000
0000
,
0100
0000
0010
0000
0100
0000
0010
0001
1000
0000
0001
0000
0100
0000
0010
0001
,
0020
0000
0001
0000
0000
0100
0000
0000
1030
0000
0001
0000
0010
0000
0100
0000
,
1001
0010
1001
0100
1001
0010
1001
0100
,
1001
0000
2000
0000
0000
3010
0000
0000
0100
0010
0000
0100
0010
0000
0100
0000
,
0010
1000
0100
0000
0010
0000
0100
0000
0010
0001
0100
0000
0010
0000
0100
0000
,
0101
0000
0000
1100
0000
0000
0101
0000
0000
1100
0000
0000
0100
0000
0010
0000
,
0100
1000
0010
0000
0100
0000
0010
0000
0100
0001
0010
0000
0100
0000
0010
0000
,
0011
0000
0000
1010
0000
0000
0011
0000
0000
1010
0000
0000
1000
0000
0010
0000
,
0001
0010
1000
0001
,
1000
0100
0010
0000
0001
0010
0100
0000
,
1000
0100
1000
0000
0001
0100
0001
0000
1000
0100
1000
0000
0100
0002
0000
0000
,
0103
0000
0010
0100
0000
0000
0100
0000
0100
0000
0000
0000
0110
0000
0000
0000
,
1001
0000
1000
0100
0010
0002
0000
0000
,
1003
0200
0000
0000
1300
0002
0000
0000
1003
0200
0000
0000
1300
0000
0001
0000
,
1001
0000
1000
0010
0100
0002
0000
0000
,
1003
0020
0000
0000
1030
0002
0000
0000
1003
0010
0000
0100
0000
0010
0100
0000
,
1001
0000
0001
0010
0100
2000
0000
0000
,
3001
0020
0000
0000
0031
2000
0000
0000
3001
0020
0000
0000
0031
0000
1000
0000
,
1001
0000
0001
0100
0010
2000
0000
0000
,
3100
0100
0100
0100
0010
0001
1000
0010
,
0110
0000
0001
0010
0100
1000
0001
0100
,
0010
0100
0000
0010
0100
0001
0000
1000
0001
1000
0000
0001
0010
0000
0100
0000
,
0110
0000
1000
0010
0100
0001
1000
0100
,
0010
0100
0000
0010
0100
1000
0000
0001
0100
0000
0010
0000
0100
0010
0100
0010
,
1000
0000
0001
0010
0100
1000
0001
0100
,
0010
0100
0000
0010
0100
0001
0000
1000
0001
1000
0000
0001
0010
0000
0100
0000
,
0110
0001
1000
0010
0110
1000
0001
0010
,
0110
0000
0001
0000
0110
0000
1000
0000
0110
0000
0001
1000
0000
0001
0000
0000
,
1001
1000
0010
0100
0001
1000
0100
1000
,
0001
0000
0000
0100
0000
0010
0100
0000
0010
0000
1000
0000
0001
0000
1000
0000
,
0100
0000
0010
0000
0100
0000
0010
0100
0000
0010
0001
0000
0010
0100
0000
0010
,
0001
0000
1000
0000
0010
0000
0100
0000
0001
0000
0000
0001
0000
0000
0001
0000
,
1002
0000
0000
0010
0000
0000
1003
0000
0200
0000
0000
0320
0000
0000
0031
0000
,
2001
0000
0000
0010
0000
0000
3001
0000
0200
0000
0000
0320
0000
0000
1030
0000
,
0001
0010
1000
0010
0001
0010
1000
0010
,
0001
1000
1000
1000
0010
0100
0001
0000
,
1000
0000
0100
0010
0000
0010
0001
0000
1000
0000
0010
0100
0000
0010
0100
0000
,
1000
0000
1000
0000
0100
0000
0001
0000
0010
0000
0000
0010
0000
0000
0001
0000
,
1000
0000
0010
0100
0000
0100
0001
0000
1000
0000
0100
0010
0000
0100
0010
0000
,
1000
0000
1000
0000
0010
0000
0001
0000
0200
0000
0000
0320
0000
0000
1030
0000
,
0001
0000
0010
0100
0000
0100
1000
0000
0001
0000
0100
0010
0000
0100
0010
0000
,
0001
0000
0001
0000
0010
0000
1000
0000
0100
0000
0000
0100
0000
0000
1000
0000
,
0001
0000
0100
0010
0000
0010
1000
0000
0001
0000
0010
0100
0000
0010
0100
0000
,
0001
1000
0000
0001
0000
1000
0000
0001
0000
0000
0100
0000
1000
0000
1000
0000
,
0001
0000
0100
0010
0000
0010
1000
0000
0001
0010
0000
0100
0000
0000
0010
0000
,
1000
0000
1000
0000
0010
0000
0001
0000
0100
0000
0000
0100
0000
0000
0001
0000
,
1000
0100
1000
0000
0010
0100
0001
0000
1000
0000
0100
0010
0000
0100
0010
0000
,
1000
0000
1000
0000
0010
0000
0100
0010
0100
1000
0000
0002
0000
0000
0103
0000
,
0010
0000
0010
0000
1000
0001
0010
0001
0100
0000
0100
0000
0001
1000
0100
0010
,
1000
0000
1000
0000
0010
0000
0001
0000
0100
0010
0000
0100
0010
0000
1000
0000
,
0001
0010
0100
0010
0000
0100
1000
0000
0001
1000
0001
0100
0000
0010
0100
1000
,
0001
0000
0001
0000
0010
0000
1000
0000
0100
0010
0100
0020
0000
0000
0031
0000
,
1001
0000
0000
0000
;

//---------------dance-single - ----------------
#NOTEDATA:;
#CHARTNAME:;
#STEPSTYPE:dance-single;
#DESCRIPTION:;
#CHARTSTYLE:;
#DIFFICULTY:Hard;
#METER:17;
#RADARVALUES:0.942144,0.996803,0.310452,0.192984,1.283762,786.000000,749.000000,37.000000,23.000000,0.000000,0.000000,0.000000,0.000000,0.000000,0.942144,0.996803,0.310452,0.192984,1.283762,786.000000,749.000000,37.000000,23.000000,0.000000,0.000000,0.000000,0.000000,0.000000;
#CREDIT:milkychief;
#NOTES:
// measure 0
0000
0000
0000
0000
,  // measure 1
0000
0000
0000
0000
,  // measure 2
0000
0000
0000
0000
,  // measure 3
0000
0000
0000
0000
,  // measure 4
1000
0000
0001
0010
0001
0000
1000
0010
2000
0000
0000
3002
0000
0000
0013
0000
,  // measure 5
0100
0000
1000
0010
0000
0100
0001
0000
0011
0000
0000
1100
0000
0000
1000
0000
,  // measure 6
1001
0000
0001
0100
0010
0100
0001
0000
1001
0000
1000
0100
0000
0010
0001
0000
,  // measure 7
1000
0000
0001
0000
1000
0000
0001
0000
0000
0000
0000
0000
0100
0000
0000
0010
0000
0000
2000
0000
0000
0000
0000
0000
0001
0000
0000
0000
0000
0000
3100
0000
0000
0000
0000
0000
0010
0000
0000
0000
0000
0000
0010
0000
0000
0000
0000
0000
,  // measure 8
1001
0000
0001
0100
0010
0000
1000
0010
0000
1000
0001
0000
0010
0000
1000
0000
,  // measure 9
0010
0100
0000
0010
0001
0000
1000
0010
0002
0000
0013
0000
0100
0010
0100
0010
,  // measure 10
1000
0000
0000
0100
0000
0000
0001
0000
0000
0100
0000
0000
1000
0001
0100
0000
,  // measure 11
1001
0000
1010
0000
0011
0000
1001
0000
1000
1000
0020
0000
0000
0130
0000
0000
,  // measure 12
1001
0000
0001
0010
0100
0000
1000
0100
0000
1000
0001
0000
0100
0000
1000
0000
,  // measure 13
0100
0010
0000
0100
0001
0000
1000
0100
0001
0000
0001
0100
2000
0000
0000
0000
,  // measure 14
3001
0000
0000
0000
0010
0000
0000
0000
0001
0000
0000
0000
1000
0000
0000
0010
0000
0000
0100
0000
0000
0001
0000
0000
0010
0000
0000
0001
0000
0000
1000
0000
0000
0100
0000
0000
0010
0000
0000
0001
0000
0000
0100
0000
0000
0001
0000
0000
,  // measure 15
1000
0000
0000
1000
0000
0000
0020
0000
0000
0000
0000
0000
0000
0000
0000
0130
0000
0000
0000
0000
0000
0000
0000
0000
0001
0000
1000
0000
0001
0000
1000
0000
0000
0000
0000
0000
0001
0000
0000
0000
0000
0000
1000
0000
0000
0000
0000
0000
,  // measure 16
0002
0000
0100
0000
0013
0000
0100
0100
1000
0000
0001
0000
0100
0000
1000
0001
,  // measure 17
0010
0000
0100
0010
0000
0100
0001
0000
1000
0001
0010
0000
0001
1000
0100
0010
,  // measure 18
1000
0000
0010
0100
0002
0000
0000
0000
0103
0000
0010
0000
2000
0000
0000
0000
,  // measure 19
3010
0000
0001
0000
0110
0000
1000
0000
0110
0000
0001
0000
1000
0100
0010
0000
,  // measure 20
0110
0000
0001
0000
0100
0000
0010
0010
1000
0000
1000
0000
0100
0000
0001
1000
,  // measure 21
0010
0000
0100
0010
0000
0200
1000
0000
0310
0000
0001
0000
0100
0010
1000
0000
,  // measure 22
1001
0000
0010
0000
1001
0000
0100
0000
1001
0000
0010
0000
1000
0001
0010
0000
,  // measure 23
0110
0000
0001
0000
1000
0100
0000
0100
0000
0011
0000
1000
0010
0100
0001
0000
,  // measure 24
1000
0100
0001
0000
0100
1000
0001
0000
1000
0010
0001
0000
0010
1000
0001
0000
,  // measure 25
1001
0000
0000
0011
0000
0000
1010
0000
0000
1001
0000
0000
0001
1000
0100
1000
,  // measure 26
0001
0100
1000
0000
0100
0001
1000
0000
0001
0010
1000
0000
0010
0001
1000
0000
,  // measure 27
1001
0000
0000
1010
0000
0000
0011
0000
0000
0001
1000
0100
0010
0001
1000
0010
,  // measure 28
0001
0010
1000
0001
,  // measure 29
1000
0100
0010
0001
1000
0010
0100
0001
,  // measure 30
1000
0100
0010
0100
1000
0001
0100
0001
1000
0100
0010
0001
0100
2000
0000
0000
,  // measure 31
3100
0000
0100
0100
0000
0000
0100
0000
0100
0000
0000
0000
0110
0000
0000
0000
,  // measure 32
1001
0000
0000
0000
1000
0100
0010
0001
1000
0010
0200
0000
0000
0000
0000
0000
,  // measure 33
0301
2000
0000
0000
3001
0200
0000
0000
0301
2000
0000
0000
3100
0000
0110
0000
,  // measure 34
1001
0000
0000
0000
0001
0100
0010
1000
0001
0010
0200
0000
0000
0000
0000
0000
,  // measure 35
1300
0002
0000
0000
1003
0010
0000
0100
0010
1000
0000
1000
0000
1000
0001
0000
,  // measure 36
1000
0100
0010
0001
1000
0010
0100
0001
1000
0100
0010
0001
1000
0001
0010
0001
,  // measure 37
1000
0010
0100
0010
1000
0100
0010
0100
1000
0010
0100
0010
1000
0001
0010
0001
,  // measure 38
0100
0010
0100
0001
1000
0100
0010
0001
0100
0010
1000
0100
0010
0001
0100
0010
,  // measure 39
1000
0000
1000
0000
1000
0000
1000
0000
0001
0010
0100
1000
0001
1000
0100
1000
,  // measure 40
0010
0000
1000
0001
0010
0100
1000
0001
0100
0010
1000
0000
0001
0000
0010
0000
,  // measure 41
0100
0010
0000
0010
0001
0100
0000
0100
0010
1000
0000
1000
0001
0010
0001
1000
,  // measure 42
0100
0000
1000
0001
0100
0010
1000
0001
0010
0100
1000
0000
0001
0000
0100
0000
,  // measure 43
0010
0100
0000
0100
0001
0010
0000
0010
0100
1000
0001
1000
0010
0100
0001
0000
,  // measure 44
0010
0000
0001
1000
0010
0100
0001
1000
0100
0010
0001
0000
1000
0000
0010
0000
,  // measure 45
0100
0010
0000
0010
1000
0100
0000
0100
0010
0001
0000
0001
1000
0010
1000
0001
,  // measure 46
0100
0000
0001
1000
0100
0010
0001
1000
0010
0100
0001
0000
1000
0000
0100
0000
,  // measure 47
0110
0000
1000
0000
0110
0000
0001
0000
0110
0000
1000
1000
0000
1001
0000
0000
,  // measure 48
0001
0000
0100
0010
1000
0010
0100
0000
0001
1000
0100
1000
0001
0010
0100
0000
,  // measure 49
1000
0100
1000
0001
0000
0010
0001
0000
1000
0010
0100
0000
0001
0010
0100
0000
,  // measure 50
1000
0010
0100
0001
1000
0000
0001
0010
0000
1000
0010
0000
0001
0010
0000
1000
,  // measure 51
0010
0100
1000
0001
0100
0010
1000
0001
0010
0001
1000
0010
1000
0001
0010
0001
,  // measure 52
1000
0000
0010
0100
0000
0010
0100
0000
0002
0000
0000
0100
0000
0000
1003
0000
,  // measure 53
0001
0000
0010
0100
0000
0010
0100
0000
2000
0000
0000
0100
0000
0000
3001
0000
,  // measure 54
1000
0010
0100
0010
1000
0100
0010
0100
1000
0010
0001
0010
1000
0100
0001
0100
,  // measure 55
1000
0000
0010
0000
0010
0000
0010
0000
0100
0000
0001
0010
1000
0000
0000
0000
,  // measure 56
0010
0100
1000
0001
0000
0001
0100
0010
1000
0001
0010
0100
0000
1000
0001
0100
,  // measure 57
1000
0000
1000
0000
0100
0000
0010
0000
0100
0001
0000
0002
0000
0000
1003
0100
,  // measure 58
0010
0001
0010
0100
0000
0100
1000
0001
0100
0010
0100
0001
0000
0001
1000
0100
,  // measure 59
0001
0000
0001
0000
0100
0000
0010
0000
0100
1000
0000
0002
0000
0000
0103
0000
,  // measure 60
0010
0100
0001
1000
0000
1000
0100
0010
0001
1000
0010
0100
0000
0001
1000
0100
,  // measure 61
0001
0000
0001
0000
0100
0000
0010
0000
0100
1000
0000
2000
0000
0000
3001
0100
,  // measure 62
0010
1000
0010
0100
0000
0100
0001
1000
0100
0010
0100
1000
0000
1000
0001
0100
,  // measure 63
0010
0010
0000
1010
0000
0101
0000
1010
0000
0000
1000
0000
0001
0000
0001
0000
,  // measure 64
0010
0100
1000
0001
0000
0001
1000
0010
0100
0001
0000
0010
0000
0100
0000
0010
,  // measure 65
1000
0000
1000
0000
0010
0000
0100
0000
0010
0001
0000
0001
0000
0000
1000
0000
,  // measure 66
0001
0100
1000
0000
0100
0001
0010
0100
1000
0001
0010
0001
1000
0010
0100
0010
,  // measure 67
0001
0000
0001
0000
0010
0000
0100
0010
0100
0001
1000
0100
0010
0001
0100
0000
,  // measure 68
0010
0100
0001
1000
0100
0010
0100
0010
0001
1000
0010
0100
1000
0100
0001
0010
,  // measure 69
1000
0000
1000
0010
0100
0010
0001
1000
0010
0100
0000
0100
0001
0000
1000
0100
,  // measure 70
0010
0001
0010
0100
0000
0100
1000
0001
0100
0010
0100
0010
1000
0001
0010
1000
,  // measure 71
0001
0100
0010
0100
1000
0010
0100
0010
0001
0010
0100
0001
0000
0000
1000
0000
,  // measure 72
1001
0000
0000
0000
;
