#VERSION:0.83;
#TITLE:Dawnbreaker;
#SUBTITLE:;
#ARTIST:Metrik;
#TITLETRANSLIT:;
#SUBTITLETRANSLIT:;
#ARTISTTRANSLIT:;
#GENRE:;
#ORIGIN:;
#CREDIT:;
#BANNER:;
#BACKGROUND:;
#PREVIEWVID:;
#JACKET:;
#CDIMAGE:;
#DISCIMAGE:;
#LYRICSPATH:;
#CDTITLE:;
#MUSIC:Dawnbreaker.ogg;
#OFFSET:0.000000;
#SAMPLESTART:35.862999;
#SAMPLELENGTH:15.000000;
#SELECTABLE:YES;
#BPMS:0.000=174.000;
#STOPS:;
#DELAYS:;
#WARPS:;
#TIMESIGNATURES:0.000=4=4;
#TICKCOUNTS:0.000=4;
#COMBOS:0.000=1;
#SPEEDS:0.000=1.000=0.000=0;
#SCROLLS:0.000=1.000;
#FAKES:;
#LABELS:0.000=Song Start;
#BGCHANGES:;
#KEYSOUNDS:;
#ATTACKS:
;

//---------------dance-single - ----------------
#NOTEDATA:;
#CHARTNAME:;
#STEPSTYPE:dance-single;
#DESCRIPTION:;
#CHARTSTYLE:;
#DIFFICULTY:Easy;
#METER:5;
#RADARVALUES:0.273503,0.300464,0.006813,0.115825,0.000000,281.000000,280.000000,1.000000,17.000000,0.000000,0.000000,0.000000,0.000000,0.000000,0.273503,0.300464,0.006813,0.115825,0.000000,281.000000,280.000000,1.000000,17.000000,0.000000,0.000000,0.000000,0.000000,0.000000;
#CREDIT:gnutunnel;
#NOTES:
0000
0000
0000
0000
,
0000
0000
0000
0000
,
0000
0000
0000
0000
,
0000
0000
0000
0000
,
0000
0000
0000
0000
,
0000
0000
0000
0000
,
1000
0001
1000
0010
,
1000
0100
1000
0001
,
0010
0010
0010
0010
,
0100
0010
0100
0010
,
0002
0000
0003
0100
,
0010
0000
0100
0100
,
0002
0000
0003
1000
,
0100
0000
1000
1000
,
0020
0000
0030
0100
,
0001
0000
0010
0100
,
2000
0000
3000
0001
,
0010
0000
0001
0001
,
1000
0000
0001
0000
,
0100
0000
0010
0000
,
1000
0000
0100
0000
,
0010
0000
0001
0000
,
1000
0001
1000
0001
,
0100
0010
0100
0010
,
1000
0001
0100
0010
,
0200
0000
0000
0300
,
0001
1000
0010
1000
,
0001
0010
0100
1000
,
0010
0100
0001
1000
,
0010
1000
0100
1000
,
0001
0100
0010
1000
,
0001
0010
0100
1000
,
0001
0100
0001
1000
,
0100
0010
0100
1000
,
0001
1000
0010
0100
,
0001
0010
0100
1000
,
0010
0100
0001
1000
,
0001
0010
0001
0100
,
0001
1000
0010
0100
,
0001
0010
0100
1000
,
0001
1000
0010
1000
,
0100
0010
0100
0010
,
0002
0003
0000
2000
3000
0000
0002
0003
,
0000
0200
0300
0000
0200
0300
0000
0000
,
0000
0000
0000
0000
,
0000
0000
0000
0000
,
0002
0003
0000
2000
3000
0000
0200
0300
,
0000
0020
0030
0000
0020
0030
0000
0000
,
0000
0000
0000
0000
,
0000
0000
0000
0000
,
0001
0000
0000
0000
,
1000
0000
0000
0000
,
0001
0000
0000
0000
,
0100
0000
0000
0000
,
0001
0000
0000
0000
,
1000
0000
0000
0000
,
0001
0000
0000
0000
,
0010
0000
0000
0000
,
0100
0010
0100
0000
,
1000
0001
1000
0000
,
0100
0010
0100
0000
,
1000
0010
1000
0000
,
0001
0100
0010
0000
,
0100
0001
1000
0000
,
0100
0010
0001
1000
,
0002
0000
0000
0000
,
1003
0001
1000
0010
,
0100
0001
0010
0100
,
1000
0001
1000
0010
,
1000
0001
0010
0100
,
1000
0001
0100
0001
,
0010
0100
1000
0010
,
0100
0010
1000
0010
,
1000
0100
0010
0100
,
1000
0001
0100
0001
,
0010
0100
1000
0001
,
1000
0010
0100
0001
,
1000
0001
0100
0001
,
0010
0100
0010
0001
,
0100
0010
1000
0100
,
1000
0001
0100
0010
,
1000
0100
0010
0100
,
1000
0000
0000
0001
0000
0000
0010
0000
,
0000
0100
0000
0000
0100
0000
0000
0000
,
1000
0010
0100
0001
,
1000
0010
0100
0000
,
0001
0000
0000
1000
0000
0000
0100
0000
,
0000
0010
0000
0000
0010
0000
0000
0000
,
0001
0100
0010
1000
,
0001
1000
0010
0100
,
0001
0000
0000
0010
0000
0000
0100
0000
,
0000
1000
0000
0000
1000
0000
0000
0000
,
0001
0100
0001
1000
,
0001
0100
0001
0010
,
0100
0100
0100
0100
,
1000
1000
1000
1000
,
0010
0010
0100
0100
,
0002
0000
1003
1000
,
1001
0000
0000
0000
;

//---------------dance-single - ----------------
#NOTEDATA:;
#CHARTNAME:;
#STEPSTYPE:dance-single;
#DESCRIPTION:;
#CHARTSTYLE:;
#DIFFICULTY:Medium;
#METER:11;
#RADARVALUES:0.380568,0.434004,0.013626,0.163518,0.000000,391.000000,389.000000,2.000000,24.000000,0.000000,0.000000,0.000000,0.000000,0.000000,0.380568,0.434004,0.013626,0.163518,0.000000,391.000000,389.000000,2.000000,24.000000,0.000000,0.000000,0.000000,0.000000,0.000000;
#CREDIT:gnutunnel;
#NOTES:
// measure 0
0000
0000
0000
0000
,  // measure 1
0000
0000
0000
0000
,  // measure 2
0000
0000
0000
0000
,  // measure 3
0000
0000
0000
0000
,  // measure 4
0000
0000
0000
0000
,  // measure 5
0000
0000
0000
0000
,  // measure 6
1000
0010
1000
0001
,  // measure 7
0010
0100
1000
0001
,  // measure 8
1000
1000
0001
0001
,  // measure 9
0100
0000
0100
0000
0010
0100
0010
0000
,  // measure 10
0200
0010
0001
0001
,  // measure 11
0010
0001
0010
0301
,  // measure 12
2000
0100
0010
0010
,  // measure 13
0100
0010
0100
3001
,  // measure 14
0002
0100
0010
0010
,  // measure 15
0100
0010
0100
1003
,  // measure 16
0020
1000
0100
0100
,  // measure 17
1000
0100
1000
0130
,  // measure 18
0100
0010
0100
0100
,  // measure 19
0001
1000
0001
0001
,  // measure 20
1000
0100
1000
1000
,  // measure 21
0001
0100
0001
0001
,  // measure 22
0010
0100
0010
0010
,  // measure 23
0001
1000
0001
0001
,  // measure 24
1000
0010
1000
1000
,  // measure 25
0002
0000
0000
0003
,  // measure 26
1000
0010
1000
0010
1000
0000
0001
0000
,  // measure 27
0100
0000
0010
0100
0010
0000
1000
0000
,  // measure 28
0001
0010
0001
0010
0001
0000
1000
0000
,  // measure 29
0010
0000
1000
0100
1000
0000
0001
0000
,  // measure 30
0100
0010
0100
0010
0100
0000
0001
0000
,  // measure 31
0010
0000
0100
1000
0100
0000
1000
0000
,  // measure 32
0001
1000
0001
1000
0001
0000
0010
0000
,  // measure 33
0100
1000
0100
1000
0100
0000
0010
0000
,  // measure 34
0001
1000
0001
0100
0001
0000
1000
0000
,  // measure 35
0010
0000
0100
0010
1000
0000
0010
0000
,  // measure 36
0100
0001
0100
0010
0100
0000
0001
0000
,  // measure 37
0010
0100
1000
0000
0001
0000
1000
0000
,  // measure 38
0010
1000
0010
0100
0010
0000
0100
0000
,  // measure 39
0001
0000
1000
0010
0100
0000
0001
0000
,  // measure 40
0010
0100
0010
0001
0010
0000
0100
0000
,  // measure 41
2000
0010
0100
3001
,  // measure 42
0200
0300
0000
0020
0030
0000
2000
3000
,  // measure 43
0000
0002
0003
0000
0002
0003
2000
0000
,  // measure 44
0000
0000
0000
0000
3000
0002
0000
0000
,  // measure 45
0000
0000
0000
0003
,  // measure 46
2000
3000
0000
0200
0300
0000
0020
0030
,  // measure 47
0000
0002
0003
0000
2002
0003
0000
0000
,  // measure 48
0000
0000
3002
0000
,  // measure 49
0000
0000
0000
0000
,  // measure 50
1003
0000
0001
0000
,  // measure 51
1000
0000
0010
0100
,  // measure 52
0010
0000
1000
0000
,  // measure 53
0001
0100
0010
0000
,  // measure 54
1000
0000
0100
0000
,  // measure 55
0010
0000
0001
1000
,  // measure 56
0001
0000
0100
0000
,  // measure 57
0010
1000
0001
0000
,  // measure 58
0100
0010
0100
0100
,  // measure 59
0001
1000
0001
0001
,  // measure 60
0010
0100
0010
0010
,  // measure 61
0100
1000
0100
0100
,  // measure 62
1000
0100
0010
0000
0001
0000
1000
0000
,  // measure 63
0001
0100
0010
0000
0100
0000
0010
0000
,  // measure 64
1000
0001
1000
0000
0001
0000
1000
0000
,  // measure 65
0002
0000
0000
0000
,  // measure 66
1003
0100
1000
0100
1000
0000
0001
0000
,  // measure 67
0010
0000
0100
0010
0100
0000
1000
0000
,  // measure 68
0001
1000
0001
1000
0001
0000
0100
0000
,  // measure 69
0001
0000
1000
0001
1000
0000
0010
0000
,  // measure 70
1000
0010
1000
0010
1000
0000
0001
0000
,  // measure 71
0010
0000
0100
1000
0100
0000
1000
0000
,  // measure 72
0010
0100
0010
0100
0010
0000
1000
0000
,  // measure 73
0001
1000
0001
0100
0001
0000
0100
0000
,  // measure 74
0001
0010
0001
0100
0001
0000
1000
0000
,  // measure 75
0100
0000
0010
0001
1000
0000
0001
0000
,  // measure 76
0100
0010
0100
0001
0100
0000
0010
0000
,  // measure 77
1000
0000
0001
1000
0100
0000
0010
0000
,  // measure 78
0001
0010
0001
1000
0001
0000
1000
0000
,  // measure 79
0010
0000
1000
0100
0010
0000
0001
0000
,  // measure 80
1000
0010
1000
0100
1000
0000
0001
0000
,  // measure 81
0100
0010
1000
0001
,  // measure 82
0010
0000
0010
0100
0000
0100
1000
0000
,  // measure 83
1000
0001
0000
0000
0001
0000
2000
0000
,  // measure 84
3100
1000
0001
0100
,  // measure 85
0010
1000
0001
0100
,  // measure 86
0001
0000
0001
0010
0000
0010
0001
0000
,  // measure 87
0001
0100
0000
0000
0010
0000
2000
0000
,  // measure 88
3001
0010
0100
1000
,  // measure 89
0001
0100
0010
1000
,  // measure 90
0100
0000
0100
0010
0000
0010
0001
0000
,  // measure 91
0001
1000
0000
0000
1000
0000
0002
0000
,  // measure 92
0103
0010
1000
0001
,  // measure 93
0010
0100
1000
0001
,  // measure 94
1000
0100
1000
1000
,  // measure 95
0001
1000
0001
0001
,  // measure 96
0010
0100
0010
0010
,  // measure 97
0100
0010
0100
0010
0100
0000
1000
0000
,  // measure 98
1001
0000
0000
0000
;

//---------------dance-single - ----------------
#NOTEDATA:;
#CHARTNAME:;
#STEPSTYPE:dance-single;
#DESCRIPTION:;
#CHARTSTYLE:;
#DIFFICULTY:Hard;
#METER:13;
#RADARVALUES:0.547006,0.600928,0.183958,0.218024,0.000000,562.000000,535.000000,27.000000,32.000000,0.000000,0.000000,0.000000,0.000000,0.000000,0.547006,0.600928,0.183958,0.218024,0.000000,562.000000,535.000000,27.000000,32.000000,0.000000,0.000000,0.000000,0.000000,0.000000;
#CREDIT:gnutunnel;
#NOTES:
0000
0000
0000
0000
,
0000
0000
0000
0000
,
0000
0000
0000
0000
,
0000
0000
0000
0000
,
0000
0000
0000
0000
,
0000
0000
0000
0000
,
1000
0000
0001
0010
0100
0000
1000
0000
,
0010
0000
1000
0100
0010
0000
0001
0000
,
1000
1000
0010
0010
0100
0100
0001
0001
,
1000
1000
0010
0010
1000
0001
1001
0000
,
0020
0100
1000
1000
,
0100
1000
0100
1030
,
0002
0010
0100
0100
,
0010
0100
1000
1003
,
2000
0010
0001
0001
,
0010
0001
0010
3100
,
0200
0010
1000
1000
,
0010
0001
0010
1300
,
0001
0100
0001
0001
,
1000
0010
1000
1000
,
0001
0010
0001
0001
,
1000
0100
1000
1000
,
0010
0100
0010
0100
0010
0000
0100
0000
,
0001
1000
0001
1000
0001
0000
1000
0000
,
0100
0010
0100
0010
0100
0010
0100
0010
,
0200
0000
0000
0300
,
1000
0100
0010
0001
1000
0010
1000
0100
,
1000
0100
0010
0001
0010
0100
1000
0100
,
1000
0100
0010
0001
0100
0010
1000
0100
,
0010
0100
1000
0100
0001
0100
1000
0000
,
0001
0100
0010
1000
0001
0100
0001
0010
,
0001
0100
0010
1000
0100
0010
0001
0100
,
0001
1000
0010
0100
0001
0010
0100
1000
,
0010
0100
0001
0100
1000
0100
0001
0000
,
1000
0100
0010
0001
1000
0010
1000
0100
,
1000
0100
0010
0001
0100
0010
1000
0100
,
1000
0100
0010
0001
1000
0010
0100
0001
,
1000
0100
1000
0010
0001
0010
1000
0000
,
0001
0100
0010
1000
0010
0100
0001
0010
,
0001
1000
0010
0100
0001
0010
0100
1000
,
0001
0100
0010
1000
0100
0010
0001
1000
,
0010
1000
0100
0001
0001
0100
1000
0000
,
0220
0330
0000
0202
0303
0000
0022
0033
,
0000
2002
3003
0000
2002
3003
0002
0000
,
0000
0000
0000
0000
0003
2000
0000
0000
,
0000
0000
0000
3000
,
0202
0303
0000
2020
3030
0000
2200
3300
,
0000
0220
0330
0000
0220
0030
0000
0000
,
0000
0000
0320
0000
,
0000
0000
0000
0000
,
0130
0001
0010
0001
,
1000
0010
0100
0010
,
1000
0001
0100
0010
,
1000
0100
1000
0010
,
1000
0001
1000
0100
,
0010
0001
0100
0010
,
1000
0010
1000
0001
,
0010
0100
0010
0100
0000
0000
0100
0000
,
1000
0001
1000
1000
,
0010
0100
0010
0010
,
1000
0100
1000
1000
,
0001
0100
0001
0001
,
1000
0100
0010
0000
0001
0010
0100
0000
,
1000
0010
0100
0000
0001
0100
0010
0000
,
0100
0010
0100
0010
0100
0010
0100
0010
,
0200
0000
0000
0000
,
0301
1000
0010
1000
0100
1000
0001
0100
,
0010
1000
0100
0010
0001
0010
0100
0010
,
0001
0100
0010
1000
0100
1000
0010
1000
,
0001
0010
0100
1000
0001
0010
0100
0010
,
0001
0100
0010
1000
0100
1000
0001
0100
,
0010
1000
0001
0010
0100
1000
0010
0100
,
0001
0100
0010
1000
0001
0100
0010
1000
,
0100
0001
0001
0100
1000
0000
0010
0100
,
0001
0100
0010
1000
0010
0100
0010
1000
,
0001
0010
0100
1000
0100
0010
0100
1000
,
0001
0100
0001
1000
0010
1000
0100
1000
,
0001
0010
0100
1000
0100
0010
0001
1000
,
0001
0100
0001
1000
0001
0100
0001
0010
,
0001
1000
0100
1000
0100
0010
0001
0010
,
0001
0100
0010
1000
0100
1000
0001
1000
,
0010
0001
0001
0010
1000
0000
0001
0010
,
0011
0000
1000
1010
0000
0010
0110
0000
,
0100
1001
0000
0010
1001
0000
2000
0001
,
3010
1000
0010
1000
0100
0000
0010
0001
,
1000
0001
1000
0010
0100
0000
0010
1000
,
1010
0000
0010
0110
0000
0100
0101
0000
,
0001
0110
0000
1000
0110
0000
0002
0010
,
0103
0010
0001
0010
0100
0000
0010
1000
,
0001
0010
0100
1000
0010
0100
0010
0000
,
0110
0000
0100
1100
0000
1000
1010
0000
,
0010
1001
0000
0100
1001
0000
0002
1000
,
0013
0001
0010
0100
1000
0000
0010
1000
,
0001
0100
0001
0010
0100
0000
1000
0001
,
1000
1000
0010
0010
0001
0001
0010
0010
,
1000
1000
0100
0100
0001
0001
0100
0100
,
1000
0001
1000
0001
1000
0001
1000
0001
,
0010
0100
1000
0010
1000
0001
0100
0010
,
1001
0000
0000
0000
;
