#VERSION:0.83;
#TITLE:Dad Vibes;
#SUBTITLE:;
#ARTIST:Limp Bizkit;
#TITLETRANSLIT:;
#SUBTITLETRANSLIT:;
#ARTISTTRANSLIT:;
#GENRE:;
#ORIGIN:;
#CREDIT:;
#BANNER:;
#BACKGROUND:;
#PREVIEWVID:;
#JACKET:;
#CDIMAGE:;
#DISCIMAGE:;
#LYRICSPATH:;
#CDTITLE:;
#MUSIC:Dad Vibes.ogg;
#OFFSET:-0.020000;
#SAMPLESTART:30.303787;
#SAMPLELENGTH:10.105263;
#SELECTABLE:YES;
#BPMS:0.000=95.000;
#STOPS:;
#DELAYS:;
#WARPS:;
#TIMESIGNATURES:0.000=4=4;
#TICKCOUNTS:0.000=4;
#COMBOS:0.000=1;
#SPEEDS:0.000=1.000=0.000=0;
#SCROLLS:0.000=1.000;
#FAKES:;
#LABELS:0.000=Song Start;
#BGCHANGES:;
#KEYSOUNDS:;
#ATTACKS:
;

//---------------dance-single - ----------------
#NOTEDATA:;
#CHARTNAME:;
#STEPSTYPE:dance-single;
#DESCRIPTION:;
#CHARTSTYLE:;
#DIFFICULTY:Hard;
#METER:10;
#RADARVALUES:0.392488,0.461947,0.418085,0.253837,0.175446,368.000000,312.000000,56.000000,34.000000,0.000000,0.000000,0.000000,0.000000,0.000000,0.392488,0.461947,0.418085,0.253837,0.175446,368.000000,312.000000,56.000000,34.000000,0.000000,0.000000,0.000000,0.000000,0.000000;
#CREDIT:delectablewet;
#NOTES:
0000
0000
0000
0000
,
0000
0000
0000
0000
,
0000
0000
0000
0000
,
0000
0000
0000
0000
,
0120
0000
0031
0000
1000
0000
0002
0100
,
2003
0000
3010
0100
0010
0000
1000
0000
,
1001
0000
0001
0100
0020
0000
1030
0100
,
1000
0001
0001
1000
0002
1000
0013
0100
,
0110
0000
1000
0000
0020
0030
1001
0000
,
1000
0000
0001
0000
0010
0000
0100
0000
2000
0000
3010
0000
0100
0001
0000
0000
,
0010
0010
1000
1000
0200
1300
1010
0000
,
0011
0000
1100
1000
1010
0000
0101
0001
,
1001
0000
0000
0000
0011
0000
0010
0000
0010
0100
0000
0000
1010
0000
0010
0000
,
0010
0100
0000
0000
0201
0000
0001
0000
0301
0000
1010
0000
0000
1000
0000
0000
,
1100
0000
0011
1000
0010
0000
1000
0000
,
0100
0000
0000
0000
0010
0000
0010
0000
0010
0000
0000
0000
0100
0010
2000
0000
,
3000
0000
0000
0000
1010
0000
0010
0000
0010
0100
0000
0000
0011
0000
0010
0000
,
0010
0100
0000
0000
0012
0000
0010
0000
1003
0000
1100
0000
0000
0100
0000
0000
,
0011
0000
1010
0001
0010
0000
0001
0000
,
0001
0000
0000
0000
0010
0000
0000
0010
0100
0000
0000
0000
0000
0000
0000
0000
,
0020
0000
0230
0010
2300
0000
3002
0000
,
0203
0000
0320
0100
2030
0000
3020
0000
,
0230
0000
0301
0000
0101
0000
0200
0001
,
0320
0000
1030
0000
1020
0000
1030
1000
,
0001
1000
0000
0000
1000
0001
0000
0000
1001
0000
0000
0000
0001
0000
0010
0000
,
0100
0000
0010
0001
1000
0000
0001
0001
,
0002
0003
0010
0100
2000
3000
0001
0000
,
1001
1001
0011
1001
0101
0000
1010
1000
,
1010
0000
0000
0000
0110
0000
0010
0000
1000
0100
0000
0000
0110
0000
0010
0000
,
0010
0001
0000
0000
1200
0000
0010
0000
1300
0000
0011
0000
1000
0001
0000
0000
,
1001
0000
1001
1000
0010
0000
0100
0100
,
0001
0000
0000
0000
0010
0000
0010
0000
0010
0000
0000
0000
0010
0100
0002
0000
,
0003
0000
0000
0000
0110
0000
0010
0000
0001
0100
0000
0000
0110
0000
0010
0000
,
0010
1000
0000
0000
0201
0000
0010
0000
0301
0000
1010
0000
0001
0010
0000
0000
,
0110
0000
0110
0010
0100
0000
1000
0001
,
1000
0000
0000
0000
0010
0000
0000
0010
0100
0000
0000
0000
0000
0000
0000
0000
,
0001
0000
0001
0000
0000
0001
0000
0000
0010
0000
0010
0000
0000
0010
0000
0000
,
1000
0000
1000
0000
0000
1000
0000
0000
0100
0000
1000
0000
0010
0000
0001
0000
,
1000
0000
1000
0000
0000
1000
0000
0000
0010
0000
0010
0000
0000
0010
0000
0000
,
0001
0000
0001
0000
0000
0001
0000
0000
0100
0000
0001
0000
0010
0001
0010
0000
,
1000
0000
1000
0000
0000
1000
0000
0000
0100
0000
0100
0000
0000
0100
0000
0000
,
0001
0000
0001
0000
0000
0001
0000
0000
0010
0000
0001
0000
0100
0000
1000
0000
,
0001
0000
0001
0000
0000
0001
0000
0000
0100
0000
0100
0000
0000
0100
0000
0000
,
1000
0000
1000
0000
0100
0001
0000
0000
0020
0000
0031
0000
1000
0000
1000
0000
,
1001
0000
0000
0000
1001
0000
0001
0000
0001
0100
0020
0000
1030
0000
1000
0100
,
1000
0100
0000
0000
0021
0000
0130
0000
1100
0000
1000
0000
0010
0100
0000
0000
,
0101
0000
0000
0000
1001
0000
0010
0001
0010
0000
0100
0000
0100
0000
1000
0000
,
1000
0000
0000
0000
0010
1000
0010
1000
0010
0000
0000
0000
0100
0010
0002
0000
,
0003
0000
0000
0000
1010
0000
1000
0000
1000
0100
0020
0000
0031
0000
0001
0100
,
0001
0100
0000
0000
2010
0000
3001
0000
0101
0000
0100
0000
0010
1000
0000
0000
,
0011
0000
0000
0000
1001
0000
0010
1000
0010
0000
0100
0000
0100
0000
0001
0000
,
0001
0000
0000
0000
0011
0000
1000
0100
0010
0001
0000
0000
0000
0000
0000
0000
;

//---------------dance-single - ----------------
#NOTEDATA:;
#CHARTNAME:;
#STEPSTYPE:dance-single;
#DESCRIPTION:;
#CHARTSTYLE:;
#DIFFICULTY:Medium;
#METER:8;
#RADARVALUES:0.262370,0.307591,0.149316,0.223974,0.003733,246.000000,226.000000,20.000000,30.000000,0.000000,0.000000,0.000000,0.000000,0.000000,0.262370,0.307591,0.149316,0.223974,0.003733,246.000000,226.000000,20.000000,30.000000,0.000000,0.000000,0.000000,0.000000,0.000000;
#CREDIT:delectablewet;
#NOTES:
0000
0000
0000
0000
,
0000
0000
0000
0000
,
0000
0000
0000
0000
,
0000
0000
0000
0000
,
1000
0100
0001
0100
,
1000
0010
0001
0010
,
0100
0100
0001
0010
,
0001
1000
0002
0013
,
1001
0010
1000
0010
,
1000
0001
0100
0001
,
1000
0001
0001
1000
,
1001
0000
0101
0000
1100
0000
1000
0100
,
1000
0000
0001
0100
0001
0000
1000
0100
,
1000
0001
0001
0001
,
0001
0000
0010
0001
0010
0000
0001
1000
,
0010
0000
0010
0010
0010
0000
1000
0000
,
0000
0000
1000
0100
1000
0000
0001
0100
,
0001
1000
1000
1000
,
1000
0000
0010
1000
0010
0000
1000
0001
,
0010
1001
0110
0000
,
2010
0010
0001
0001
,
0100
0100
0010
3010
,
1020
1000
0100
0100
,
0001
0001
2030
3010
,
1001
0010
0001
1000
,
0100
0001
0100
1000
,
0100
0010
0100
1000
,
1010
0101
1100
0110
,
1001
0000
0001
1000
0100
0000
1000
0001
,
0100
0000
0001
0010
0001
0000
0001
1000
,
0001
0000
0001
1000
0010
0000
1000
0001
,
0010
0000
0010
0010
0010
0000
0002
0000
,
0003
0000
1000
0001
0100
0000
0001
1000
,
0100
0000
1000
0010
1000
0100
1000
0001
,
1000
0000
1000
0001
0010
0000
0001
1000
,
0010
1001
0110
0000
,
2000
3200
0302
0003
,
2000
3020
0032
1003
,
0002
0203
2300
3000
,
0002
0000
0023
0000
2030
0000
3001
0001
,
2000
3020
0032
0003
,
2000
3020
0032
1003
,
2000
3200
0302
0003
,
2000
0000
3100
0100
0100
0000
0010
0000
,
0110
0000
1000
0100
0001
0000
0001
0100
,
1000
0000
1000
0010
0100
0001
0010
0100
,
1000
0000
1000
0010
0001
1000
0001
0010
,
1000
0000
0010
0010
0010
0000
1001
2000
,
3000
0000
0001
0100
1000
0000
1000
0100
,
0001
0000
0001
1000
0100
0010
1000
0001
,
0100
0000
1000
0001
0010
1000
0010
0001
,
1000
0000
0000
0000
1001
0000
0000
2002
3003
0000
0000
0000
0000
0000
0000
0000
;

//---------------dance-single - ----------------
#NOTEDATA:;
#CHARTNAME:;
#STEPSTYPE:dance-single;
#DESCRIPTION:;
#CHARTSTYLE:;
#DIFFICULTY:Easy;
#METER:3;
#RADARVALUES:0.145050,0.192245,0.037329,0.074658,0.000000,136.000000,131.000000,5.000000,10.000000,0.000000,0.000000,0.000000,0.000000,0.000000,0.145050,0.192245,0.037329,0.074658,0.000000,136.000000,131.000000,5.000000,10.000000,0.000000,0.000000,0.000000,0.000000,0.000000;
#CREDIT:delectablewet;
#NOTES:
// measure 0
0000
0000
0000
0000
,  // measure 1
0000
0000
0000
0000
,  // measure 2
0000
0000
0000
0000
,  // measure 3
0000
0000
0000
0000
,  // measure 4
1000
0000
0100
0000
,  // measure 5
0001
0000
0100
0000
,  // measure 6
0010
0000
0001
0000
,  // measure 7
0001
0000
0010
0000
,  // measure 8
0110
0000
1000
0000
,  // measure 9
0001
0000
1000
0000
,  // measure 10
0100
0000
0010
0000
,  // measure 11
0001
0100
0010
0000
,  // measure 12
1010
0100
0010
0000
,  // measure 13
0100
0010
0100
0001
,  // measure 14
0100
0000
0010
1000
,  // measure 15
0001
1000
0010
0100
,  // measure 16
0000
0010
0100
0000
,  // measure 17
0010
0100
0010
1000
,  // measure 18
0010
0100
0100
0100
,  // measure 19
0100
0001
1000
0000
,  // measure 20
0002
0000
0000
0000
,  // measure 21
0203
0000
0000
0000
,  // measure 22
0320
0000
0000
0000
,  // measure 23
1030
0200
0000
0301
,  // measure 24
0200
0000
1000
0000
,  // measure 25
0010
0000
1300
0001
,  // measure 26
0200
0000
0010
0000
,  // measure 27
0301
1000
0100
0000
,  // measure 28
1001
0001
0100
0000
,  // measure 29
0001
0010
0100
0000
,  // measure 30
1000
0100
0010
1000
,  // measure 31
0010
0001
1000
1001
,  // measure 32
0000
1000
0010
0000
,  // measure 33
0100
0001
0100
0000
,  // measure 34
0100
0010
1000
1000
,  // measure 35
0001
0001
0010
0000
,  // measure 36
0020
0000
0001
0000
,  // measure 37
0100
0000
0001
0000
,  // measure 38
0032
0000
1000
0000
,  // measure 39
0010
0000
0100
0000
,  // measure 40
2003
0000
0010
0000
,  // measure 41
0001
0000
0100
0000
,  // measure 42
3200
0000
1000
0000
,  // measure 43
0010
0000
1300
0000
,  // measure 44
0001
0010
0100
0001
,  // measure 45
0100
0010
0001
0010
,  // measure 46
0100
0001
0100
0010
,  // measure 47
0001
0100
0010
0000
,  // measure 48
0000
1000
0010
0100
,  // measure 49
1000
0100
0010
1000
,  // measure 50
0010
0100
1000
0100
,  // measure 51
0010
1000
1001
0000
;
