#VERSION:0.83;
#TITLE:DISPARATE;
#SUBTITLE:;
#ARTIST:BEMANI Sound Team "Captain Sonic";
#TITLETRANSLIT:;
#SUBTITLETRANSLIT:;
#ARTISTTRANSLIT:Captain Sonic;
#GENRE:;
#ORIGIN:;
#CREDIT:;
#BANNER:;
#BACKGROUND:;
#PREVIEWVID:;
#JACKET:;
#CDIMAGE:;
#DISCIMAGE:;
#LYRICSPATH:;
#CDTITLE:;
#MUSIC:DISPARATE.ogg;
#OFFSET:1.132000;
#SAMPLESTART:48.068001;
#SAMPLELENGTH:15.000000;
#SELECTABLE:YES;
#DISPLAYBPM:200.000000;
#BPMS:0.000=200.000,
291.000=400.000,
292.000=200.000;
#STOPS:291.000=0.075,
291.500=0.075;
#DELAYS:;
#WARPS:;
#TIMESIGNATURES:0.000=4=4;
#TICKCOUNTS:0.000=4;
#COMBOS:0.000=1;
#SPEEDS:0.000=1.000=0.000=0,
276.000=0.500=0.000=0,
276.021=2.000=3.100=0,
277.000=0.650=0.000=0,
277.021=2.000=2.800=0,
278.000=0.800=0.000=0,
278.021=2.000=2.500=0,
279.000=0.950=0.000=0,
279.021=2.000=2.200=0,
280.000=1.100=0.000=0,
280.021=2.000=1.900=0,
281.000=1.250=0.000=0,
281.021=2.000=1.600=0,
282.000=1.400=0.000=0,
282.021=2.000=1.300=0,
283.000=1.550=0.000=0,
283.021=1.000=1.000=0;
#SCROLLS:0.000=0.250,
20.000=0.500,
28.000=0.750,
32.000=1.000,
44.000=0.500,
44.500=1.000,
45.000=2.000,
46.000=1.000,
132.000=0.250,
140.000=0.500,
148.000=0.750,
156.000=1.000,
164.000=0.500,
164.500=1.000,
165.000=2.000,
166.000=1.000,
172.000=0.500,
172.500=1.000,
173.000=2.000,
174.000=1.000,
180.000=0.500,
180.500=1.000,
181.000=2.000,
182.000=1.000,
188.000=0.500,
188.500=1.000,
189.000=2.000,
190.000=1.000,
196.000=0.500,
196.500=1.000,
197.000=2.000,
198.000=1.000,
204.000=0.500,
204.500=1.000,
205.000=2.000,
206.000=1.000,
212.000=0.500,
212.500=1.000,
213.000=2.000,
214.000=1.000,
276.000=0.500,
284.000=1.000;
#FAKES:;
#LABELS:0.000=Song Start;
#BGCHANGES:;
#KEYSOUNDS:;
#ATTACKS:
;

//---------------dance-single - ----------------
#NOTEDATA:;
#CHARTNAME:;
#STEPSTYPE:dance-single;
#DESCRIPTION:;
#CHARTSTYLE:;
#DIFFICULTY:Easy;
#METER:10;
#RADARVALUES:0.389079,0.567483,0.291484,0.127524,0.027327,299.000000,267.000000,32.000000,14.000000,41.000000,0.000000,0.000000,0.000000,0.000000,0.389079,0.567483,0.291484,0.127524,0.027327,299.000000,267.000000,32.000000,14.000000,41.000000,0.000000,0.000000,0.000000,0.000000;
#CREDIT:rectumdingaling;
#DISPLAYBPM:200.000000;
#NOTES:
// measure 0
0000
0000
0000
0000
,  // measure 1
0000
0000
0000
0000
,  // measure 2
0000
0000
0000
0000
,  // measure 3
0000
0000
0000
0000
,  // measure 4
0000
0000
0000
0000
,  // measure 5
0000
0000
0000
0000
,  // measure 6
0000
0000
0000
0000
,  // measure 7
0000
0000
0000
0000
,  // measure 8
0000
0000
0010
0010
,  // measure 9
1001
0000
1000
0000
,  // measure 10
0001
0100
0001
0000
,  // measure 11
0100
0000
1001
0000
,  // measure 12
0001
0010
0100
0000
,  // measure 13
1000
0010
0100
0010
,  // measure 14
1000
0100
0010
0001
,  // measure 15
1000
1000
0001
0001
,  // measure 16
0100
0010
0100
0000
0001
0000
1000
0000
,  // measure 17
0002
0013
0000
0011
,  // measure 18
1000
0000
0100
M000
0100
0000
0001
0000
,  // measure 19
2000
3010
0000
1010
,  // measure 20
0001
0000
0100
000M
0100
0000
1000
0000
,  // measure 21
0002
0013
0000
1001
,  // measure 22
1000
0000
0100
M000
0100
0000
0010
0000
,  // measure 23
1000
0100
0001
0100
,  // measure 24
1000
0010
0001
0010
,  // measure 25
1000
M000
0100
0M00
,  // measure 26
0001
000M
0010
00M0
,  // measure 27
0001
000M
0100
0M00
,  // measure 28
1000
M000
0010
00M0
,  // measure 29
1000
0100
1100
0000
,  // measure 30
0001
0000
0100
000M
0100
0000
0010
0000
,  // measure 31
0001
0100
1000
0100
,  // measure 32
0001
0010
0200
0000
,  // measure 33
03M0
0000
00M0
0000
,  // measure 34
000M
M000
000M
0000
,  // measure 35
M000
0000
M000
0000
,  // measure 36
00M0
0M00
00M0
0000
,  // measure 37
0100
0000
0100
0000
,  // measure 38
0010
0000
1001
0000
,  // measure 39
1000
1000
0100
0100
,  // measure 40
1000
0001
1000
0000
0001
0000
0001
0000
,  // measure 41
0200
0000
0000
0300
1001
0000
0000
0010
,  // measure 42
0100
0100
1001
0000
,  // measure 43
0020
0000
0000
0030
1001
0000
0000
0100
,  // measure 44
0010
0010
1001
0000
,  // measure 45
0002
0000
0000
0003
0110
0000
0000
1000
,  // measure 46
0001
0001
0110
0000
,  // measure 47
2000
0000
0000
3000
0110
0000
0000
0001
,  // measure 48
1000
1000
0110
0000
,  // measure 49
0002
0000
0000
0003
0011
0000
0000
0001
,  // measure 50
0100
000M
0100
0000
1001
0000
0000
0000
,  // measure 51
2000
0000
0000
3000
0110
0000
0000
1000
,  // measure 52
0100
M000
0100
0000
1001
0000
0000
0000
,  // measure 53
0002
0000
0000
0003
1010
0000
0000
0100
,  // measure 54
0001
0M00
0001
0000
0110
0000
0000
0000
,  // measure 55
0010
1000
0001
0100
,  // measure 56
0010
0001
1000
0100
,  // measure 57
0010
0M00
0010
0001
,  // measure 58
0100
000M
0100
0000
0010
0000
0001
0000
,  // measure 59
0100
00M0
0100
1000
,  // measure 60
0010
000M
0010
0000
0100
0000
1000
0000
,  // measure 61
0001
M000
0001
0010
,  // measure 62
1000
000M
1000
0000
0100
0000
0001
0000
,  // measure 63
1000
000M
1000
0010
,  // measure 64
0001
M000
0001
0000
0100
0000
0010
0000
,  // measure 65
0001
0000
0100
0000
0010
0100
0000
1M00
,  // measure 66
0001
0000
0110
0110
,  // measure 67
1000
0000
0100
0000
0010
0100
0000
0M01
,  // measure 68
1000
0000
0110
2000
,  // measure 69
3001
0000
0010
0000
,  // measure 70
1000
0000
0100
0000
,  // measure 71
1000
1000
0001
0001
,  // measure 72
0100
0010
0100
0000
0010
0000
1000
1000
,  // measure 73
0001
0000
0000
0000
0010
0000
0000
0000
0100
00M0
0100
0000
0000
0000
0001
0000
,  // measure 74
0001
0000
0000
1000
0000
0000
1001
0000
,  // measure 75
1000
0000
0000
0000
0010
0000
0000
0000
0100
00M0
0100
0000
0000
0000
1000
0000
,  // measure 76
1000
0000
0000
0001
0000
0000
1001
0000
,  // measure 77
0011
0000
0000
0000
0100
0000
0000
0000
0001
0M00
0001
0000
0000
0000
0010
0000
,  // measure 78
0010
0000
0000
1000
0000
0000
0101
0000
,  // measure 79
0100
0000
0000
0000
0010
0000
0000
0000
1000
00M0
1000
0000
0000
0000
0100
0000
,  // measure 80
0100
0000
0000
0010
0000
0000
1001
0000
,  // measure 81
0001
0010
0100
0001
,  // measure 82
0100
1000
0010
0001
,  // measure 83
1000
0100
0010
1000
,  // measure 84
0001
0010
1000
0001
,  // measure 85
0100
0000
0000
0000
1000
0000
0000
0000
0010
0M00
0010
0000
0000
0000
0100
00M0
,  // measure 86
0100
0000
0000
0001
0000
0000
1001
0000
,  // measure 87
0001
1001
1000
1010
,  // measure 88
0010
0100
0010
0100
0002
0000
2000
0000
,  // measure 89
3003
0000
0000
0000
;

//---------------dance-single - ----------------
#NOTEDATA:;
#CHARTNAME:;
#STEPSTYPE:dance-single;
#DESCRIPTION:;
#CHARTSTYLE:;
#DIFFICULTY:Medium;
#METER:14;
#RADARVALUES:0.593378,0.729621,0.346137,0.173069,0.091089,456.000000,418.000000,38.000000,19.000000,63.000000,0.000000,6.000000,0.000000,0.000000,0.593378,0.729621,0.346137,0.173069,0.091089,456.000000,418.000000,38.000000,19.000000,63.000000,0.000000,6.000000,0.000000,0.000000;
#CREDIT:rectumdingaling;
#DISPLAYBPM:200.000000;
#NOTES:
0000
0000
0000
0000
,
0000
0000
0000
0000
,
0000
0000
0000
0000
,
0000
0000
0000
0000
,
0000
0000
0000
0000
,
0000
0000
0000
0000
,
0000
0000
0000
0000
,
0000
0000
0000
0000
,
0000
0000
0000
0000
1000
0000
0001
0001
,
0100
0000
0010
0000
1000
0100
0000
0100
,
0010
0000
0001
0100
0000
0001
0010
0001
,
0100
0000
0010
0000
1001
0000
0000
1000
,
0010
0000
0100
0010
0000
1000
0100
0010
,
0001
1000
0110
1000
,
0001
1000
0110
0001
,
1000
0100
1000
0000
0001
0100
0001
0000
,
1000
0010
0100
0001
1000
0000
0110
0000
,
2000
0000
3100
0010
0000
0100
1000
0000
,
0001
0000
0100
000M
0100
0000
1000
0000
,
0002
0000
0103
1000
0000
0100
0001
0000
,
1000
0000
0100
M000
0100
0000
0001
0000
,
2000
0000
3010
0001
0000
0010
1000
0000
,
0001
0000
0010
000M
0010
0000
1000
0000
,
0001
0100
0010
0000
0100
0000
1001
0000
,
1000
0100
0010
0000
0001
0000
0110
0000
,
0001
0100
0000
1M00
0001
0100
0000
1M00
,
0001
0000
0100
0000
0010
0000
0000
0020
0000
0000
1030
0000
0001
0000
0000
0000
,
1000
0100
0000
0M01
1000
0100
0000
0M01
,
1000
0000
0100
0000
0010
0000
0000
0020
0000
0000
0031
0000
1000
0000
0000
0000
,
0001
0100
0000
1M00
0010
0100
0000
1M00
,
0010
0000
0100
0000
0001
0000
0000
0002
0000
0000
1003
0000
0100
0000
0010
0000
,
0001
0000
0101
0000
1000
0000
1100
1000
,
0001
0100
0010
1000
0002
0000
2000
0000
,
30M3
00M0
00M0
0000
M000
M000
0000
000M
,
000M
0000
0M00
0M00
0000
000M
000M
0000
,
00M0
00M0
00M0
0000
0M00
0M00
0000
M000
,
M000
0000
000M
000M
0000
0M00
0M00
0000
,
0010
0000
0100
0000
,
0010
0000
1001
0000
,
1000
1000
0100
0100
,
1000
0001
1000
0001
0100
0000
0010
0000
,
2000
0000
0000
3000
0110
0000
0000
0001
,
0100
0000
0010
0000
1001
0000
0001
0010
,
0200
0000
0000
0300
1001
0000
0000
1000
,
0100
0000
0010
0000
1001
0000
0001
0100
,
0020
0000
0000
0030
1001
0000
0000
1000
,
0010
0000
0100
0000
1001
0000
0001
1000
,
0002
0000
0000
0003
0110
0000
1000
0001
,
0100
000M
0100
1000
0000
0001
0100
0010
,
0400
0000
0000
0300
1001
0000
0000
1000
,
0100
M000
0100
0000
0001
0000
0000
0000
1001
0000
0000
0000
0001
0000
0100
0000
,
0020
0000
0000
0030
1001
0000
0000
0001
,
0100
000M
0100
0000
1000
0000
0000
0000
1010
0000
0000
0000
0001
0000
0010
0000
,
0400
0000
0000
0300
0011
0000
0000
1000
,
0100
M000
0100
0000
0010
0000
0000
0000
1010
0000
0000
0000
0001
0000
1000
0000
,
0100
0001
1000
0000
0001
0100
000M
0100
,
0010
0000
1000
0010
M000
0010
0100
1000
,
0010
1000
0100
M000
0100
0001
1000
0001
,
0100
0000
1100
0000
0101
0000
1000
0001
,
0010
0001
0100
00M0
0100
1000
0010
0100
,
0110
0101
1001
4000
,
3001
0010
0100
00M0
0100
0001
1000
0010
,
0001
0010
1000
0000
1010
0000
0040
0000
,
1030
0100
0010
0M00
0010
1000
0001
0100
,
1000
0110
1001
0040
,
1030
0100
0010
0000
0001
0100
0000
0M10
,
0001
0000
010M
1000
0000
M010
0001
1000
,
0001
0100
0010
0000
1000
0100
0000
0M10
,
1000
0000
M100
0001
0000
001M
1000
0001
,
1000
0010
0001
0100
,
0001
0010
1000
0100
,
1000
0001
1000
0001
0100
0010
0100
0010
,
1000
0000
0100
0000
0010
0000
0001
0000
1000
0000
0001
0000
0010
000M
0010
0000
,
2000
0000
0000
0000
3001
0000
0100
000M
0100
0000
1000
0000
0001
0000
0100
000M
,
0100
1000
0001
0100
0040
0000
1030
0000
,
1002
0000
0000
0000
1003
0000
0100
M000
0100
0000
0001
0000
1000
0000
0100
M000
,
0100
0001
1000
0100
0110
0000
1001
0000
,
2010
0000
0000
0000
3001
0000
0100
000M
0100
0000
0010
0000
0001
0000
0100
000M
,
0100
0010
0001
0100
0010
1000
0001
0000
,
0012
0000
0000
0000
1003
0000
0100
M000
0100
0000
0010
0000
1000
0000
0100
M000
,
0100
0010
1000
0100
0010
0001
1001
0000
,
0001
0100
1000
0M00
1000
0010
0100
0000
,
0110
0000
0000
0000
0100
0000
0001
0M00
0001
0000
0010
0000
1000
0000
0001
0000
,
1000
0100
0001
0M00
0001
0010
0100
0000
,
0110
0000
0000
0000
0100
0000
1000
0M00
1000
0000
0010
0000
0001
0000
1000
0000
,
0010
0000
0100
0000
0001
0M00
0001
0000
0010
0000
1000
0000
0001
0000
0000
0000
,
0010
0000
0100
0000
1000
0M00
1000
0000
0010
0000
0001
0000
1000
0000
0000
0000
,
0001
0000
0100
0000
1000
0000
0M00
0000
1000
0000
0010
0000
0001
0000
0010
0100
,
0010
1000
0001
0100
0020
0000
0200
0000
,
0330
0000
0000
0000
;

//---------------dance-single - ----------------
#NOTEDATA:;
#CHARTNAME:;
#STEPSTYPE:dance-single;
#DESCRIPTION:;
#CHARTSTYLE:;
#DIFFICULTY:Hard;
#METER:16;
#RADARVALUES:0.736518,0.891759,0.291484,0.255049,0.391682,566.000000,534.000000,32.000000,28.000000,77.000000,0.000000,5.000000,0.000000,0.000000,0.736518,0.891759,0.291484,0.255049,0.391682,566.000000,534.000000,32.000000,28.000000,77.000000,0.000000,5.000000,0.000000,0.000000;
#CREDIT:rectumdingaling;
#DISPLAYBPM:200.000000;
#NOTES:
0000
0000
0000
0000
,
0000
0000
0000
0000
,
0000
0000
0000
0000
,
0000
0000
0000
0000
,
0000
0000
0000
0000
,
0000
0000
0000
0000
,
0000
0000
0000
0000
,
0000
0000
0000
0000
,
0000
0000
0000
0000
0010
0100
0001
0001
,
1000
0100
0010
0000
10M0
0100
0000
0M01
,
0010
0000
10M0
0010
0000
00M1
1000
0001
,
0100
0000
0010
0000
1001
0000
0000
1000
,
0100
0000
M001
0010
0000
100M
0001
0100
,
0010
0100
1001
0100
,
0001
1000
0110
0001
,
1000
1000
0100
0001
0100
1000
0001
0001
,
0100
0010
0100
0000
0001
1000
0001
0000
0010
0000
0001
0000
1000
0000
0100
0000
,
1000
0000
0000
0000
1010
0000
0020
0000
0000
0130
0000
0100
0001
0100
0000
0000
,
0001
0000
0010
0000
0001
0000
1000
0010
0000
1000
0001
0000
1000
0000
0100
0000
,
0010
0000
0000
0000
0011
0000
0002
0000
0000
0103
0000
0100
0010
0100
0000
0000
,
0010
0000
0010
0000
1000
0000
0001
0010
0000
0001
1000
0000
0100
0000
0010
0000
,
0001
0000
0000
0000
0011
0000
0020
0000
0000
0130
0000
0100
1000
0100
0000
0000
,
1000
0000
0010
0000
1000
0000
0001
0100
0000
0001
1000
0000
0001
0000
0100
0000
,
1000
0100
0010
1000
0001
0010
0100
0001
,
0100
0000
0100
0000
0010
0000
0001
0100
0000
0010
1000
0000
0001
0010
0000
0000
,
0001
0000
0100
000M
0100
0000
1000
0000
0001
0000
0100
000M
0100
0000
1000
0000
,
0001
0000
0100
000M
0100
0000
0010
0001
0000
1000
0100
0000
0010
0001
0000
0001
,
1000
0000
0010
M000
0010
0000
0001
0000
1000
0000
0010
M000
0010
0000
0001
0000
,
1000
0000
0010
M000
0010
0000
0001
0100
0000
0100
0010
0000
1000
0100
0000
1000
,
0001
0000
0100
000M
0100
0000
0010
0000
0001
0000
0100
000M
0100
0000
1000
0000
,
0001
0000
0100
000M
0100
0000
0010
0001
0000
0000
1000
0000
0010
0100
0000
1000
,
0100
0000
0001
0000
0011
0000
0000
0000
0100
0000
1000
0000
1010
0000
0010
0100
,
0010
1000
0001
0100
0020
0000
0200
0000
,
M330
M000
M000
0000
000M
000M
0000
0M00
,
0M00
0000
00M0
00M0
0000
M000
0M00
00M0
,
000M
000M
000M
0000
M000
M000
0000
00M0
,
00M0
0000
0M00
0M00
0000
00M0
00M0
M000
,
0010
0000
0100
0000
,
0010
0000
1001
0000
,
1000
1000
0100
0100
,
0010
0010
0010
0010
0001
1000
1000
1000
,
0040
0000
0000
0030
1001
0000
1000
0100
,
0001
0000
0100
0000
0011
0000
0001
0100
,
2000
0000
0000
3000
0110
0000
0001
0010
,
1000
0000
0010
0000
1001
0000
0100
0010
,
0400
0000
0000
0300
1001
0000
0001
0100
,
1000
0000
0100
0000
1010
0000
1000
0001
,
0020
0100
0000
1030
0110
0010
0000
0001
,
0100
000M
0100
1000
0000
0001
1000
0010
,
0400
0000
0000
0301
020M
1000
0000
0010
,
0000
0001
0000
1300
M200
0001
0000
0310
,
2000
0000
0000
3001
002M
1000
0000
0100
,
0000
0001
0000
1030
M020
0001
0000
0100
,
0130
4000
0000
3000
1001
0001
0000
1000
,
0100
0010
000M
1000
0110
0001
1000
0010
,
0100
1000
0001
0010
0110
0010
0000
1000
,
0100
0010
1000
0001
0101
0100
1000
0010
,
0100
0000
0001
0000
0010
0000
M000
0000
0010
0000
1000
0000
0100
M000
0100
0000
,
0010
0000
1000
0000
0100
M000
0100
0000
0010
0000
1000
0000
0001
1000
0001
0000
,
0010
0000
0001
0000
0100
0000
000M
0000
0100
0000
1000
0000
0010
M000
0010
0000
,
0100
0000
1000
0000
0010
M000
0010
0000
0100
0000
1000
0000
0001
1000
0001
0000
,
1000
0000
0100
0000
0010
0000
0M00
0000
0010
0000
1000
0000
0100
M000
0100
0000
,
0010
0000
1000
0000
0001
M000
0001
0000
0010
0000
0100
0000
0001
0010
0100
0000
,
0010
0001
0100
000M
0100
1000
0001
0100
,
0110
0110
1010
0004
,
1003
0100
0010
0000
1M00
0100
0000
0M01
,
0010
0000
0000
0000
100M
0000
0010
0000
0000
0000
00M1
0000
1000
0001
1000
0000
,
0001
0010
0100
0000
0M01
0010
0000
10M0
,
0100
0000
0000
0000
0M01
0000
0100
0000
0000
0000
1M00
0000
0001
1000
0001
0000
,
0202
0303
0000
0000
0020
0030
0000
0000
2000
3000
0000
0000
0200
0300
0000
0000
,
2200
3300
0000
0000
0020
0030
0000
0000
0002
0003
0000
0000
0200
0300
0000
0000
,
0010
0000
0100
0001
1000
0000
0100
1000
0001
0000
1000
0100
0010
0000
0001
0000
,
0100
0000
0100
0000
0100
0000
0100
0000
0010
1000
0001
1000
0010
M000
0010
0000
,
0002
0000
0000
0000
1003
0000
0100
M000
0100
0000
0010
0000
1000
0000
0100
M000
,
0100
0000
0001
0000
1000
0000
0100
0000
0010
0001
0100
0001
1000
0000
0010
0000
,
2001
0000
0000
0000
3001
0000
0100
000M
0100
0000
0010
0000
0001
0000
0100
000M
,
0100
0000
1000
0000
0010
0000
0100
0001
1000
0000
0100
1000
0001
0000
1000
0000
,
0120
0000
0000
0000
1030
0000
0010
M000
0010
0000
0100
0000
1000
0000
0010
M000
,
0010
0000
0001
0000
1000
0000
0010
0100
0001
0000
0010
0100
1000
0000
0001
0000
,
0210
0000
0000
0000
0301
0000
0010
000M
0010
0000
0100
0000
0001
0000
0010
000M
,
0010
0000
1000
0000
0010
0000
0100
0001
0010
0000
0100
1000
0010
0000
0100
0000
,
1000
0100
0001
1000
0100
0001
1000
0010
,
0001
0000
1000
0000
0010
0000
0001
0010
0100
0000
0010
1000
0001
0000
1000
0001
,
0010
1000
0001
0100
0010
0001
1000
0010
,
0100
0000
1000
0000
0001
0000
0010
0100
0001
0000
1000
0001
0010
0000
0001
0000
,
0100
0000
1000
0M00
1000
0000
0010
0000
0001
00M0
0001
0000
0100
0000
0001
0M00
,
0001
0000
0010
0000
1000
00M0
1000
0000
0100
0000
0001
0000
1000
0100
0010
0000
,
0110
0000
0000
0000
0011
0000
0000
0000
0110
0000
0000
0000
1010
0000
1000
0100
,
0001
0M00
0001
0000
0100
0000
0010
0000
2000
0000
0000
0000
0002
0000
0000
0000
,
3003
0000
0000
0000
;
