#VERSION:0.83;
#TITLE:Boxel Adventure;
#SUBTITLE:;
#ARTIST:7mai;
#TITLETRANSLIT:;
#SUBTITLETRANSLIT:;
#ARTISTTRANSLIT:;
#GENRE:;
#ORIGIN:;
#CREDIT:;
#BANNER:;
#BACKGROUND:;
#PREVIEWVID:;
#JACKET:;
#CDIMAGE:;
#DISCIMAGE:;
#LYRICSPATH:;
#CDTITLE:;
#MUSIC:Boxel Adventure.ogg;
#OFFSET:0.000000;
#SAMPLESTART:81.242996;
#SAMPLELENGTH:15.000000;
#SELECTABLE:YES;
#BPMS:0.000=195.000;
#STOPS:;
#DELAYS:;
#WARPS:;
#TIMESIGNATURES:0.000=4=4;
#TICKCOUNTS:0.000=4;
#COMBOS:0.000=1;
#SPEEDS:0.000=1.000=0.000=0;
#SCROLLS:0.000=1.000;
#FAKES:;
#LABELS:0.000=Song Start;
#BGCHANGES:;
#KEYSOUNDS:;
#ATTACKS:
;

//---------------dance-single - ----------------
#NOTEDATA:;
#CHARTNAME:;
#STEPSTYPE:dance-single;
#DESCRIPTION:;
#CHARTSTYLE:;
#DIFFICULTY:Easy;
#METER:11;
#RADARVALUES:0.474680,0.644565,0.349764,0.149899,0.016655,399.000000,357.000000,42.000000,18.000000,0.000000,0.000000,0.000000,0.000000,0.000000,0.474680,0.644565,0.349764,0.149899,0.016655,399.000000,357.000000,42.000000,18.000000,0.000000,0.000000,0.000000,0.000000,0.000000;
#CREDIT:brokencontroller;
#NOTES:
0000
0000
0000
0000
,
0000
0000
0000
0000
,
0000
0000
0000
0000
,
0000
0000
0000
0000
,
0001
1000
0010
1010
,
0001
0010
0100
0011
,
1000
0010
0100
1001
,
0001
0010
0100
0010
0002
0000
2003
0000
,
3010
0000
0000
0010
0000
0000
0000
0100
,
0000
0000
0000
0100
0000
0000
0001
0010
,
0001
0000
1000
0010
1000
0000
0001
0000
,
1000
0000
0100
0000
0010
0000
0001
1000
,
0001
1000
0010
0100
,
0001
0000
0010
0100
0010
0000
0001
0000
,
1000
0000
0001
0100
0001
0000
1000
0000
,
0100
0010
0001
0100
,
0010
1001
0101
0110
,
1001
0000
1100
0000
1010
0000
1000
0001
,
1000
0000
0001
0100
0001
0000
1000
0000
,
0001
0010
0100
1000
,
0001
0000
1000
0100
1000
0000
0010
0000
,
0100
0000
0001
0000
0010
0000
0100
0010
,
0100
0000
1001
0000
1001
0000
0010
0100
,
0010
0000
0000
1100
0000
0000
0001
0000
,
1000
1000
0000
0001
0001
0000
0100
0100
,
0000
0010
0010
0000
0000
0000
0000
0000
,
1000
0001
0100
0010
,
1100
1100
1010
0000
,
0001
0010
0100
1000
,
0101
0101
0011
0011
,
1000
0001
0100
0010
,
1010
1010
1100
0000
,
0001
0010
0001
0101
,
0000
0001
1000
0001
1000
0000
0000
0000
,
0020
0000
0000
0000
0030
0000
0000
0200
,
0000
0000
0000
0300
0000
0001
0000
0000
,
2000
0000
0000
0000
3000
0001
0000
0001
,
0000
1000
0000
1000
0000
0010
0000
0010
,
0000
0100
0001
1000
,
0000
0000
0000
0100
0000
0000
0010
0000
,
0000
0001
1000
0010
,
0000
0000
0000
0100
0000
0000
0000
0000
,
0001
0001
1000
1000
,
0010
0010
1000
1000
,
0100
0010
0001
1000
,
0010
0100
0001
0010
,
0100
1000
0001
0100
,
0010
1000
0001
0100
,
0011
0000
0000
1001
0000
1010
0000
0001
,
0002
0000
0003
1000
2000
0000
3000
0000
,
0001
0100
1000
0100
,
0001
0010
0200
0300
,
1000
0100
0001
0100
,
1000
0010
0001
0010
,
1000
0010
0100
0001
,
0010
0100
2000
3000
,
0010
1000
0001
0100
,
0001
0000
0010
0000
0100
1000
0100
0000
,
0200
0000
0300
0000
0000
1000
0000
0000
,
0002
0003
0010
0100
,
2000
3000
0000
0001
,
0100
0000
0000
0010
0000
0010
0000
0000
,
1000
0001
0010
0100
,
1000
0010
0100
0001
,
1001
0000
0110
0000
,
0011
0000
1100
0000
,
0001
0000
0100
0000
0010
1000
0010
0000
,
1000
0100
0010
0001
,
1000
0001
0100
0010
,
1000
0001
1000
0000
0100
0000
0010
0000
,
0001
0000
0100
0010
0100
0000
0001
0010
,
0000
1000
0000
0010
0000
0001
0000
0000
,
1000
0010
1000
0000
0001
0000
0100
0000
,
0010
1000
0100
0010
,
0001
0000
1000
0100
1000
0000
0001
0000
,
0100
0010
0100
0000
0001
0000
1000
0000
,
0001
0010
0100
0000
1000
0000
0010
0000
,
0100
0001
1000
0100
,
0010
0000
0001
0100
0001
0000
1000
0100
,
1000
0001
0100
0010
,
1000
0010
1000
0100
1000
0000
0001
0010
,
0000
1000
0000
0010
0000
0001
0000
1000
,
1000
0000
0011
0000
0101
0000
0000
1000
,
1100
0000
0110
0000
0101
0000
0000
1000
,
0000
0001
0000
0010
0000
0100
0000
1000
,
0000
0010
0100
0010
0100
0000
0000
0000
,
0010
1000
0001
0000
,
1000
0100
0010
0000
,
0001
1000
0001
0000
,
0100
0000
0000
0000
0100
0000
0000
0000
0010
0000
0000
0000
0010
0000
0000
0110
0000
0000
0000
0000
0000
0000
0000
0000
,
1000
0001
1000
0100
,
1000
0001
0100
0001
,
1000
0100
0010
0001
,
0100
0010
1000
0001
,
2002
0000
0000
0000
0000
0000
0000
0000
3003
0000
0000
0000
0000
0000
0000
0000
0000
0000
1100
0000
0000
0000
0000
0000
0000
0000
0000
1001
0000
0000
0000
0000
0000
0000
0000
0000
0101
0000
0000
0000
0000
0000
0000
0000
0000
0220
0000
0000
,
0000
0330
0000
2002
0000
0000
0000
0000
,
0000
0000
0000
3003
;

//---------------dance-single - ----------------
#NOTEDATA:;
#CHARTNAME:;
#STEPSTYPE:dance-single;
#DESCRIPTION:;
#CHARTSTYLE:;
#DIFFICULTY:Medium;
#METER:15;
#RADARVALUES:0.793512,0.966847,0.183210,0.174882,0.162390,667.000000,645.000000,22.000000,21.000000,0.000000,0.000000,0.000000,0.000000,0.000000,0.793512,0.966847,0.183210,0.174882,0.162390,667.000000,645.000000,22.000000,21.000000,0.000000,0.000000,0.000000,0.000000,0.000000;
#CREDIT:brokencontroller;
#NOTES:
0000
0000
0000
0000
,
0000
0000
0000
0000
,
0000
0000
0000
0000
,
0000
0000
0000
0000
,
0001
0010
0100
1000
0001
1000
0001
0000
,
1000
0010
0100
0001
1000
0001
0100
0000
,
0001
0010
0100
0010
0001
1000
0100
0000
,
1000
0010
0100
0001
0010
0100
1000
0001
,
2002
3003
0000
0220
0000
0330
0000
2020
,
0000
3030
0000
0022
0000
0033
0000
0000
,
1000
0010
1000
0001
0100
0010
0100
0001
,
0000
0010
0100
1000
0100
0010
0001
1000
,
0000
0000
0010
0100
0010
0100
0010
0000
0100
0000
0001
0000
1000
0000
0100
0000
,
0000
0010
0001
1000
0010
0000
0100
0000
,
0001
1000
0100
1000
0001
0010
0100
1000
,
0000
0001
0100
0010
1000
0100
0010
0001
,
1000
0100
1000
0001
0100
0001
1000
0001
,
0010
0000
1000
0000
0010
0000
0001
0000
1000
0000
0001
0100
0001
0100
0001
0000
,
1000
0001
0100
0010
1000
0100
0010
0001
,
0000
1000
0010
0100
0001
0010
0100
1000
,
0000
0000
0001
0010
0001
0010
0001
0000
1000
0000
0010
0000
0100
0000
0001
0000
,
0000
1000
0100
0010
0001
0000
1000
0000
,
0010
0100
0001
1000
0100
0010
0001
0100
,
0010
1000
0100
0010
0001
1000
0001
1000
,
0001
0100
1000
1000
0100
0001
0001
0010
,
1000
0000
1000
0000
0010
0000
0001
0000
1000
0001
1000
0001
1000
0000
0000
0000
,
0010
0100
0001
1000
0010
0100
0000
0000
,
0001
0010
0100
1000
0100
0010
0001
0000
,
0100
0010
1000
0100
0010
0001
1000
0000
,
0001
0010
0001
0100
0010
1000
0100
0000
,
1000
0100
0001
0001
0100
1000
0000
0000
,
0001
1000
0100
0010
0001
1000
0010
0000
,
1000
0010
0001
0001
0010
1000
0000
0000
,
0001
0100
0010
1000
0100
0010
0001
0000
,
2000
0000
0000
0000
3001
0000
0000
0001
,
1000
0000
0000
0000
0000
0020
0000
0000
,
0230
0000
0000
0300
0000
0001
1000
0100
,
0000
0100
1000
0001
0000
0010
0100
1000
,
0001
0001
1000
0001
1000
0010
0100
0001
,
1000
0100
0010
0001
0000
0100
0001
1000
,
0010
0000
1000
0100
0010
0001
0100
0010
,
0000
1000
0001
0100
0000
0001
0010
0100
,
1000
0010
0001
0010
1000
0100
0001
0100
,
1000
0010
0001
0010
1000
0100
0001
0100
,
1000
0010
0100
0001
0010
0100
1000
0010
,
0100
0010
1000
0001
0000
1000
0100
0010
,
0001
0100
1000
1000
0100
0001
0010
0100
,
1000
0001
1000
0010
0000
0100
0010
1000
,
0001
0010
0001
0000
0000
0000
1000
0010
1000
0000
0001
0000
0010
0000
0100
0000
,
1000
1000
0001
0001
0100
0100
0010
0010
,
1000
0010
0001
0001
0010
1000
1000
0100
,
0001
0001
0100
1000
0001
0100
0010
1000
,
0001
0100
1000
1000
0100
0001
0001
0010
,
1000
1000
0010
0001
1000
0100
0010
0001
,
1000
0010
0001
0010
1000
0100
0001
0100
,
1000
0010
0001
0010
1000
0100
0010
0001
,
0001
0100
1000
0100
0001
0010
1000
0010
,
0001
0100
1000
0100
0001
0010
0100
1000
,
0002
0000
0003
0000
,
2000
0000
0000
0000
3000
0000
0010
0100
,
0002
0000
0003
0010
,
0200
0000
0300
1000
0000
0001
0000
1000
,
0010
0000
0100
0001
0000
1000
0100
0000
,
0010
0000
0001
0010
0100
1000
0001
0000
,
1010
0000
0000
0101
0000
0000
0000
0000
0011
0000
0000
1100
0000
0000
0000
0000
,
1000
0010
1000
0001
0100
0001
0010
0001
0200
0000
0000
0000
0000
0000
0300
0000
,
0001
0000
0010
0000
0100
0000
1000
0000
0001
0000
0100
0000
0010
0000
1000
0001
,
1000
0100
0001
0100
1000
0100
0001
0100
,
1000
0000
0001
0100
0001
0000
1000
0000
0010
0000
0100
1000
0100
0000
0010
0000
,
1000
0000
0010
0100
0010
0000
1000
0100
1000
0000
0001
0000
0010
0000
0100
0000
,
1000
0000
0001
0000
0010
0100
1000
0001
1000
0100
0010
0001
1000
0000
0101
0000
,
0000
0011
0000
1100
0000
1010
0000
0000
,
1000
0010
0001
0010
1000
0010
0001
0010
,
1000
0000
0001
0000
0010
0000
0100
0000
1000
0000
0001
0100
0001
0000
1000
0000
,
0001
0100
0010
1000
0100
0010
0001
1000
,
0001
0010
1000
0010
0001
0010
1000
0010
,
0001
0000
1000
0010
1000
0000
0001
0000
0100
0000
0010
0000
1000
0100
1000
0000
,
0001
0100
0001
0000
0010
0000
0100
0000
1000
0000
0100
0000
0010
0000
0001
0000
,
0100
0010
0100
0000
0001
0010
0001
1000
0010
0000
1000
0000
0001
0000
0010
0000
,
0100
1000
0010
0100
0001
1000
0100
0010
,
0001
0000
1000
0010
1000
0000
0001
0000
0100
0000
0010
0000
1000
0000
1010
0000
,
0000
0101
0000
0011
0000
1100
0000
1000
,
0001
0000
0100
0010
1000
0100
0001
0001
,
0100
1000
1000
0010
0001
0001
0010
1000
,
0001
0100
1000
0001
0010
1000
0001
0100
,
1000
0001
0010
0100
0010
0001
1000
0010
,
0100
0010
1000
0001
0100
0010
1000
0000
,
0001
0010
0100
1000
0010
0100
0001
0000
,
1000
0010
0100
0001
1000
0100
0010
0000
,
0001
0000
0001
0000
0010
0000
0010
0000
0100
0000
0100
0000
1000
0000
0000
1001
0000
0000
0000
0000
0000
0000
0000
0000
,
1000
0001
0100
0001
0010
0100
1000
0000
,
0001
0100
0010
1000
0001
0010
0100
0000
,
1000
0001
0100
0010
1000
0100
0010
0000
,
0001
0010
0100
1000
0010
0001
0010
1000
,
0002
0000
0000
0003
0000
0000
1001
0000
0000
1100
0000
0000
0011
0000
0000
0202
,
0000
0303
0000
2020
0000
0000
0000
0000
,
0000
0000
0000
3030
;

//---------------dance-single - ----------------
#NOTEDATA:;
#CHARTNAME:;
#STEPSTYPE:dance-single;
#DESCRIPTION:;
#CHARTSTYLE:;
#DIFFICULTY:Hard;
#METER:18;
#RADARVALUES:1.025498,1.289130,0.208193,0.466352,0.920212,862.000000,837.000000,25.000000,56.000000,0.000000,0.000000,0.000000,0.000000,0.000000,1.025498,1.289130,0.208193,0.466352,0.920212,862.000000,837.000000,25.000000,56.000000,0.000000,0.000000,0.000000,0.000000,0.000000;
#CREDIT:brokencontroller;
#NOTES:
0000
0000
0000
0000
,
0000
0000
0000
0000
,
0000
0000
0000
0000
,
0000
0000
0000
0000
,
0001
0100
0010
0000
1000
0000
0100
0000
0010
0000
0002
0000
0000
0000
0003
0000
,
1000
0100
0010
0000
0001
0000
0100
0000
0010
0000
2000
0000
0000
0000
3000
0000
,
0010
0100
0001
0000
1000
0100
0010
0001
1000
0000
0002
0000
0000
0000
0003
0000
,
0100
0010
1000
0001
0100
0010
1000
0001
0010
0100
1000
0001
0010
0100
0010
0000
,
2002
0000
3003
0220
0000
0330
0000
2200
,
0000
3300
0000
0202
0000
0303
0000
0000
,
1000
0001
0100
0010
1000
0100
0010
0001
,
1000
0001
0010
0100
1000
0010
0100
0001
,
1000
0000
0001
0100
0001
0010
0001
1000
0001
0000
0010
0000
0100
0000
1000
0000
,
0010
0100
0001
1000
0100
0010
0001
0100
,
0010
1000
0001
0100
0010
0100
0001
1000
0100
0000
1000
0000
0001
0000
0010
0000
,
0100
1000
0010
0100
0001
0010
0100
1000
,
0001
0100
0010
0100
0001
1000
0010
1000
0100
1000
0010
0100
0001
0100
0010
0000
,
1000
0100
0010
0100
1000
0100
0010
0001
0010
0100
0010
0001
1000
0100
0010
0001
,
1000
0010
1000
0001
0010
0100
1000
0001
,
0100
0010
1000
0100
0010
0001
0100
0010
,
1000
0000
0001
0010
0100
1000
0010
1000
0100
0000
1000
0000
0001
0000
0100
0000
,
0010
1000
0100
0010
0001
0100
0010
1000
,
0001
0010
0100
1000
0010
0100
0001
0010
0100
1000
0010
0100
0001
0010
0001
0000
,
0100
0000
0010
0000
1000
0000
0100
0000
0010
0000
0001
0100
0010
1000
0100
0000
,
1100
0000
1000
0000
0001
0000
0101
0000
0000
0100
0001
0000
0011
0000
0010
0100
,
1000
0000
1010
0000
0001
0000
1000
0010
0100
0001
0010
0100
1000
0010
0100
0001
,
1000
0100
0010
0000
1000
0000
0001
0000
0010
0000
0200
0000
0000
0000
0300
0000
,
1000
0010
0100
0000
0001
0000
0010
0000
0100
0000
2000
0000
0000
0000
3000
0000
,
0001
0010
0100
0000
1000
0000
0010
0000
0100
0000
0002
0000
0000
0000
0003
0000
,
0100
0010
0100
0010
1000
0001
1000
0001
1000
0010
1000
0010
1000
0100
1000
0000
,
0001
0100
0010
0000
1000
0100
0010
0001
1000
0000
0020
0000
0000
0000
0030
0000
,
0100
0001
1000
0000
0001
0010
0100
1000
0001
0000
0200
0000
0000
0000
0300
0000
,
1000
0100
0010
0000
0100
1000
0001
0100
0010
0000
1000
0100
0010
0001
0100
0010
,
1000
0100
0001
0100
1000
0100
0001
0100
,
2000
0000
0000
0000
0000
0000
3000
0002
,
0000
0000
0000
0000
0003
0200
0000
0000
,
0320
0000
0000
0000
0030
1000
0001
1000
,
0000
0010
0100
0010
0000
1000
0100
0010
,
0001
0000
0010
0100
0010
0000
0001
0000
1000
0010
0100
0001
1000
0000
0020
0000
,
0030
0100
0010
2000
3000
0001
0010
0100
,
1000
0000
0001
0100
0010
1000
0001
0010
0100
1000
0010
0100
0001
0000
1000
0000
,
0000
0100
0010
0100
0000
1000
0010
1000
,
0001
0000
0100
0000
0010
1000
0001
1000
,
0001
0000
0010
0000
0100
0000
1000
0010
,
1000
0000
0001
0100
0001
0000
0000
0000
1000
0000
0100
0000
0010
0000
0001
0000
,
0100
0010
1000
0100
0000
1000
0001
0100
,
0010
0000
1000
0001
0100
0010
0000
1000
0100
0000
0010
0000
0001
0000
0100
0000
,
0010
0000
1000
0000
0001
0000
0010
0000
0100
0000
0000
0000
1000
0010
0100
0001
,
0220
0000
0330
2002
0000
3003
0000
0000
,
1100
0000
0001
1000
0002
0000
0003
0000
1010
0000
0100
0010
0200
0000
0300
0000
,
0001
0010
1000
0010
0001
0100
1000
0100
,
0001
0000
0010
0000
1000
0000
0010
0000
0001
0100
0010
1000
0001
0010
0100
1000
,
0001
0100
1000
0100
0001
0010
1000
0010
,
0001
0000
0100
0000
1000
0000
0100
0000
0001
1000
0001
1000
0001
0000
0010
0100
,
1000
0010
0001
0010
1000
0100
0001
0100
,
1000
0000
0010
0000
0001
0000
0010
0000
1000
0100
0010
0001
1000
0010
0100
0001
,
1000
0100
0001
0100
1000
0010
0001
0010
,
1000
0100
0001
0100
2000
3002
0203
0300
,
0020
0000
0130
0001
2000
0000
3002
0000
,
2003
0000
0000
0000
3000
0000
0001
0000
0010
0100
1000
0010
0100
0001
1000
0000
,
0002
0000
0103
0000
0001
1000
0100
0010
,
0002
0000
0000
0000
0003
0000
1000
0000
0100
0010
0100
0010
0100
0000
1000
0001
,
2000
0000
3001
0200
0000
0300
0001
0000
,
2000
0000
0000
0000
3000
0000
0001
0000
0100
0010
0100
0001
0100
0001
0010
0000
,
0011
0000
0000
1001
0000
0010
1000
0000
0110
0000
0000
0101
0000
1000
0001
0000
,
0100
0010
0100
0010
0100
0010
0100
0010
0100
0001
0010
0100
1000
0010
0100
0001
,
1000
0000
0010
0000
0100
0000
0001
0000
0010
0000
0001
1000
0010
0000
0100
0000
,
0001
0000
0010
0100
1000
0000
0001
0100
0010
0000
1000
0100
0010
0000
0100
0000
,
1000
0001
0100
0010
1000
0100
0010
0000
0001
0000
0100
0000
0010
0000
1000
0000
,
0001
0010
1000
0010
0001
0010
1000
0010
0001
0010
1000
0010
0001
0000
0000
0000
,
1000
0000
0100
0010
0100
0000
1000
0001
1000
0010
0100
0001
1000
0000
0010
0000
,
0100
0000
0001
0000
1000
0000
0001
0000
0010
0000
0100
0000
1000
0000
0001
0010
,
0001
0010
0001
0100
0001
0100
0001
1000
0001
1000
0010
1000
0010
1000
0100
1000
,
0100
0000
1000
0000
0001
0000
0100
0000
0010
0000
1000
0100
0010
0001
0100
0010
,
1000
0000
0100
0000
0010
0000
0001
0000
1000
0000
0010
0100
0010
0000
0100
0000
,
0001
0000
1000
0100
0010
0000
0001
0000
0100
0010
1000
0000
0001
0000
1000
0000
,
0100
0010
0001
1000
0010
0100
0001
0000
0010
0000
0100
0000
1000
0010
0100
0000
,
0001
0100
1000
0100
0001
0100
1000
0100
0001
0100
1000
0100
0001
0000
0000
0000
,
1000
0000
0100
0010
0001
0000
0010
0100
1000
0000
0001
0000
0100
0000
0010
0000
,
1000
0001
0010
0100
1000
0010
0100
0001
,
1000
0000
0001
0010
0001
0010
0001
1000
0001
1000
0001
0100
0001
0100
0010
0000
,
1000
0000
0001
0010
0100
0000
1000
0000
0010
0100
0010
0000
1000
0001
0010
0100
,
1000
0000
0001
0000
0100
0000
1000
0000
0001
0000
0010
0000
1000
0000
0001
0010
,
0100
0000
1000
0100
0001
0000
0001
0100
1000
0000
1000
0010
0001
0000
0010
1000
,
0100
0001
0100
1000
0010
0001
0010
1000
0100
0001
0100
1000
0010
0001
0010
1000
,
0001
0000
0010
0100
1000
0010
0100
0001
0010
0100
1000
0010
0100
0001
0010
0100
,
1000
0010
0100
0000
0001
0000
0010
0000
0100
0000
2002
0000
0000
3003
0000
0000
,
1000
0100
0010
0000
0001
0000
0100
0000
0000
0000
2020
0000
0000
0000
3030
0000
,
1000
0100
0010
0000
0001
0000
0100
0000
0001
0000
0022
0000
0000
0000
0033
0000
,
1000
0000
0010
0000
0001
0000
0010
0000
1000
0000
0001
0000
1000
0000
0000
2200
0000
0000
0000
0000
0000
3300
0000
0000
,
0010
0100
0001
0000
1000
0100
0010
0001
1000
0000
0200
0000
0000
0000
0300
0000
,
0010
0001
0100
0000
0010
1000
0100
0010
0001
0000
2000
0000
0000
0000
3000
0000
,
0010
0100
0001
0000
1000
0100
0010
0001
0100
0000
0020
0000
0000
0000
0030
0000
,
1000
0100
0010
0000
0001
1000
0010
0000
0100
0001
0010
0100
1000
0010
0100
0001
,
2000
0000
0000
3000
0000
0000
0011
0000
0000
0101
0000
0000
1001
0000
0000
2200
,
0000
3300
0000
0202
0000
0000
0000
0000
,
0000
0000
0000
0303
;

//---------------dance-single - ----------------
#NOTEDATA:;
#CHARTNAME:;
#STEPSTYPE:dance-single;
#DESCRIPTION:;
#CHARTSTYLE:;
#DIFFICULTY:Challenge;
#METER:20;
#RADARVALUES:1.384780,1.329415,0.283142,0.166554,1.852916,1164.000000,1130.000000,34.000000,20.000000,0.000000,0.000000,0.000000,0.000000,0.000000,1.384780,1.329415,0.283142,0.166554,1.852916,1164.000000,1130.000000,34.000000,20.000000,0.000000,0.000000,0.000000,0.000000,0.000000;
#CREDIT:brokencontroller;
#NOTES:
// measure 0
0000
0000
0000
0000
,  // measure 1
0000
0000
0000
0000
,  // measure 2
0000
0000
0000
0000
,  // measure 3
0000
0000
0000
0000
,  // measure 4
0001
0010
0001
0010
0001
1000
0001
1000
0010
1000
0010
0100
0001
1000
0100
1000
,  // measure 5
0001
1000
0001
1000
0010
1000
0010
1000
0001
0010
0100
1000
0100
0010
0001
0000
,  // measure 6
1000
0001
1000
0001
1000
0010
1000
0010
0100
0010
0100
0010
1000
0001
0010
0100
,  // measure 7
1000
0010
0100
0001
0010
0100
1000
0010
0100
0001
0010
0100
1000
0010
0100
0000
,  // measure 8
0220
0000
0330
0202
0000
0303
0000
0022
,  // measure 9
0000
0033
0000
2002
0000
3003
0000
0000
,  // measure 10
1000
0001
0100
0010
1000
0100
0010
0001
0100
0000
0010
0000
1000
0000
0001
0000
,  // measure 11
0100
0010
1000
0100
0010
0001
1000
0000
0001
0010
0100
1000
0001
0100
0001
0000
,  // measure 12
1000
0000
0001
0100
0010
1000
0001
0010
0100
0000
1000
0000
0010
0000
0100
0000
,  // measure 13
0001
0010
0100
1000
0001
0100
0001
0000
1000
0010
0100
0001
0010
0100
1000
0000
,  // measure 14
0001
0100
0010
0100
0001
0100
1000
0100
0001
0100
0010
0100
0001
0010
0100
0000
,  // measure 15
1000
0000
0100
0010
0001
0000
1000
0000
0001
1000
0010
1000
0100
1000
0001
0000
,  // measure 16
0100
0001
0010
0100
1000
0100
0010
0001
1000
0010
0100
0001
0010
0100
1000
0010
,  // measure 17
1000
0010
0100
0010
1000
0010
0001
0010
1000
0010
0100
0001
0010
0100
1000
0001
,  // measure 18
1000
0010
0100
0001
0010
0100
1000
0100
0010
0000
0001
0000
1000
0000
0010
0000
,  // measure 19
1000
0100
0010
0001
1000
0100
0010
0000
0001
0100
0010
1000
0001
0010
0001
0000
,  // measure 20
1000
0010
0100
0001
1000
0100
0010
0001
1000
0000
0010
0000
0100
0000
0001
0000
,  // measure 21
0010
0100
1000
0001
0100
0000
1000
0100
0010
0001
1000
0001
0100
0000
0001
0000
,  // measure 22
1000
0010
0100
0010
1000
0010
0001
0010
1000
0010
0100
0010
1000
0100
0010
0000
,  // measure 23
0001
0000
0010
0100
1000
0000
0010
0000
0100
0001
1000
0100
1000
0001
0100
0000
,  // measure 24
1010
0000
1000
0000
0010
0000
0101
0000
0000
0001
0100
0000
0011
0000
0010
0001
,  // measure 25
1000
0000
1100
0000
1000
0000
0001
0100
0010
1000
0001
0010
0001
1000
0001
0000
,  // measure 26
1000
0100
1000
0100
0010
0001
0010
0001
0100
0001
0100
0001
1000
0010
0100
0001
,  // measure 27
0010
0100
0010
0100
1000
0001
1000
0001
0100
0001
0100
0001
1000
0100
0010
0000
,  // measure 28
0001
0100
0001
0100
0010
1000
0010
1000
0001
0010
0001
0010
0100
1000
0100
0010
,  // measure 29
0001
0100
0010
1000
0100
0010
0001
0100
0010
1000
0010
0001
0010
1000
0010
0000
,  // measure 30
1000
0100
1000
0001
0010
0100
1000
0010
1000
0001
0100
0010
1000
0001
1000
0001
,  // measure 31
0100
0010
1000
0001
0100
0010
1000
0100
0010
0001
1000
0001
0010
0100
1000
0000
,  // measure 32
0001
0100
1000
0100
0001
0100
1000
0100
0001
0100
1000
0100
0001
0010
0100
0010
,  // measure 33
0001
0000
1000
0100
0010
0001
0100
0010
1000
0100
0010
0001
1000
0001
0100
0010
,  // measure 34
1000
0000
0100
0000
0010
0000
0001
0100
,  // measure 35
0001
0000
0100
0000
0010
0000
1000
0100
,  // measure 36
1000
0000
0010
0000
1000
0100
0001
0100
,  // measure 37
0000
1000
0010
0001
0010
1000
0100
0010
,  // measure 38
0001
0000
0100
0010
0100
0000
0010
0000
1000
0100
1000
0010
1000
0001
1000
0000
,  // measure 39
0001
0000
0010
0100
0010
0000
0001
0000
1000
0000
0001
0000
0100
0000
0010
0000
,  // measure 40
1000
0000
0010
1000
0001
0000
0010
0000
0001
0000
0100
0000
1000
0000
0100
0000
,  // measure 41
0000
0001
0010
1000
0010
0001
0011
0000
,  // measure 42
1000
0010
1000
0001
0010
0100
1000
0010
,  // measure 43
0100
0001
1000
0100
0010
0001
0100
0001
,  // measure 44
1000
0000
0010
0100
0010
0000
0100
0001
0100
0000
0010
0000
1000
0000
0100
0000
,  // measure 45
0001
0100
0000
1000
0010
0001
0010
1000
,  // measure 46
0001
0000
1000
0100
0010
0001
0100
0001
1000
0000
0010
0000
0001
0000
0010
0000
,  // measure 47
0000
0000
1000
0000
0100
0000
0001
0000
0100
0000
1000
0000
0001
0010
0100
1000
,  // measure 48
0022
0000
0000
0000
0033
0000
2002
0000
0000
3003
0010
0000
0100
0000
1000
0000
,  // measure 49
0011
0000
0001
1000
0002
0000
0003
0000
1010
0000
0100
0010
0200
0000
0300
0000
,  // measure 50
0001
0010
1000
0010
0001
0010
1000
0010
0001
0100
1000
0100
0001
0100
1000
0100
,  // measure 51
0001
0010
1000
0010
0001
1000
0001
0000
1000
0100
0010
0001
0100
0010
1000
0100
,  // measure 52
1000
0100
0001
0100
1000
0100
0001
0100
1000
0010
0001
0010
1000
0010
0001
0010
,  // measure 53
1000
0100
0001
0100
1000
0001
1000
0000
0001
0010
0100
1000
0010
0100
0001
0010
,  // measure 54
0001
0010
1000
0010
0001
0010
1000
0010
0001
0100
1000
0100
0001
0100
1000
0100
,  // measure 55
0001
0010
1000
0010
0001
0100
0001
0000
1000
0010
0100
0001
0010
0100
1000
0001
,  // measure 56
1000
0100
0001
0100
1000
0100
0001
0100
1000
0010
0001
0010
1000
0010
0001
0010
,  // measure 57
1000
0100
0001
0100
1000
0010
1000
0000
0010
0000
0100
0000
0010
0000
1000
0100
,  // measure 58
0010
0000
0001
0100
0001
0010
0100
1000
,  // measure 59
0001
0000
0000
0000
0100
0000
0010
0000
1000
0100
0010
0001
1000
0100
1000
0000
,  // measure 60
0001
0000
0100
0000
0001
0000
1000
0000
0010
0000
1000
0000
0100
0010
0001
0000
,  // measure 61
0100
0000
0010
0000
0100
0001
1000
0000
0100
0010
0100
0010
0100
0000
0010
0000
,  // measure 62
1000
0000
0001
0000
0100
0000
0010
0000
1000
0000
0001
0000
1000
0000
0100
0010
,  // measure 63
0001
0000
1000
0000
0010
0000
1000
0000
0100
0010
0100
0010
0100
0000
1000
0000
,  // measure 64
0011
0000
0000
1001
0000
0010
0100
0000
1010
0000
0000
0110
0000
1000
0001
0000
,  // measure 65
0010
0001
0010
0001
0010
0001
0010
0001
0100
0010
1000
0100
0010
0001
0100
0010
,  // measure 66
1000
0001
0100
0010
1000
0001
0100
0001
1000
0100
0010
0001
1000
0100
1000
0001
,  // measure 67
0100
0010
1000
0100
0010
0001
0100
0010
1000
0001
0100
0001
0010
0100
1000
0010
,  // measure 68
0100
0001
0010
0100
0010
0001
0100
0010
1000
0100
0010
0001
0100
0001
1000
0010
,  // measure 69
0100
1000
0100
0001
0010
1000
0010
0100
1000
0010
0001
0010
1000
0001
1000
0000
,  // measure 70
0010
0100
0001
0010
0100
1000
0010
0100
0001
0010
0100
1000
0001
0000
0101
0000
,  // measure 71
0001
0000
1000
0100
1000
0000
0011
0000
0001
0000
0100
0010
0100
0000
0001
0010
,  // measure 72
0100
1000
0100
0010
0001
0100
0010
1000
0100
0010
0001
0010
0100
0000
1000
0000
,  // measure 73
0100
0010
0001
0010
0100
0000
1001
0000
0001
0000
1000
0000
1010
0000
1000
0001
,  // measure 74
1000
0010
0100
0001
0010
0100
1000
0001
0100
0010
1000
0100
0010
0001
0100
0010
,  // measure 75
1000
0001
0010
0100
1000
0010
0100
0001
0010
0100
1000
0010
0100
0001
0010
0100
,  // measure 76
1000
0010
0100
0010
1000
0100
0010
0100
1000
0001
0010
0001
1000
0010
0100
0001
,  // measure 77
1000
0010
0001
1000
0100
0001
1000
0010
0001
1000
0100
0001
1000
0010
0001
1000
,  // measure 78
0100
0001
1000
0000
0001
0010
0100
1000
0010
0000
0100
0000
0001
0000
0110
0000
,  // measure 79
1000
0100
0010
0000
0100
0000
0011
0000
1000
0001
0100
0000
0010
0000
0101
0000
,  // measure 80
0001
0000
1000
0100
0010
0001
0100
0010
1000
0100
0010
0001
0100
0010
1000
0100
,  // measure 81
0010
0000
0001
0100
0010
0001
0010
0100
0010
0000
1000
0001
0100
0010
1000
0100
,  // measure 82
0010
0000
0100
0000
1000
0010
0001
0000
0001
0010
1000
0000
0001
0010
1000
0010
,  // measure 83
0001
0000
1000
0010
0001
1000
0100
0001
0100
1000
0100
0000
0001
0000
0010
0100
,  // measure 84
0010
1000
0001
0100
1000
0100
0001
1000
0010
0001
0010
1000
0001
0100
1000
0100
,  // measure 85
0001
0100
1000
0001
0100
0010
1000
0001
0100
1000
0001
0010
1000
0010
0100
0001
,  // measure 86
1000
0100
0010
1000
0001
0100
1000
0001
1000
0000
1010
0000
1000
0001
0100
0010
,  // measure 87
1000
0100
0010
0001
0100
0000
0011
0000
0001
0000
1000
0100
0010
0001
1000
0010
,  // measure 88
0100
0001
0010
0100
1000
0010
0001
0010
1000
0000
0110
0000
0001
0010
0100
0000
,  // measure 89
1000
0000
0000
0000
0010
0000
0000
0000
0100
0000
0000
0000
0010
0000
0000
0000
0001
0000
0000
0000
0010
0000
0000
0000
0100
0000
0000
0000
0000
0000
1001
0000
0000
0000
0000
0000
0001
0000
0000
0010
0000
0000
0100
0000
0000
1000
0000
0000
,  // measure 90
0001
0100
0010
1000
0100
0010
0001
1000
0010
0100
0010
1000
0001
0100
1000
0100
,  // measure 91
0001
0010
0100
1000
0010
0100
0001
0010
0100
1000
0001
1000
0100
0001
0100
1000
,  // measure 92
0001
0100
0010
1000
0001
0010
0100
1000
0010
0100
0001
1000
0001
0010
1000
0010
,  // measure 93
0001
1000
0010
0100
0001
0010
0100
1000
0010
0001
0010
1000
0100
0010
0001
0000
,  // measure 94
2002
0000
0000
0000
3003
0000
1100
0000
0000
1010
0000
0000
0101
0000
0000
0022
,  // measure 95
0000
0033
0000
2002
0000
0000
0000
0000
,  // measure 96
0000
0000
0000
3003
;
