#VERSION:0.83;
#TITLE:Bodies;
#SUBTITLE:;
#ARTIST:Drowning Pool;
#TITLETRANSLIT:;
#SUBTITLETRANSLIT:;
#ARTISTTRANSLIT:;
#GENRE:;
#ORIGIN:;
#CREDIT:;
#BANNER:;
#BACKGROUND:;
#PREVIEWVID:;
#JACKET:;
#CDIMAGE:;
#DISCIMAGE:;
#LYRICSPATH:;
#CDTITLE:;
#MUSIC:Bodies.ogg;
#OFFSET:1.236000;
#SAMPLESTART:59.280998;
#SAMPLELENGTH:15.000000;
#SELECTABLE:YES;
#BPMS:0.000=130.873,
36.000=65.436,
44.000=130.873,
92.000=261.746,
93.000=130.873,
96.500=261.746,
97.500=130.873,
101.000=261.746,
102.000=130.873,
105.500=261.746,
106.500=130.873,
110.000=261.746,
111.000=130.873,
114.500=261.746,
115.500=130.873,
119.000=261.746,
120.000=130.873,
223.500=261.746,
225.500=130.873,
228.500=261.746,
230.500=130.873,
233.500=261.746,
235.500=130.873,
238.500=261.746,
240.500=130.873;
#STOPS:;
#DELAYS:;
#WARPS:;
#TIMESIGNATURES:0.000=4=4;
#TICKCOUNTS:0.000=4;
#COMBOS:0.000=1;
#SPEEDS:0.000=1.000=0.000=0;
#SCROLLS:0.000=1.000;
#FAKES:;
#LABELS:0.000=Song Start;
#BGCHANGES:;
#KEYSOUNDS:;
#ATTACKS:
;

//---------------dance-single - ----------------
#NOTEDATA:;
#CHARTNAME:;
#STEPSTYPE:dance-single;
#DESCRIPTION:;
#CHARTSTYLE:;
#DIFFICULTY:Easy;
#METER:7;
#RADARVALUES:0.316528,0.401430,0.527547,0.228604,0.004396,252.000000,192.000000,60.000000,26.000000,0.000000,0.000000,0.000000,0.000000,0.000000,0.316528,0.401430,0.527547,0.228604,0.004396,252.000000,192.000000,60.000000,26.000000,0.000000,0.000000,0.000000,0.000000,0.000000;
#CREDIT:karatefaraway;
#NOTES:
0000
0000
0000
0000
,
0000
0000
0000
0000
,
0000
0000
0000
0000
,
0000
0000
0000
0000
,
0000
0000
0000
0000
,
1001
0001
0010
0100
,
1000
0010
0100
0001
,
1000
0100
0001
0100
,
1000
0010
0001
0010
,
2010
0000
0002
3003
,
0021
0000
0200
0330
,
1001
0001
0011
0010
,
0110
0100
1100
1000
,
1001
1000
1010
0010
,
0110
0100
0101
0001
,
1001
0001
0001
0001
,
1001
1000
1010
0010
,
0110
0100
0001
1000
,
0100
0010
0001
1000
,
1001
1000
1000
1000
,
1001
0001
0011
0010
,
0110
0100
0010
0100
,
1100
0011
1100
0011
,
2001
0000
0000
0000
0000
3010
0000
0000
,
0000
1002
0000
0000
0000
0000
0013
0000
,
0000
0000
2001
0000
0000
0000
0000
3100
,
0000
0000
0000
1002
0000
0000
0000
0000
,
0103
0000
0120
0000
,
0000
1030
0000
0001
0000
2001
0000
0000
,
0000
3100
0010
0210
,
0000
0000
0000
1300
0000
0001
0000
1001
,
0000
1001
0000
1001
0000
1001
0000
1010
,
0000
0010
0000
0100
0000
0001
0000
0101
,
0000
0001
0000
0010
0000
0100
0000
1100
,
0000
1000
0000
0010
0000
0100
0000
0110
,
0000
0010
0000
0100
0000
0001
0000
0011
,
0000
0010
0000
0100
0000
1000
0000
1100
,
0000
1000
0000
0010
0000
0100
0000
0101
,
0000
0001
0000
0010
0000
0100
0000
0110
,
0000
0010
0000
0100
0000
1000
0000
1001
,
0000
0000
1001
0000
0000
2001
0000
0000
,
0000
3100
0000
0011
0000
0000
0000
0101
,
0000
0100
0000
0010
0000
1000
0001
0000
,
1000
0000
0000
0001
0000
0000
2002
0000
0000
0000
3003
0000
0000
0000
1000
0000
,
0100
0010
0001
0000
0000
1002
0000
0000
,
0000
0103
0000
1010
0000
0000
0000
1100
,
0000
0100
0000
0010
0000
0001
1000
0001
,
2000
0000
0002
0000
0000
3003
0000
1001
,
0000
0001
0000
0010
0000
0100
0000
1100
,
0000
1000
0000
0010
0000
0100
0000
0101
,
0000
0001
0000
0010
0000
0100
0000
0110
,
0000
0010
0000
0001
0000
1000
0001
1001
,
0000
1000
0000
0010
0000
0100
0000
0101
,
0000
0001
0000
0010
0000
0100
0000
1100
,
0000
1000
0000
0010
0000
0100
0000
0110
,
0000
0010
0000
1000
0000
0001
1000
0200
,
0000
0000
0000
0000
0000
0000
0000
2300
,
0000
3002
0000
0000
0000
0000
0000
0000
,
0000
0203
0000
0320
0000
0000
0000
0000
,
0000
0000
0000
2030
0000
3002
0000
0000
,
0000
0000
0000
0013
0000
0220
0000
0330
;

//---------------dance-single - ----------------
#NOTEDATA:;
#CHARTNAME:;
#STEPSTYPE:dance-single;
#DESCRIPTION:;
#CHARTSTYLE:;
#DIFFICULTY:Medium;
#METER:11;
#RADARVALUES:0.434598,0.508478,0.457207,0.404453,0.026377,346.000000,294.000000,52.000000,46.000000,0.000000,0.000000,0.000000,0.000000,0.000000,0.434598,0.508478,0.457207,0.404453,0.026377,346.000000,294.000000,52.000000,46.000000,0.000000,0.000000,0.000000,0.000000,0.000000;
#CREDIT:karatefaraway;
#NOTES:
0000
0000
0000
0000
,
0000
0000
0000
0000
,
0000
0000
0000
0000
,
0000
0000
0000
0000
,
0000
0000
0000
0000
,
2001
0000
0000
3002
0000
0000
0013
0100
,
0120
0000
0000
0032
0000
0000
1003
0010
,
0210
0000
0000
0320
0000
0000
1030
0100
,
2100
0000
0000
3020
0000
0000
0130
0001
,
2001
0000
0000
0000
0001
0001
0001
3001
,
1001
1000
0010
0100
0101
0001
0010
0100
,
0110
0000
0010
0000
0001
0010
0100
0000
,
1100
0000
1000
0000
0010
0100
0001
0000
,
0011
0000
0010
0000
0100
1000
0010
0000
,
1010
0000
1000
0001
0010
0100
0010
0000
,
1001
0001
0100
1000
,
1100
0100
0101
0001
,
1001
1000
1010
0010
,
0110
0000
0100
0000
0101
0000
0001
1000
,
1001
1000
0100
0001
,
0101
0100
1100
1000
,
1001
0001
0011
0010
,
0110
0000
1100
0000
0110
0000
0011
0001
,
2000
0000
0000
3010
1000
0001
1000
0020
,
0000
0230
0000
0000
0310
1000
0100
0100
,
1000
0000
0002
0000
0000
0013
0001
1000
,
0001
0020
0000
0230
0000
0000
0310
0001
,
0100
0100
0001
0000
0021
0000
0000
0130
,
1000
0100
0010
0001
0000
0201
0000
0000
,
0310
1000
0010
0100
0001
0000
1020
0000
,
0000
0130
0001
0100
0010
1000
0000
1001
,
0000
0000
1001
0000
0000
0000
1001
0000
0000
0000
1000
0001
1000
0001
1000
0000
,
0000
0100
0010
0000
0010
0001
1000
0010
,
0000
0010
0100
0000
0100
0010
1000
0001
,
0000
0001
0010
0000
0010
0100
1000
0001
,
0100
0010
0100
0001
0100
0010
1000
0001
,
0000
0100
0010
0000
0010
1000
0001
0010
,
0000
0010
0100
0000
0100
0010
0001
1000
,
0000
1000
0010
0000
0010
0100
0001
1001
,
1000
0010
0100
0001
1000
0100
0100
2000
,
0000
3010
2000
0000
0000
3200
0000
0000
,
1300
0001
0000
2002
0000
0000
3003
0001
,
0010
1000
0020
0000
0000
0031
1000
0000
,
1010
0000
0000
0110
0000
0000
0102
0000
0000
0000
0000
0000
1003
0000
1100
0000
,
0100
0010
0002
0000
0000
0103
0000
0000
,
1001
0000
0000
0110
0000
0000
2002
0000
0000
0000
0000
0000
3003
0000
1000
0000
,
0100
0001
0200
0000
0000
1300
0010
0100
,
0002
0000
0013
0200
0000
0310
0001
1002
,
0000
0103
0010
1000
0100
0010
0001
2000
,
0000
3010
0100
0001
0100
0010
1000
0002
,
0000
1003
0100
0010
0001
1000
0010
1000
,
0100
0010
0100
1000
0100
0010
0001
2001
,
0000
3100
0010
0001
0100
0010
1000
0002
,
0000
0013
0100
1000
0100
0010
0001
2000
,
0000
3001
0100
0010
1000
0001
0010
1001
,
0001
0000
0010
0000
0100
0000
1000
0000
0001
0000
1000
0010
1000
0020
2000
0000
,
0000
0000
0000
0000
0000
3030
0000
1100
,
0000
0022
0000
0000
0000
0000
0000
0033
,
0000
0101
0200
0020
0000
0000
0000
0000
,
0330
0101
0000
1010
0000
2100
0000
0000
,
0000
0000
3001
0100
0000
2020
0000
3030
;

//---------------dance-single - ----------------
#NOTEDATA:;
#CHARTNAME:;
#STEPSTYPE:dance-single;
#DESCRIPTION:;
#CHARTSTYLE:;
#DIFFICULTY:Hard;
#METER:15;
#RADARVALUES:0.609191,0.963432,0.808905,0.536339,0.246188,485.000000,393.000000,92.000000,61.000000,0.000000,18.000000,0.000000,0.000000,0.000000,0.609191,0.963432,0.808905,0.536339,0.246188,485.000000,393.000000,92.000000,61.000000,0.000000,18.000000,0.000000,0.000000,0.000000;
#CREDIT:karatefaraway;
#NOTES:
// measure 0
0000
0000
0000
0000
,  // measure 1
0000
0000
0000
0000
,  // measure 2
0000
0000
0000
0000
,  // measure 3
0000
0000
0000
0000
,  // measure 4
0000
0000
0000
0000
,  // measure 5
1001
0000
0000
0000
1000
0000
2010
0000
0000
0000
3010
0000
0110
0000
0100
0001
,  // measure 6
0010
0000
0000
0000
0010
0000
0120
0000
0000
0000
0130
0000
0110
0000
0010
0001
,  // measure 7
0100
0000
0000
0000
0001
0000
0201
0000
0000
0000
0310
0000
1010
0000
1000
0001
,  // measure 8
0010
0000
0000
0000
0100
0000
0120
0000
0000
0000
0031
0000
0100
0010
1000
0100
,  // measure 9
0020
0000
0000
0000
0032
1000
1000
1003
,  // measure 10
1010
0000
0000
0000
0000
0000
0000
0000
0000
0000
0000
0000
1000
0000
0000
0000
0000
0000
0000
0000
0000
0000
0000
0000
0010
0000
0000
0000
0000
0000
0000
0000
0000
0000
0000
0000
1000
0000
0000
0000
0000
0000
0000
0000
0000
0000
0000
0000
0001
0000
0000
0000
0000
0000
0000
0000
0000
0000
0000
0000
0100
0000
0000
0000
0000
0000
0000
0000
0000
0000
0000
0000
1000
0000
0000
0000
0000
0000
0000
0000
0000
0000
0000
0000
0100
0000
0000
0000
0000
0000
0000
0000
0000
0000
0000
0000
0101
0000
0000
0000
0000
0000
0000
0000
0000
0000
0000
0000
0001
0000
0000
0000
0000
0000
1000
0000
0000
0000
0000
0000
0000
0000
0000
0000
0000
0000
1000
0000
0000
0000
0000
0000
0100
0000
0000
0000
0000
0000
0000
0000
0000
0000
0000
0000
0110
0000
0000
0000
0000
0000
0000
0000
0000
0000
0000
0000
0010
0000
0000
0000
0100
0000
0000
0000
0010
0000
0000
0000
0100
0000
0000
0000
0000
0000
0000
0000
0000
0000
0000
0000
0010
0000
0000
0000
0000
0000
0000
0000
0000
0000
0000
0000
,  // measure 11
1001
0000
0000
0001
1000
0000
1010
0000
0010
0100
0001
1000
0100
0000
0010
0000
,  // measure 12
0110
0000
0000
0100
0010
0000
0001
0000
1000
0001
0010
0100
1000
0000
0001
0000
,  // measure 13
1001
0000
0000
1000
0100
0000
0010
0000
0001
1000
0010
0100
0001
0000
1000
0000
,  // measure 14
1001
0000
0001
0000
0101
0000
0100
0000
0120
0000
0000
0000
1030
0100
0010
0001
,  // measure 15
0100
0000
0000
0100
0001
0000
0001
0000
0000
0000
0001
0000
0010
0000
0100
0000
,  // measure 16
0120
0000
0031
1000
0020
0000
1030
0001
,  // measure 17
0100
0000
0000
0100
0010
0000
1000
0000
0000
0000
1000
0000
0100
0000
0010
0000
,  // measure 18
0100
0000
0000
0100
0010
0000
0001
0000
0000
0000
0001
0000
0100
0000
0010
1000
,  // measure 19
0100
0000
0000
0100
1000
0000
1000
0000
0000
0000
1000
0000
0010
0000
0100
0000
,  // measure 20
0120
0000
1030
0001
0020
0000
0031
1000
,  // measure 21
0100
0000
0000
0100
0010
0000
0001
0000
0000
0000
0001
0000
0100
0000
0010
0000
,  // measure 22
0100
0000
0001
0010
0100
0000
1000
0010
0100
0000
0001
0010
0100
0000
1000
0000
,  // measure 23
2002
0000
3003
1000
0100
0001
0100
1100
,  // measure 24
0000
2002
0000
3003
0001
0100
1000
0100
,  // measure 25
0101
0000
2002
0000
3003
0001
0010
1000
,  // measure 26
0010
0011
0000
2002
0000
3003
1000
0010
,  // measure 27
0001
0000
0010
0000
1010
0000
1000
0100
0020
0000
0000
0000
0000
0000
0130
0000
,  // measure 28
1000
0000
0010
0000
0100
0002
0000
0000
1003
0000
0200
0000
0000
0000
0000
0000
,  // measure 29
0310
0000
0001
0000
0100
0000
0010
2000
0000
0000
3001
0000
0020
0000
0000
0000
,  // measure 30
0000
0000
0130
0000
1000
0000
0010
0000
0200
0002
0000
0000
0000
0000
1010
0000
,  // measure 31
0000
0000
1010
0000
0000
0000
1010
0000
0000
0000
1000
0010
1000
0010
1303
0000
,  // measure 32
0000
0001
0100
1100
0100
0001
0010
0012
,  // measure 33
0000
1003
0001
0101
0100
0010
1000
2100
,  // measure 34
0000
3001
0100
0110
0010
1000
0001
0020
,  // measure 35
0000
0000
1030
0000
0020
0000
0000
0000
0031
0000
0100
0001
0100
0010
1000
0000
,  // measure 36
0000
1000
0100
0101
0100
1000
0010
2010
,  // measure 37
0000
3001
1000
1100
0100
0010
0001
0102
,  // measure 38
0000
1003
0100
0110
0010
0001
1000
0020
,  // measure 39
0000
0031
0020
0000
1030
1010
1001
0101
,  // measure 40
0100
0010
2000
0000
3100
0220
0000
0000
,  // measure 41
0001
1000
0000
1331
0000
1000
0010
1010
,  // measure 42
1000
0100
0010
0011
0001
1002
2000
0000
,  // measure 43
0010
0000
0000
0100
0000
0000
3113
0000
0000
0000
1001
0000
0000
0000
0011
0000
,  // measure 44
0010
0100
2000
0000
3010
0220
0000
0000
,  // measure 45
1000
0000
0000
0001
0000
0000
1331
0000
0000
0000
0001
0000
0010
0000
0011
0000
,  // measure 46
0001
0100
0101
0001
1000
1100
0100
0010
,  // measure 47
0002
0000
0000
0013
0000
0100
1000
0000
0001
0000
0101
0000
0100
0000
0120
0000
,  // measure 48
0000
1030
0100
0110
0010
0011
0011
2001
,  // measure 49
0000
3001
1000
1100
0100
0110
0110
2100
,  // measure 50
0000
3001
0100
0110
0010
1010
1010
1001
,  // measure 51
0001
0000
0010
0000
1000
0000
0010
0000
0001
0000
0100
0010
1000
0001
0020
0000
,  // measure 52
0000
0031
0100
0110
0010
1010
1010
1002
,  // measure 53
0000
1003
0001
0101
0100
0110
0110
0102
,  // measure 54
0000
1003
0100
0110
0010
0011
0011
1001
,  // measure 55
1000
0100
0010
0000
0021
0000
0000
0000
0031
0000
0010
0100
1000
0002
0200
0000
,  // measure 56
0000
0000
0000
0303
0101
0000
0001
1001
,  // measure 57
1000
2200
0000
0000
0000
3300
1100
0000
,  // measure 58
1000
0000
1001
0000
0001
0020
0200
0000
0000
0000
0000
0000
0000
0000
0330
0000
,  // measure 59
1001
0000
0000
0000
1000
0000
1010
0000
0010
0100
0002
0000
0000
0000
0000
0000
,  // measure 60
0000
0000
2003
0200
0000
0022
0000
3333
;
