#VERSION:0.83;
#TITLE:Believe again;
#SUBTITLE:;
#ARTIST:Saint Snow;
#TITLETRANSLIT:;
#SUBTITLETRANSLIT:;
#ARTISTTRANSLIT:;
#GENRE:;
#ORIGIN:;
#CREDIT:;
#BANNER:;
#BACKGROUND:;
#PREVIEWVID:;
#JACKET:;
#CDIMAGE:;
#DISCIMAGE:;
#LYRICSPATH:;
#CDTITLE:;
#MUSIC:Believe again.ogg;
#OFFSET:-0.426000;
#SAMPLESTART:64.710999;
#SAMPLELENGTH:15.000000;
#SELECTABLE:YES;
#BPMS:0.000=140.000;
#STOPS:;
#DELAYS:;
#WARPS:;
#TIMESIGNATURES:0.000=4=4;
#TICKCOUNTS:0.000=4;
#COMBOS:0.000=1;
#SPEEDS:0.000=1.000=0.000=0;
#SCROLLS:0.000=1.000;
#FAKES:;
#LABELS:0.000=Song Start;
#BGCHANGES:;
#KEYSOUNDS:;
#ATTACKS:
;

//---------------dance-single - ----------------
#NOTEDATA:;
#CHARTNAME:;
#STEPSTYPE:dance-single;
#DESCRIPTION:;
#CHARTSTYLE:;
#DIFFICULTY:Easy;
#METER:7;
#RADARVALUES:0.322918,0.366003,0.178242,0.526623,0.052662,279.000000,257.000000,22.000000,65.000000,0.000000,0.000000,0.000000,0.000000,0.000000,0.322918,0.366003,0.178242,0.526623,0.052662,279.000000,257.000000,22.000000,65.000000,0.000000,0.000000,0.000000,0.000000,0.000000;
#CREDIT:buttsharties;
#NOTES:
0000
0000
0000
0000
,
0000
0000
0000
0000
,
0001
1000
0001
0010
,
1000
0100
0001
1001
,
0000
1100
0000
1001
,
0000
0101
0000
1001
,
0000
1100
0000
1001
,
0001
1001
2000
3200
,
1300
0100
0001
0010
,
2000
0000
0000
3001
0000
0000
0100
0000
0010
0100
0000
0000
,
0001
0010
1000
0100
,
0002
0000
0000
1003
0000
0000
0001
0000
1000
0001
0000
0000
,
0002
0000
2003
0000
,
3002
2000
3003
1001
,
1000
0001
0010
1000
,
0010
0001
0100
0020
,
2030
3001
0100
1000
,
0100
0000
0000
0001
0000
0000
1000
0000
0001
2000
0000
0000
,
3002
1003
0010
0001
,
1000
0100
0002
2003
,
3002
0013
1000
0001
,
0100
1000
0001
1001
,
2000
0000
0000
3001
0000
1000
0001
0000
0000
0100
0000
0000
,
0010
1000
0001
0010
,
0200
0000
0000
1300
0000
0001
1000
0000
0000
0010
0000
0000
,
0100
0001
1000
0200
,
0320
0130
1000
0002
,
0203
2300
3200
0302
,
1003
0100
0010
0002
,
0023
2030
3020
0032
,
1003
0000
0000
0010
0000
0100
0020
0000
0000
0030
0000
0000
,
1000
0000
0000
0100
0000
0010
0200
0000
0000
0300
0000
0000
,
1000
0100
0001
0100
,
0010
0100
1000
0001
,
1001
0000
0000
1000
0000
1000
0000
0000
0000
1000
0000
0000
,
1001
0000
0000
0001
0000
0001
0000
0000
0000
1001
0000
0000
,
1001
1000
1001
0001
,
1000
0100
0010
0200
,
1000
2300
3000
0020
,
1000
2030
3000
1001
,
1000
0100
0001
0010
,
1000
0001
0100
0020
,
1000
2030
3000
0200
,
1000
2300
3000
1001
,
0001
1000
0100
0001
,
0020
1030
1001
0002
,
1003
0100
0001
0100
,
0010
0100
2000
3001
,
1000
0010
0001
0010
,
0100
0001
0200
0320
,
1000
2030
3000
0200
,
1000
2300
3000
1001
,
0001
0010
1000
0100
,
0002
0013
0002
0103
,
1001
1000
0100
0001
,
0100
1000
0002
2003
,
3002
1000
2003
0100
,
3200
0020
0330
0000
,
2002
0000
0000
3000
,
0013
0100
1000
1001
,
0001
0100
1000
0100
,
0020
0000
0000
0130
0000
0000
0001
0000
0100
0010
0000
0000
,
1000
0100
0001
0100
,
0020
0000
0000
0130
0000
0000
1000
0000
0100
0010
0000
0000
,
0001
0010
1000
0001
,
0200
0000
0000
1300
0000
0000
0001
0000
1000
0001
0000
0000
,
1000
0010
0001
1000
,
0200
0000
0000
0301
0000
0000
1000
0000
0001
1000
0000
0000
,
0002
0000
2003
0000
,
3002
2000
3003
0000
;

//---------------dance-single - ----------------
#NOTEDATA:;
#CHARTNAME:;
#STEPSTYPE:dance-single;
#DESCRIPTION:;
#CHARTSTYLE:;
#DIFFICULTY:Medium;
#METER:11;
#RADARVALUES:0.516206,0.506773,0.315974,0.388891,0.676508,446.000000,407.000000,39.000000,48.000000,0.000000,0.000000,0.000000,0.000000,0.000000,0.516206,0.506773,0.315974,0.388891,0.676508,446.000000,407.000000,39.000000,48.000000,0.000000,0.000000,0.000000,0.000000,0.000000;
#CREDIT:buttsharties;
#NOTES:
0000
0000
0000
0000
,
0000
0000
0000
0000
,
1000
0000
0000
1001
0000
0000
0001
0000
0100
0001
0000
0200
,
0000
0000
0000
0310
0000
0000
0010
1000
0001
0200
0000
0000
,
0301
0000
0000
1000
0000
0010
0100
0000
0000
0110
0000
0000
,
0100
0000
0001
0010
0000
0000
0002
0000
0000
1003
0000
0100
,
1000
0000
0000
0010
0000
0100
0001
0000
0001
0100
0000
0010
,
0200
0301
1001
1100
,
1000
0000
0010
0100
0000
0001
0100
0000
0010
0100
0000
0002
,
0000
0000
0000
2003
0000
0000
3100
0000
0001
0100
0000
1000
,
0001
0000
0100
0010
0000
1000
0010
0000
0100
0010
0000
2000
,
0000
0000
0000
3002
0000
0000
0103
0000
1000
0100
0000
0001
,
1000
0100
1000
0200
0000
0000
1300
0010
1000
0020
0000
0000
,
1030
0001
1000
0002
0000
0000
1003
0000
0000
1001
0000
0000
,
1010
0000
0000
0010
0000
0100
0001
0000
0000
0001
0000
0010
,
0100
0000
0100
1000
0000
0002
0000
0000
0103
0010
0000
0010
,
2000
0000
0000
3100
0000
0010
0100
0000
0000
1000
0000
0010
,
0100
0000
0100
0001
0000
0010
0000
0000
0000
0011
0000
0000
,
0011
0000
0000
0001
0000
0100
0010
0000
0000
0100
0000
0010
,
1000
0000
0100
0010
0000
0200
0000
0000
0000
1300
0001
1000
,
0001
0000
0000
0100
0000
0010
1000
0000
0000
0001
0000
0100
,
0010
0000
1000
0010
0000
0000
1010
0000
0000
1010
0000
0000
,
1001
0000
0000
0001
0000
0010
0100
0000
0000
0100
0000
0100
,
1000
0000
0001
0100
0000
0010
1000
0000
0001
0010
0000
0010
,
0002
0000
0000
1003
0000
0010
0100
0000
0100
0010
0000
0100
,
0001
0000
0010
0100
0000
0100
0010
0000
0000
0110
0000
0000
,
0110
0000
0000
0100
0000
1000
0001
0000
0100
0010
0000
0200
,
0000
0000
0000
0302
0000
0000
1003
0000
1000
0001
1000
0001
,
1000
0000
0100
0010
0000
0100
1000
0000
0001
1000
0000
0000
,
0200
0000
0000
0320
0000
0000
0031
0000
0100
0001
0000
0000
,
1000
0000
0010
0100
0000
0100
0010
0000
0000
1000
0001
1000
,
0001
0000
0010
0100
0000
0100
0010
0000
0000
0001
1000
0001
,
1000
0000
0010
0100
0000
0000
0001
0000
0010
0100
0000
0000
,
1000
0000
0010
1000
0001
1000
0001
0000
0000
1001
0000
0000
,
1001
0000
0000
1000
0000
1010
0000
0000
0000
0110
0000
0000
,
0110
0000
0000
0001
0000
0011
0000
0000
0000
0101
0000
0000
,
0101
1100
1100
0101
,
0001
0010
0001
0020
0000
0000
0130
0000
0000
1000
0000
0200
,
0000
0000
0000
0310
0000
0200
0000
0000
0310
0001
0000
0200
,
0000
0000
0000
0310
0000
0200
0000
0000
0310
1000
0000
0000
,
1001
0000
0001
0010
0000
0100
1000
0000
0010
0100
0000
0002
,
0000
0000
0000
1003
0000
0000
0010
1000
0010
1000
0000
0020
,
0000
0000
0000
0130
0000
0020
0000
0000
0130
0001
0000
0020
,
0000
0000
0000
0130
0000
0020
0000
0000
0130
1000
0000
0000
,
1001
0000
0001
0100
0000
0010
1000
0000
0100
0010
0000
0002
,
0000
1003
0110
0001
,
1001
0000
1000
0010
0000
0100
0010
0000
0010
0100
0000
0001
,
1000
0000
0001
1000
0000
0100
0010
0000
0010
0100
0000
1000
,
0001
0000
0100
1000
0000
0100
0010
0000
1000
0001
0000
0010
,
0100
0000
0100
1000
0000
1000
0001
0000
0000
1000
0000
0200
,
0000
0000
0000
0310
0000
0200
0000
0000
1300
0010
0000
0020
,
0000
0000
0000
0130
0000
0020
0000
0000
1030
0100
0000
0000
,
1001
0000
1000
0010
0000
0010
0100
0000
0100
0001
0000
2000
,
0000
0000
0000
3001
0000
0000
0110
0000
0000
1000
0000
0001
,
1000
1010
0011
1010
,
1000
0000
0100
0010
0000
0010
0100
0000
0000
1100
0000
0000
,
1001
0101
1100
0101
,
0001
0000
0010
0100
0000
0100
1000
0000
0001
2000
0000
0000
,
0002
0000
0000
3000
,
0013
0100
1000
1001
,
0001
0000
0010
0100
0000
0100
1000
0000
0010
0100
0000
0002
,
0000
0000
0000
2003
0000
0000
3001
0000
0010
1000
0000
0010
,
0001
0000
0100
0010
0000
0010
1000
0000
0100
0010
0000
0002
,
0000
0000
0000
2003
0000
0000
3001
0000
0100
1000
0000
0100
,
0001
0000
0100
1000
0000
0100
0010
0000
1000
0100
0000
0020
,
0000
0000
0000
0230
0000
0000
1300
0000
0010
0001
0000
0010
,
1000
0000
0010
0001
0000
0010
0100
0000
0001
0010
0000
0200
,
0000
0000
0000
2300
0000
0000
3001
0000
0100
0010
0000
1000
,
0001
0010
0001
0020
0000
0000
0031
0100
0001
0200
0000
0000
,
0301
1000
0001
2000
0000
0000
3001
0000
0000
0000
0000
0000
;

//---------------dance-single - ----------------
#NOTEDATA:;
#CHARTNAME:;
#STEPSTYPE:dance-single;
#DESCRIPTION:;
#CHARTSTYLE:;
#DIFFICULTY:Hard;
#METER:15;
#RADARVALUES:0.637734,0.708915,0.283566,0.372687,1.045144,551.000000,516.000000,35.000000,46.000000,0.000000,0.000000,0.000000,0.000000,0.000000,0.637734,0.708915,0.283566,0.372687,1.045144,551.000000,516.000000,35.000000,46.000000,0.000000,0.000000,0.000000,0.000000,0.000000;
#CREDIT:buttsharties;
#NOTES:
// measure 0
0000
0000
0000
0000
,  // measure 1
0000
0000
0000
0000
,  // measure 2
1001
0000
0000
1001
0000
0000
1000
0010
0100
1000
0100
0020
,  // measure 3
0000
0000
0000
2030
0000
0000
3001
0010
0100
0001
0100
0010
,  // measure 4
0001
0000
0000
1001
0000
1000
0100
0010
0100
0010
0001
1000
,  // measure 5
0001
0000
0100
0000
0010
0000
0100
0000
0010
0000
1000
0000
0002
0000
0000
0000
0000
0000
1003
0000
0000
0000
0010
0100
,  // measure 6
0010
0000
0000
1010
0000
0010
1000
0100
0010
0002
0000
0103
,  // measure 7
0010
1001
1010
0011
,  // measure 8
0001
0000
0100
1000
0000
1000
0100
0000
0001
0010
0000
0001
,  // measure 9
0200
0000
0301
0020
0000
0031
0100
0010
0001
1000
0100
0010
,  // measure 10
1000
0000
0100
0001
0000
0001
0100
0000
1000
0010
0000
0100
,  // measure 11
0020
0000
1030
0200
0000
1300
0010
0100
1000
0001
0010
0100
,  // measure 12
0001
0001
0010
0100
0010
0001
1000
1000
0010
0100
0010
1000
,  // measure 13
0001
0001
0100
1000
0100
0001
1000
0000
0000
1001
0000
0000
,  // measure 14
0011
0000
0010
0100
0000
0100
1000
0000
1000
0010
0000
0010
,  // measure 15
0100
0000
0100
1000
0000
1000
0100
0000
0100
0001
0010
0100
,  // measure 16
2000
0000
0000
3010
0000
0010
0100
0000
0100
0001
0000
0001
,  // measure 17
0010
0000
0010
1000
0000
1000
0010
0000
0000
0011
0000
0000
,  // measure 18
1001
0000
1000
0010
0000
0010
0100
0000
0100
0010
0000
0010
,  // measure 19
0100
0000
0100
1000
0000
1000
0100
0000
0100
0001
0010
0001
,  // measure 20
1000
0000
1000
0100
0000
0100
0010
0000
0010
0100
0000
0100
,  // measure 21
0010
0000
0000
0000
0010
0000
1000
0000
0000
0000
1000
0000
0010
0000
0000
0000
0001
0010
0002
0000
0000
0000
0103
0000
,  // measure 22
0010
0000
0100
0001
0000
1000
0100
0000
1000
0010
0000
0100
,  // measure 23
0001
0000
0100
1000
0000
0100
0001
0000
0010
0100
0001
0100
,  // measure 24
1000
0000
0010
0100
0000
0001
0010
0000
0100
0010
0000
0100
,  // measure 25
1000
0000
0100
0001
0000
0001
0100
1000
0001
0100
0000
0000
,  // measure 26
0101
0000
0001
0100
0000
0010
1000
0000
0001
0010
0000
0002
,  // measure 27
0100
0000
0000
2003
0000
0000
3010
0100
0001
1000
0100
0010
,  // measure 28
0100
0000
1000
0010
0000
0100
0001
0000
0010
0100
0000
2000
,  // measure 29
0010
3020
0001
1030
,  // measure 30
0001
0010
0100
0001
0100
1000
0002
0000
0000
0103
1000
0100
,  // measure 31
0001
0100
0010
0001
1000
0100
0001
1000
0100
0010
0100
1000
,  // measure 32
0001
0100
0000
0110
0000
0000
0010
1000
0000
1010
0000
0000
,  // measure 33
1000
0001
0010
0001
1000
0000
1001
0000
0000
0011
0000
0000
,  // measure 34
0011
0000
0000
1010
0000
1010
0000
0000
0000
1100
0000
0000
,  // measure 35
1100
0000
0000
0000
0000
0000
0101
0000
0000
0000
0101
0000
0000
0000
0000
0000
0100
0001
0200
0000
0000
0000
0000
0000
,  // measure 36
0320
1030
2001
0100
,  // measure 37
3001
0100
0010
1000
0100
0010
0001
0000
0000
1010
0000
0020
,  // measure 38
0100
0000
0000
0031
0000
0020
0000
0000
1030
0001
0000
0200
,  // measure 39
0010
0000
0000
1300
0000
0200
0000
0000
0301
1000
0000
0000
,  // measure 40
1001
0000
1000
0100
0000
0100
0001
0000
0001
0100
0000
0100
,  // measure 41
1000
0000
0010
0200
0000
0000
0301
0010
0100
1000
0000
0200
,  // measure 42
0010
0000
0000
0301
0000
0200
0000
0000
1300
0001
0000
0020
,  // measure 43
0100
0000
0000
1030
0000
0020
0000
0000
0031
1000
0000
0000
,  // measure 44
1001
0000
1000
0010
0000
0010
0001
0000
0001
0010
0000
0010
,  // measure 45
1000
1010
0011
2010
,  // measure 46
3001
0000
0010
0100
0000
0010
1000
0010
0100
1000
0000
0001
,  // measure 47
0100
0000
1000
0100
0000
0001
0010
0100
0010
0001
0000
0100
,  // measure 48
0001
0000
0100
0010
0000
0100
1000
0100
0010
1000
0000
0001
,  // measure 49
0010
0000
1000
0010
0000
0001
1000
0010
0100
0001
0000
0020
,  // measure 50
0100
0000
0000
1030
0000
0020
0000
0000
0031
0100
0000
0200
,  // measure 51
0010
0000
0000
1300
0000
0200
0000
0000
0301
1000
0000
0000
,  // measure 52
0101
0000
0100
1000
0000
0001
0010
0000
1000
0100
0000
0020
,  // measure 53
0000
0000
0000
0130
0000
0000
2000
0000
0000
3010
0000
0100
,  // measure 54
0001
0200
1000
1000
,  // measure 55
0301
0000
0010
0100
0000
0100
1000
0001
0100
0010
1000
0001
,  // measure 56
1000
0000
0000
1010
0000
0000
0010
0000
0000
0110
0000
0100
,  // measure 57
0001
0000
0010
0100
0000
0100
1000
0000
0001
1000
0000
0000
,  // measure 58
2002
0000
0000
3000
,  // measure 59
0013
0100
1000
1001
,  // measure 60
1000
0000
0010
0001
0000
0001
0010
0000
1000
0001
0000
0001
,  // measure 61
0020
0000
0130
2000
0000
3001
0100
1000
0100
0010
0100
0001
,  // measure 62
1000
0000
0100
0001
0000
0001
0100
0000
1000
0001
0000
1000
,  // measure 63
0200
0000
0310
0002
0000
0103
0010
0001
1000
0100
0010
1000
,  // measure 64
0001
0000
0010
1000
0000
0010
0001
0000
0100
1000
0000
0100
,  // measure 65
0020
0000
0031
2000
0000
3001
0010
1000
0001
0010
0100
1000
,  // measure 66
0001
0000
0100
1000
0000
0100
0001
0000
0010
1000
0000
0010
,  // measure 67
0200
0000
0301
2000
0000
3001
0100
1000
0001
0100
0010
1000
,  // measure 68
0001
0001
0100
0010
0100
0001
1000
1000
0100
0010
0100
1000
,  // measure 69
0001
0001
0010
1000
0010
0001
2000
0000
0000
0000
0000
0000
,  // measure 70
3000
0000
0000
0000
;
