#VERSION:0.83;
#TITLE:Banquet;
#SUBTITLE:;
#ARTIST:Bloc Party;
#TITLETRANSLIT:;
#SUBTITLETRANSLIT:;
#ARTISTTRANSLIT:;
#GENRE:;
#ORIGIN:;
#CREDIT:;
#BANNER:;
#BACKGROUND:;
#PREVIEWVID:;
#JACKET:;
#CDIMAGE:;
#DISCIMAGE:;
#LYRICSPATH:;
#CDTITLE:;
#MUSIC:Banquet.ogg;
#OFFSET:-0.021000;
#SAMPLESTART:44.757999;
#SAMPLELENGTH:12.782000;
#SELECTABLE:YES;
#BPMS:0.000=150.210;
#STOPS:;
#DELAYS:;
#WARPS:;
#TIMESIGNATURES:0.000=4=4;
#TICKCOUNTS:0.000=4;
#COMBOS:0.000=1;
#SPEEDS:0.000=1.000=0.000=0;
#SCROLLS:0.000=1.000;
#FAKES:;
#LABELS:0.000=Song Start;
#BGCHANGES:;
#KEYSOUNDS:;
#ATTACKS:
;

//---------------dance-single - ----------------
#NOTEDATA:;
#CHARTNAME:;
#STEPSTYPE:dance-single;
#DESCRIPTION:;
#CHARTSTYLE:;
#DIFFICULTY:Easy;
#METER:7;
#RADARVALUES:0.331053,0.349908,0.253223,0.237876,0.000000,302.000000,269.000000,33.000000,31.000000,0.000000,0.000000,0.000000,0.000000,0.000000,0.331053,0.349908,0.253223,0.237876,0.000000,302.000000,269.000000,33.000000,31.000000,0.000000,0.000000,0.000000,0.000000,0.000000;
#CREDIT:deficientpitch;
#NOTES:
0000
0000
0000
0000
,
0000
0000
0000
0000
,
0000
0000
0000
0000
,
0000
0000
0000
0000
,
1000
1000
0001
0001
,
0010
0010
0100
0100
,
1000
1000
0001
0001
,
0100
0100
0010
2000
,
3100
0100
0010
0010
,
0001
0001
1000
1000
,
0010
0010
0100
0100
,
0001
1000
0001
0010
,
0100
1000
2200
3300
,
0010
0001
2002
3003
,
0001
0100
1000
0100
,
0001
0001
1000
0001
,
0010
0100
0220
0330
,
1000
0001
0202
0303
,
1000
0001
0100
1000
,
0100
0000
0001
0000
1000
0001
1000
0000
,
0200
0000
0302
0000
,
0203
0000
2300
0000
,
3001
0001
1000
1000
,
0010
0010
0100
0001
,
1000
1000
0001
0001
,
0010
0010
1000
0010
,
0001
0001
1000
1000
,
0010
0100
0001
1000
,
0100
0010
0110
1001
,
0000
0100
0010
1000
,
0001
0010
0110
1001
,
0000
1000
0002
0203
,
0310
1000
1001
0110
,
0000
0000
0001
0000
1000
0100
1000
0000
,
0001
0001
1000
0010
,
0100
0100
0000
0000
0010
0010
0000
0000
,
1000
0001
1001
0110
,
0100
1000
0001
1000
,
0010
0100
0110
1001
,
0001
0100
1000
0100
,
0010
1000
1001
0110
,
0100
0000
1000
0000
0001
1000
0001
0000
,
1000
1000
0010
0010
,
1000
0001
0010
0100
,
2001
0000
0010
0000
,
0100
0000
3001
0000
,
1002
0000
0100
0000
,
0010
0000
1003
0000
,
2001
0000
3200
0000
,
0302
0000
0203
0000
,
2300
0000
3001
0000
,
0100
0100
0010
0010
,
1000
0001
0101
1100
,
0001
0001
1000
1000
,
0010
0100
0110
1001
,
0010
0100
1000
0001
,
1000
1000
0010
0100
,
2000
3100
0002
1003
,
0100
0010
0100
0000
1000
0000
0001
0000
,
1000
1000
0110
1001
,
0002
0103
0000
0100
,
0000
0000
0001
0000
0010
0100
0010
0000
,
0002
0000
0103
0000
0001
1000
0001
0000
,
0000
0000
0001
0000
0010
0100
1000
0000
,
2000
3100
0000
0100
,
0000
0000
1000
0000
0010
0100
0010
0000
,
2000
0000
3100
0000
0001
0100
1000
0000
,
0010
0010
1001
1001
,
0010
0100
2000
3001
,
1000
1000
1010
1010
,
0100
0010
2000
3001
,
1000
1000
1100
1100
,
0010
0001
0200
1300
,
0100
0010
1001
0110
,
0100
1000
0001
0001
,
0100
0010
0100
0000
0001
0000
1000
0000
,
0100
0000
0000
0000
;

//---------------dance-single - ----------------
#NOTEDATA:;
#CHARTNAME:;
#STEPSTYPE:dance-single;
#DESCRIPTION:;
#CHARTSTYLE:;
#DIFFICULTY:Medium;
#METER:11;
#RADARVALUES:0.515215,0.495703,0.191835,0.092081,0.030694,470.000000,445.000000,25.000000,12.000000,0.000000,0.000000,0.000000,0.000000,0.000000,0.515215,0.495703,0.191835,0.092081,0.030694,470.000000,445.000000,25.000000,12.000000,0.000000,0.000000,0.000000,0.000000,0.000000;
#CREDIT:deficientpitch;
#NOTES:
// measure 0
0000
0000
0000
0000
,  // measure 1
0000
0000
0000
0000
,  // measure 2
0000
0000
0000
0000
,  // measure 3
0000
0000
0000
0000
,  // measure 4
1000
1000
0010
0000
1000
1000
0001
0000
,  // measure 5
1000
1000
0100
0000
1000
1000
0001
0000
,  // measure 6
0001
0001
0100
0000
0001
0001
1000
0000
,  // measure 7
0001
0001
0010
0000
0100
1000
0002
0000
,  // measure 8
1003
1000
0100
0000
1000
1000
0001
0000
,  // measure 9
1000
1000
0010
0000
1000
1000
0001
0000
,  // measure 10
0001
0001
0010
0000
0001
0001
1000
0000
,  // measure 11
0001
0100
1000
0100
0010
0100
0001
0000
,  // measure 12
1000
0000
0100
0000
1200
0000
0310
0001
,  // measure 13
0100
0000
0010
0000
1020
0000
0130
0001
,  // measure 14
2000
0000
3001
0010
1000
0000
1000
0010
,  // measure 15
0001
0000
1000
0010
0100
0100
0001
0000
,  // measure 16
1000
0000
1100
0000
0012
0000
1003
0010
,  // measure 17
0100
0000
0001
0000
0021
0000
0130
1000
,  // measure 18
0001
0000
0100
0000
1000
0100
0001
0100
,  // measure 19
0010
0000
1000
0000
0001
0010
0100
0000
,  // measure 20
0100
0100
0010
0000
0100
0100
1000
0000
,  // measure 21
0010
0010
0100
0000
0010
0010
1000
0000
,  // measure 22
0001
0010
0001
0010
0100
1000
0100
1000
,  // measure 23
0001
0100
0001
0100
0010
1000
1000
0000
,  // measure 24
0010
0010
0100
0000
0010
0010
1000
0000
,  // measure 25
0100
0100
0010
0000
0100
0001
0100
1000
,  // measure 26
0001
0001
0100
0000
0001
0001
0010
0000
,  // measure 27
0010
0100
0010
0010
0001
1000
0010
0100
,  // measure 28
0001
0100
1000
0000
1100
0100
0001
0000
,  // measure 29
1000
0010
0100
0100
0001
1000
0001
0000
,  // measure 30
0011
1100
1010
0101
,  // measure 31
1000
0010
0100
0001
1000
0100
0010
0000
,  // measure 32
0001
0010
1000
0000
1010
0010
0001
0000
,  // measure 33
1000
0001
1000
1000
0010
0100
0002
0000
,  // measure 34
1003
0100
1000
1000
0001
0010
0100
1000
,  // measure 35
0001
1000
0001
0000
0000
0000
0000
0000
0100
0010
0100
0000
0000
0000
0000
0000
,  // measure 36
0001
0100
0001
0100
0010
1000
0100
0000
,  // measure 37
1000
0001
1000
1000
0100
0001
0100
0000
,  // measure 38
1100
0011
0101
1010
,  // measure 39
1000
0010
0001
0010
0100
0001
0010
0100
,  // measure 40
1000
0001
0010
0000
0110
0100
1000
0000
,  // measure 41
0001
1000
0001
0000
1000
1000
0010
0100
,  // measure 42
0001
1000
0001
0000
0010
0010
0100
1000
,  // measure 43
0001
0010
0001
0010
1000
0010
1000
0010
,  // measure 44
0210
1000
0001
1300
,  // measure 45
0120
1000
0001
0130
,  // measure 46
2100
0001
0010
3001
,  // measure 47
1000
0010
1000
1000
0001
0100
0010
1000
,  // measure 48
1002
0010
1000
0013
,  // measure 49
0010
1000
0010
0001
1000
0000
1000
0000
,  // measure 50
1020
0001
0100
1030
,  // measure 51
0001
1000
1000
0001
1000
1000
0100
0000
,  // measure 52
0010
0010
0001
1000
0000
1000
1010
0000
,  // measure 53
0100
0100
0001
1000
0100
0010
0001
0000
,  // measure 54
0100
0100
0001
1000
0000
0100
1100
0000
,  // measure 55
0001
1000
0001
1000
0010
0100
0010
0100
,  // measure 56
0001
0001
1000
0000
1000
0100
0010
0001
,  // measure 57
0100
0010
1000
0000
0010
0100
0001
1000
,  // measure 58
0100
0001
0100
0000
0010
0001
0010
0000
,  // measure 59
0100
0100
0010
0001
0100
1000
0100
0001
,  // measure 60
1000
1000
1000
1000
,  // measure 61
1000
0000
0010
0100
0001
0010
0100
1000
,  // measure 62
0001
0000
0001
0000
0001
0010
1000
0000
,  // measure 63
0010
0000
0010
0000
0100
1000
0001
0000
,  // measure 64
1000
1000
1000
1000
,  // measure 65
1000
0000
0100
0010
0001
0100
0010
1000
,  // measure 66
0001
0000
0001
0000
0100
1000
0100
0000
,  // measure 67
0001
0000
0001
0001
1001
0000
0110
0000
,  // measure 68
0100
0000
0000
0001
0000
0000
1000
0000
0100
0000
0000
0010
0000
0000
0001
0000
,  // measure 69
1000
1000
0001
0001
0100
0010
1000
0000
,  // measure 70
0001
0000
0000
0100
0000
0000
0010
0000
1000
0000
0000
0100
0000
0000
0010
0000
,  // measure 71
0001
0001
1000
1000
0001
0100
0010
0000
,  // measure 72
0100
0000
0000
1000
0000
0000
0100
0000
0001
0000
0000
0010
0000
0000
0100
0000
,  // measure 73
1000
1000
0001
0001
0010
0100
1000
0000
,  // measure 74
1000
0001
1000
0001
0100
0001
0100
0001
,  // measure 75
0010
0100
0010
0100
0001
0100
1000
0010
,  // measure 76
0100
0000
0000
0000
;

//---------------dance-single - ----------------
#NOTEDATA:;
#CHARTNAME:;
#STEPSTYPE:dance-single;
#DESCRIPTION:;
#CHARTSTYLE:;
#DIFFICULTY:Hard;
#METER:14;
#RADARVALUES:0.669780,0.699816,0.084408,0.153468,0.306937,611.000000,600.000000,11.000000,20.000000,0.000000,0.000000,0.000000,0.000000,0.000000,0.669780,0.699816,0.084408,0.153468,0.306937,611.000000,600.000000,11.000000,20.000000,0.000000,0.000000,0.000000,0.000000,0.000000;
#CREDIT:deficientpitch;
#NOTES:
0000
0000
0000
0000
,
0000
0000
0000
0000
,
0000
0000
0000
0000
,
0000
0000
0000
0000
,
1000
1000
0001
0100
0001
0001
1000
0100
,
1000
1000
0001
0010
0100
0100
1000
0001
,
1000
1000
0010
1000
0001
0001
0010
0001
,
1000
1000
0100
1000
0010
0010
0001
0010
,
0100
0100
0001
1000
0100
0100
1000
0001
,
0010
0010
0001
0100
0001
0001
0010
0100
,
1000
0000
1000
0000
0001
0000
0100
0000
0010
0000
0010
0000
0100
0000
0001
1000
,
0001
0000
1000
0000
0100
0010
0100
0010
0001
1000
0010
0100
0001
1000
0100
0010
,
0001
1000
0100
0000
0201
0000
0310
0001
,
1000
0010
0100
0000
1200
0000
0310
1000
,
0001
1000
0010
0010
0210
0000
0310
1000
,
0001
0001
0010
0100
1000
0010
0001
0010
,
1000
0001
0010
0000
1020
0000
0130
1000
,
0001
1000
0010
0000
0021
0000
0130
0001
,
1000
0100
0010
0000
0100
1000
0001
0100
,
1000
0000
0100
0000
0001
0000
0000
0000
1000
0000
0100
0000
0100
0000
0010
0001
,
1000
0010
0100
0100
0001
0100
0010
0010
,
1000
0000
0100
0000
0010
0000
0010
0000
0001
0000
0010
0000
0100
0000
0100
1000
,
0001
1000
0100
0100
1000
0001
0100
0100
,
0001
0000
1000
0000
0100
0000
0100
0000
0010
0000
1000
0000
0010
0000
0010
0100
,
1000
0001
1000
1000
0001
0100
0001
0001
,
1000
0100
1000
1000
0001
0010
1000
0010
,
0001
1000
0010
0010
1000
0001
0010
0010
,
0100
1000
0100
1000
0001
0000
1000
0010
0100
0000
0100
0000
0001
1000
0100
0000
,
0010
0000
0001
1000
0001
0000
0100
0000
0000
0000
1000
0000
0100
0000
0001
0000
,
0010
0000
0001
1000
0001
0000
0010
0000
0100
0000
0002
0000
0103
0000
2000
0000
,
3001
0000
0100
0010
0100
0000
0001
0000
0000
0000
0010
0000
0100
0000
1000
0000
,
0001
0000
1000
0010
1000
0000
0010
0000
0100
0000
2000
0000
3100
0000
0002
0000
,
1003
0000
0001
1000
0001
0000
0010
0000
0000
0000
1000
0000
0010
0000
0001
0000
,
1000
0000
0001
0100
0001
0000
1000
0000
0100
0000
0002
0000
0103
0000
2000
0000
,
3001
0000
0100
0010
1000
0000
0001
0000
0010
0000
0100
0000
1000
0000
0001
0000
,
1000
0010
1000
0000
0000
0000
0000
0000
1000
0100
1000
0000
0001
0000
0010
0000
,
0100
0000
1000
0001
1000
0000
0010
0000
0000
0000
0001
0000
0010
0000
1000
0000
,
0001
0000
1000
0100
1000
0000
0010
0000
0100
0000
2000
0000
3100
0000
0002
0000
,
1003
0000
0100
0010
0100
0000
1000
0000
0000
0000
0001
0000
1000
0000
0010
0100
,
0001
0000
0010
0100
1000
0000
0001
1000
0010
0000
0100
0000
1000
0000
0100
0000
,
0001
0000
1000
0001
1000
0000
0100
0000
0000
0000
0001
0000
0100
0000
1000
0000
,
0001
0000
0100
0010
0100
0000
0001
0000
0010
0000
2000
0000
3010
0000
0002
0000
,
1003
0000
0010
0100
0001
0000
1000
0000
0000
0000
0001
0000
0010
0000
0100
0000
,
1000
0000
1000
0000
0001
0000
0001
0000
0100
0000
0010
1000
0010
1000
0010
1000
,
0002
0010
0010
0100
,
2003
0000
0100
0000
0010
0000
0010
0100
,
3002
0100
0010
1003
,
1000
0001
0000
0010
0100
0000
1000
0001
0100
0001
0100
0001
0010
0100
0010
0100
,
2000
0100
0001
3100
,
0010
0000
1000
0000
0010
0000
0001
0000
0100
0000
0000
0100
0010
0000
1000
0000
,
0002
0010
1000
0013
,
0010
0100
1000
0001
1000
0001
0100
0010
1000
0001
1000
0001
0010
0100
0000
0000
,
0100
0100
1000
0001
0100
0010
1000
0001
,
0010
1000
0010
0001
1000
0010
0001
0010
,
0100
0000
0100
0000
0001
0000
1000
0000
0001
0000
0010
0000
0100
0000
1000
0001
,
1000
0000
0010
0000
0100
0010
1000
0000
0001
1000
0001
0010
0100
0000
0100
0000
,
1000
0001
1000
1000
0010
0001
0010
0100
,
0001
0010
1000
0010
0100
1000
0001
0100
,
1000
0000
0100
0000
0001
0000
1000
0000
1000
0000
0100
0000
0010
0000
0001
1000
,
0001
1000
0010
0000
0010
0000
0100
0001
1000
0001
1000
0100
0010
0001
0010
0001
,
1000
0010
0100
0000
0100
0010
1000
0000
,
0001
1000
0100
0010
1000
0010
0100
1000
,
0001
1000
0010
0000
0001
0010
1000
0000
,
0001
0010
0100
0100
0010
0001
1000
0000
,
0010
0100
0001
0000
0001
0100
0010
0000
,
0100
0010
1000
0100
0001
0100
0010
0001
,
1000
0001
0100
0000
1000
0100
0001
0000
,
1000
0000
0010
0000
0100
0000
0001
0000
1000
0000
0100
0010
0100
0010
0100
0010
,
0001
0000
1000
0000
0010
0000
0100
0010
0000
0010
1000
0000
0001
1000
0100
0000
,
0010
0010
0100
1000
1100
0001
0101
0000
,
1000
0000
0010
0000
0100
0000
0001
0100
0000
0100
0010
0000
1000
0001
1000
0000
,
0100
0010
0001
1000
1010
0001
0011
0000
,
1000
0000
0100
0000
0010
0000
0001
1000
0000
1000
0010
0000
0100
0001
1000
0000
,
0100
0010
0001
1000
1100
0001
0101
0000
,
1000
1000
0100
0001
0100
0100
0010
0001
,
1000
0000
0010
0100
0010
0100
0001
1000
0001
0010
0100
1000
0001
1000
0010
0100
,
0001
0000
0000
0000
;
