#VERSION:0.83;
#TITLE:BRILLANT 2U K.O.G G3 mix but its actually Orchestra Groove;
#SUBTITLE:;
#ARTIST:NAOKI obviously lol;
#TITLETRANSLIT:;
#SUBTITLETRANSLIT:;
#ARTISTTRANSLIT:;
#GENRE:;
#ORIGIN:;
#CREDIT:;
#BANNER:;
#BACKGROUND:;
#PREVIEWVID:;
#JACKET:;
#CDIMAGE:;
#DISCIMAGE:;
#LYRICSPATH:;
#CDTITLE:;
#MUSIC:BRILLANT 2U K.O.G G3 mix but its actually Orchestra Groove.ogg;
#OFFSET:0.000000;
#SAMPLESTART:55.990002;
#SAMPLELENGTH:15.000000;
#SELECTABLE:YES;
#DISPLAYBPM:150.000000;
#BPMS:0.000=150.000;
#STOPS:;
#DELAYS:;
#WARPS:;
#TIMESIGNATURES:0.000=4=4;
#TICKCOUNTS:0.000=4;
#COMBOS:0.000=1;
#SPEEDS:0.000=1.000=0.000=0;
#SCROLLS:0.000=1.000;
#FAKES:;
#LABELS:0.000=Song Start;
#BGCHANGES:;
#KEYSOUNDS:;
#ATTACKS:
;

//---------------dance-single - ----------------
#NOTEDATA:;
#CHARTNAME:;
#STEPSTYPE:dance-single;
#DESCRIPTION:;
#CHARTSTYLE:;
#DIFFICULTY:Easy;
#METER:8;
#RADARVALUES:0.352763,0.453395,0.307386,0.081970,0.040985,241.000000,211.000000,30.000000,8.000000,0.000000,0.000000,0.000000,0.000000,0.000000,0.352763,0.453395,0.307386,0.081970,0.040985,241.000000,211.000000,30.000000,8.000000,0.000000,0.000000,0.000000,0.000000,0.000000;
#CREDIT:hondachevrolet;
#DISPLAYBPM:150.000000;
#NOTES:
// measure 0
0000
0000
0000
0000
,  // measure 1
0000
0000
0000
0000
,  // measure 2
0000
0000
0000
0000
,  // measure 3
0000
0000
0000
0000
,  // measure 4
0000
0000
0000
0000
,  // measure 5
0001
1000
0010
0100
,  // measure 6
0001
0100
1000
0100
,  // measure 7
0001
0010
0100
1000
,  // measure 8
0010
0010
0010
1001
,  // measure 9
0001
0000
1000
1000
1000
0000
0001
0000
,  // measure 10
0010
0100
1000
0011
,  // measure 11
1000
0010
0100
0001
,  // measure 12
0010
0100
1000
1000
,  // measure 13
0010
0100
1000
0100
,  // measure 14
0010
1000
0100
0100
,  // measure 15
0010
0001
1000
0010
,  // measure 16
1000
0001
0010
0010
,  // measure 17
0100
0001
0100
1000
,  // measure 18
0010
0100
0001
0001
,  // measure 19
0000
1000
0000
1000
0000
0001
0000
0001
,  // measure 20
0000
0010
0000
0010
0000
1000
0000
1000
,  // measure 21
0000
0010
0000
0010
0000
0001
0000
0001
,  // measure 22
0000
0100
0000
0100
0000
0010
0000
0010
,  // measure 23
0000
1000
0000
1000
0000
0010
0000
0010
,  // measure 24
0000
0001
0000
0001
0000
0010
0000
0010
,  // measure 25
0000
1000
0000
1000
0000
0001
0000
0001
,  // measure 26
1000
1000
0000
0110
,  // measure 27
1001
1001
1100
0011
,  // measure 28
0000
1000
0001
0000
,  // measure 29
0110
0110
0101
1010
,  // measure 30
1000
0100
0010
0001
,  // measure 31
1001
1001
1100
0011
,  // measure 32
0100
0100
0100
0000
0010
0000
1000
0000
,  // measure 33
0110
0110
0101
1010
,  // measure 34
1000
0010
0001
0010
,  // measure 35
1000
0001
0100
0010
,  // measure 36
1100
1100
1001
0001
,  // measure 37
0100
0010
1000
0001
,  // measure 38
0011
0011
1001
0100
,  // measure 39
0010
1000
0100
0010
,  // measure 40
1010
1010
0110
0000
,  // measure 41
1000
1000
1000
0000
0001
0001
0001
0000
,  // measure 42
0100
0100
0100
1001
,  // measure 43
0001
0000
0000
0000
1000
0000
0000
0000
0000
2000
0000
0000
0000
0000
3000
0000
,  // measure 44
0100
0000
0000
0000
0010
0000
0000
0020
0000
0000
0000
0000
0030
0000
0000
0000
,  // measure 45
0001
0000
0000
0000
0100
0000
0000
0000
0000
0200
0000
0000
0000
0000
0300
0000
,  // measure 46
0010
0000
0000
0000
1000
0000
0000
2000
0000
0000
0000
0000
3000
0000
0000
0000
,  // measure 47
0001
0000
0000
0000
0010
0000
0000
0000
0000
0020
0000
0000
0000
0000
0030
0000
,  // measure 48
0100
0000
0000
0000
1000
0000
0000
2000
0000
0000
0000
0000
3000
0000
0000
0000
,  // measure 49
0010
0000
0000
0000
0100
0000
0000
0000
0000
0200
0000
0000
0000
0000
0300
0000
,  // measure 50
0001
0000
0000
0000
1000
0000
0000
2000
0000
0000
0000
0000
3000
0000
0000
0000
,  // measure 51
0001
0010
0100
0010
,  // measure 52
0001
0100
1000
0010
,  // measure 53
1000
0100
0001
1000
,  // measure 54
0010
0000
0001
0000
0010
0000
1000
1000
,  // measure 55
1000
0100
0001
0010
,  // measure 56
0001
0100
1000
0100
,  // measure 57
0001
0100
1000
0001
,  // measure 58
0010
0000
0100
0000
1000
0000
0010
0010
,  // measure 59
0110
0000
0000
0000
;

//---------------dance-single - ----------------
#NOTEDATA:;
#CHARTNAME:;
#STEPSTYPE:dance-single;
#DESCRIPTION:;
#CHARTSTYLE:;
#DIFFICULTY:Medium;
#METER:10;
#RADARVALUES:0.424486,0.513848,0.338125,0.092216,0.040985,290.000000,257.000000,33.000000,9.000000,0.000000,0.000000,0.000000,0.000000,0.000000,0.424486,0.513848,0.338125,0.092216,0.040985,290.000000,257.000000,33.000000,9.000000,0.000000,0.000000,0.000000,0.000000,0.000000;
#CREDIT:hondachevrolet;
#DISPLAYBPM:150.000000;
#NOTES:
0000
0000
0000
0000
,
0000
0000
0000
0000
,
0000
0000
0000
0000
,
0000
0000
0000
0000
,
0000
0000
0000
0000
,
1000
0000
0001
0000
0100
0010
0100
0000
,
0001
0000
1000
0000
0100
0010
0001
0000
,
1000
0000
0001
0000
0100
0010
1000
0000
,
0001
0001
0001
0001
0001
0000
1001
0000
,
1100
1010
1100
0011
,
1000
0000
0001
0000
0000
0020
0000
0030
,
0100
1000
0001
0000
0001
0000
0100
0000
,
0001
1000
0100
0000
1000
0000
0010
0000
,
0100
0010
0001
0000
0001
0000
0010
0000
,
1000
0100
1000
0000
0001
0000
0100
0000
,
0010
1000
0001
0000
0001
0000
0010
0000
,
0100
1000
0001
0000
1000
0000
0010
0000
,
0100
1000
0001
0000
0001
0000
0010
0000
,
1000
0100
0010
0000
0001
0000
1000
0000
,
0010
0100
0000
0010
0000
1000
0000
0010
,
0000
0100
0000
0001
0000
0100
0000
0010
,
0000
1000
0000
0001
0000
1000
0000
0001
,
0000
0010
0000
0100
0000
1000
0000
0010
,
0000
0100
0000
0010
0000
0001
0000
0010
,
0000
0100
0000
0001
0000
1000
0000
0100
,
0000
0010
0000
0001
0000
0100
0000
0010
,
1000
1000
0000
1001
,
0110
0110
1010
0101
,
0001
0000
1000
0010
1000
0001
1000
0000
,
0011
0011
1001
1010
,
0001
0000
0100
0010
1000
0010
0100
0000
,
1001
1001
1100
0011
,
0001
0100
0010
1000
0001
0100
0001
0000
,
1010
1010
1100
0110
,
1000
0010
0001
0010
1000
0010
0001
0000
,
0010
0000
1000
0100
0000
0000
0001
0000
,
0011
0011
1001
0000
,
1000
0000
0010
0100
0000
0000
1000
0000
,
0110
0110
1001
0000
,
0001
0000
0010
0100
0000
0000
0001
0000
,
0101
0101
0110
0000
,
1000
0100
1000
0000
0001
0100
0001
0000
,
0100
0100
0100
0100
0100
0000
1001
0000
,
1000
0000
0100
0000
0010
0000
0000
0000
0000
0002
0000
0000
0000
0000
0003
0000
,
0100
0000
0010
0000
1000
0000
0000
0020
0000
0000
0000
0000
0030
0000
0000
0000
,
1000
0000
0100
0000
0010
0000
0000
0000
0000
0002
0000
0000
0000
0000
0003
0000
,
0100
0000
0001
0000
1000
0000
0000
0020
0000
0000
0000
0000
0030
0000
0000
0000
,
1000
0000
0001
0000
0010
0000
0000
0000
0000
0200
0000
0000
0000
0000
0300
0000
,
1000
0000
0001
0000
0100
0000
0000
0020
0000
0000
0000
0000
0030
0000
0000
0000
,
1000
0000
0100
0000
0010
0000
0000
0000
0000
0002
0000
0000
0000
0000
0003
0000
,
0100
0000
0010
0000
1000
0000
0000
0002
0000
0000
0000
0000
0003
0000
0000
0000
,
1000
0010
1000
0010
1000
0000
0001
0000
,
0100
0010
0100
0010
0100
0000
0010
0000
,
1000
0100
1000
0100
1000
0000
0010
0000
,
0100
0001
0100
0001
0100
0000
0010
0000
,
1000
0100
0010
0100
1000
0000
0001
0000
,
0100
0001
0100
0010
0100
0000
0010
0000
,
1000
0001
0010
0100
0010
0000
0001
0000
,
1000
0010
0100
0001
0010
0100
1000
0000
,
1001
0000
0000
0000
;

//---------------dance-single - ----------------
#NOTEDATA:;
#CHARTNAME:;
#STEPSTYPE:dance-single;
#DESCRIPTION:;
#CHARTSTYLE:;
#DIFFICULTY:Hard;
#METER:13;
#RADARVALUES:0.573788,0.664979,0.399602,0.081970,0.292017,392.000000,353.000000,39.000000,8.000000,0.000000,0.000000,0.000000,0.000000,0.000000,0.573788,0.664979,0.399602,0.081970,0.292017,392.000000,353.000000,39.000000,8.000000,0.000000,0.000000,0.000000,0.000000,0.000000;
#CREDIT:hondachevrolet;
#DISPLAYBPM:150.000000;
#NOTES:
0000
0000
0000
0000
,
0000
0000
0000
0000
,
0000
0000
0000
0000
,
0000
0000
0000
0000
,
0000
0000
0000
0000
0000
0000
0000
0110
,
1001
0000
0001
0100
1000
0000
1000
0100
,
0001
0000
1000
0100
0010
0000
1001
0000
,
1001
0000
1000
0010
0001
0000
0001
0010
,
1000
0001
0000
1000
0010
0100
0010
0100
0010
0000
0010
0000
1001
0000
0000
0000
,
0011
0000
0101
0101
1000
0000
1001
0000
,
0010
0000
0000
0100
0000
0000
1000
0000
0000
0000
0100
0000
0011
0000
0000
0000
,
1000
0000
0010
0100
0001
1000
0001
0001
,
0001
0000
0100
0010
1000
0001
0010
0010
,
0010
0000
0001
0010
0001
0100
0010
0010
,
0010
0000
1000
0010
1000
0100
0010
0010
,
0010
0000
0001
0010
1000
1000
0010
0001
,
1000
0010
1000
0001
0100
0010
1000
1000
,
1000
0000
0100
0001
0001
0100
0010
0100
,
1000
0001
0100
0010
1000
0010
0100
0100
,
0100
0000
0001
0010
0000
0000
0010
0100
0000
0000
0100
1000
0000
0000
1000
0010
,
0000
0000
0010
0100
0000
0000
0100
0001
0000
0000
0001
1000
0000
0000
1000
0010
,
0000
0000
0010
0001
0000
0000
0001
0100
0000
0000
0100
0001
0000
0000
0001
0010
,
0000
0000
0010
1000
0000
0000
1000
0001
0000
0000
0001
0010
0000
0000
0010
0100
,
0000
0000
0100
1000
0000
0000
1000
0001
0000
0000
0001
0010
0000
0000
0010
1000
,
0000
0000
1000
0001
0000
0000
0001
0100
0000
0000
0100
0001
0000
0000
0001
1000
,
0000
0000
1000
0010
0000
0000
0010
0001
0000
0000
0001
1000
0000
0000
1000
0000
,
0010
0000
0000
0100
0000
0000
0001
0000
0000
0000
1100
0000
0010
0000
0000
0000
,
1001
0101
0110
0110
,
0001
0010
0100
1000
0010
0100
0001
0000
,
0110
0110
1001
0011
,
1000
0010
0001
0010
1000
0010
0100
0000
,
1010
0101
0011
0011
,
1000
0010
1000
0100
0010
0100
0010
0000
,
0110
0110
0011
1100
,
1000
0100
1000
0010
0100
0001
0010
0100
,
1000
0000
0010
0010
0000
0100
0001
0000
,
0101
0000
1100
0000
0101
0000
1000
0001
,
0010
0100
1000
0010
0001
0010
1000
0000
,
1010
0000
0011
0000
1010
0000
0001
0100
,
0010
0000
1000
1000
0000
0001
0010
0000
,
1100
0101
1100
0001
,
1000
1000
0001
0000
0010
0010
0100
0000
,
1000
0001
0000
1000
0010
0100
0010
0100
0010
0000
0010
0000
1001
0000
0000
0000
,
0001
0000
0010
0000
0100
1000
0000
0100
0000
2000
0000
0000
0000
0000
3000
0000
,
0100
0000
0010
0000
0001
1000
0000
0002
0000
0000
0000
0000
0003
0000
0000
0000
,
1000
0000
0001
0000
0100
0010
0000
0100
0000
0002
0000
0000
0000
0000
0003
0000
,
0100
0000
0010
0000
1000
0001
0000
2000
0000
0000
0000
0000
3000
0000
0000
0000
,
0001
0000
0010
0000
1000
0001
0000
0100
0000
0002
0000
0000
0000
0000
0003
0000
,
0100
0000
1000
0000
0010
0100
0000
0020
0000
0000
0000
0000
0030
0000
0000
0000
,
1000
0000
0010
0000
0001
1000
0000
0100
0000
2000
0000
0000
0000
0000
3000
0000
,
0100
0000
0001
0000
0010
0100
0000
0020
0000
0000
0000
0000
0030
0000
0000
0000
,
0001
0100
1000
0010
1000
0100
0001
0000
,
1000
0010
0001
1000
0001
0010
1000
0000
,
0001
0010
1000
0100
1000
0010
0001
0000
,
1000
0100
0001
1000
0001
0100
1000
0000
,
0001
0100
1000
0010
0100
0010
1000
0100
,
0001
0010
1000
0100
0010
0100
1000
0010
,
0001
0100
1000
0001
0010
1000
0001
0100
,
1000
0001
0010
0100
0001
1000
0110
0000
,
1001
0000
0000
0000
;
