#VERSION:0.83;
#TITLE:BIG SHOT;
#SUBTITLE:;
#ARTIST:Toby Fox;
#TITLETRANSLIT:;
#SUBTITLETRANSLIT:;
#ARTISTTRANSLIT:;
#GENRE:;
#ORIGIN:;
#CREDIT:;
#BANNER:;
#BACKGROUND:;
#PREVIEWVID:;
#JACKET:;
#CDIMAGE:;
#DISCIMAGE:;
#LYRICSPATH:;
#CDTITLE:;
#MUSIC:BIG SHOT.ogg;
#OFFSET:-0.092286;
#SAMPLESTART:27.513800;
#SAMPLELENGTH:15.000000;
#SELECTABLE:YES;
#BPMS:0.000=140.000;
#STOPS:252.000=1.714,
316.000=3.215;
#DELAYS:;
#WARPS:;
#TIMESIGNATURES:0.000=4=4;
#TICKCOUNTS:0.000=4;
#COMBOS:0.000=1;
#SPEEDS:0.000=1.000=0.000=0;
#SCROLLS:0.000=1.000;
#FAKES:;
#LABELS:0.000=Song Start;
#BGCHANGES:;
#KEYSOUNDS:;
#ATTACKS:
;

//---------------dance-single - ----------------
#NOTEDATA:;
#CHARTNAME:;
#STEPSTYPE:dance-single;
#DESCRIPTION:;
#CHARTSTYLE:;
#DIFFICULTY:Easy;
#METER:9;
#RADARVALUES:0.398294,0.444544,0.154502,0.203662,0.263356,397.000000,375.000000,22.000000,29.000000,0.000000,0.000000,0.000000,0.000000,0.000000,0.398294,0.444544,0.154502,0.203662,0.263356,397.000000,375.000000,22.000000,29.000000,0.000000,0.000000,0.000000,0.000000,0.000000;
#CREDIT:dockkeyboard;
#NOTES:
0000
0000
0000
0000
,
0000
0000
0000
0000
,
0000
0000
0000
0000
,
0000
0000
0000
0000
,
0000
0000
1000
0000
0000
0010
0000
0000
0100
0000
0000
0001
0000
0000
1000
0000
,
0000
0000
0001
0000
0000
0010
0000
0000
0100
0000
0000
1000
0000
0000
0001
0000
,
0000
0000
1000
0000
0000
0010
0000
0000
0100
0000
0000
0010
0000
0000
1000
0000
,
0000
0000
0001
0000
0000
0010
0000
0000
0100
0000
0000
0010
0000
0000
0001
0000
,
1000
0000
0000
0010
0000
0000
0100
0000
0010
0000
0000
0000
1000
0000
0200
0000
,
0310
0000
0000
0010
0000
0000
0100
0000
0010
0000
0000
0000
0010
0000
0200
0000
,
1300
0000
0000
0010
0000
0000
0100
0000
0010
0000
0000
0000
1000
0000
0200
0000
,
0310
0000
0000
0010
0000
0000
0100
0000
2000
0000
0000
0000
3002
0000
0000
0000
,
1003
0010
0001
0100
,
1000
0100
0001
0010
,
1000
0010
0001
0100
,
1000
0000
0000
0010
0000
0000
0100
0000
0001
0000
0010
0000
0001
0000
0000
0000
,
1000
0000
0010
0000
0000
0010
0000
0000
0010
0000
0000
0010
0000
0000
0010
0000
,
0000
0000
1000
0000
0000
0100
0000
0000
0100
0000
0000
0100
0000
0000
0100
0000
,
0000
0000
1000
0000
0000
0100
0000
0000
0100
0000
0000
0100
0000
0000
0100
0000
,
0000
0000
0010
0000
0000
0010
0000
0000
0020
0000
0000
0000
0230
0000
0000
0000
,
1300
0000
0010
0000
0000
0100
0000
0000
0100
0000
0000
0001
0000
0000
0001
0000
,
0000
0000
1000
0000
0000
0100
0000
0000
0100
0000
0000
1000
0000
0000
0010
0000
,
0000
0000
1000
0000
0000
0100
0000
0000
0100
0000
0000
0010
0000
0000
0100
0000
,
0000
0000
1000
0000
0000
0010
0000
0000
0020
0000
0000
0000
0230
0000
0000
0000
,
0301
0010
0001
0000
1000
0001
1000
0000
,
1000
0100
0010
0000
0001
1000
0001
0000
,
0100
0000
0000
0110
0000
0000
0000
0000
0010
0000
0000
1010
0000
0000
0000
0000
,
1000
0000
0000
1100
0000
0000
0000
0000
1010
0000
0000
0000
1001
0000
0000
0000
,
0001
0100
0010
0000
1000
0001
1000
0000
,
1000
0010
1000
0000
0001
0010
0001
0000
,
1000
0000
0000
1010
0000
0000
0000
0000
0010
0000
0000
0110
0000
0000
0000
0000
,
0100
0000
0000
0101
0000
0000
0000
0000
0011
0000
0000
0000
1001
0000
0000
0000
,
2000
0010
0100
0001
,
3020
1000
0001
0100
,
2030
0001
0100
0001
,
3200
0010
1000
0001
,
0320
0001
1000
0100
,
0032
0010
1000
0010
,
0203
1000
0001
1000
,
0320
1000
0001
0100
,
1030
0000
0000
0010
0000
0000
0100
0000
0000
0001
0000
0000
0100
0000
0000
0000
,
0010
0000
0000
1000
0000
0000
0100
0000
0000
0010
0000
0000
0001
0000
0000
0000
,
1000
0000
0000
0010
0000
0000
0100
0000
0000
0010
0000
0000
1000
0000
0000
0000
,
0001
0000
0000
0100
0000
0000
0010
0000
2000
0000
0000
0000
3002
0000
0000
0000
,
0103
0000
0000
0010
0000
0000
1000
0000
0000
0100
0000
0000
1000
0000
0001
0000
,
0100
0000
0000
0001
0000
0000
0010
0000
0000
0100
0000
0000
1000
0000
0100
0000
,
1000
0000
0000
0100
0000
0000
0010
0000
0000
0100
0000
0000
1000
0000
0001
0000
,
1000
0000
0000
0010
0000
0000
0100
0000
0002
0000
0000
0000
2003
0000
0000
0000
,
3100
0000
0000
0010
0000
0000
0100
0000
1000
0000
0000
0000
0001
0000
0200
0000
,
0310
0000
0000
1000
0000
0000
0010
0000
0100
0000
0000
0000
0100
0000
0002
0000
,
1003
0000
0000
0001
0000
0000
1000
0000
0010
0000
0000
0000
1000
0000
0020
0000
,
0130
0000
0000
0001
0000
0000
0100
0000
0020
0000
0000
0000
2030
0000
0000
0000
,
3001
0100
1000
0010
,
0001
0010
1000
0100
,
0001
0100
1000
0010
,
0001
0000
0000
0100
0000
0000
0001
0000
0100
0000
0010
0000
0100
0000
0000
0000
,
0010
0000
0000
0000
1010
0000
0000
0000
0010
0000
0000
0100
0000
0000
0000
0000
,
0100
0000
0000
0000
0110
0000
0000
0000
0010
0000
0000
1000
0000
0000
0000
0000
,
1000
0000
0000
0000
1100
0000
0000
0000
1000
0000
0000
0001
0000
0000
0000
0000
,
0001
0010
1000
0100
,
0001
0011
0010
0110
,
0100
0100
0100
0100
,
0100
0000
1100
0000
1000
0001
1000
0000
,
0001
0000
1000
0000
0000
0010
0000
0000
0010
0000
0000
0010
0000
0000
0010
0000
,
0000
0000
1000
0000
0000
0100
0000
0000
0100
0000
0000
0100
0000
0000
0100
0000
,
0000
0000
0010
0000
0000
0001
0000
0000
0001
0000
0000
0001
0000
0000
0001
0000
,
0000
0000
1000
0000
0000
1000
0000
0000
2000
0000
0000
0000
3020
0000
0000
0000
,
0130
0000
0110
0000
0010
1000
0010
0000
,
0100
0000
0010
0000
1000
0100
1000
0000
,
0001
0000
0101
0000
0100
0010
0100
0000
,
0001
0000
0010
0000
0100
1000
0100
0000
,
1000
0000
0010
0000
0000
0100
0000
0000
0010
0000
0000
1000
0000
0000
0001
0000
,
0100
0000
0010
0000
0000
1000
0000
0000
0100
0000
0000
0010
0000
0000
0001
0000
,
0010
0000
0100
0000
0000
0010
0000
0000
0001
0000
0000
0100
0000
0000
0010
0000
,
1000
0000
0000
1010
0000
0000
0010
0000
0100
0000
0001
0000
0100
0000
0000
0000
,
0010
0000
0100
0000
0000
0110
0000
0000
0100
0000
0000
0001
0000
0000
0100
0000
,
0010
0000
1000
0000
0000
1100
0000
0000
0100
0000
0000
0010
0000
0000
0001
0000
,
0100
0000
0001
0000
0000
1001
0000
0000
1000
0000
0000
0010
0000
0000
1000
0000
,
0001
0010
0001
0000
1000
0010
1000
0000
,
0002
0003
0000
0000
0000
0000
0000
0000
;

//---------------dance-single - ----------------
#NOTEDATA:;
#CHARTNAME:;
#STEPSTYPE:dance-single;
#DESCRIPTION:;
#CHARTSTYLE:;
#DIFFICULTY:Medium;
#METER:13;
#RADARVALUES:0.599949,0.666816,0.618008,0.337095,0.337095,598.000000,510.000000,88.000000,48.000000,0.000000,0.000000,0.000000,0.000000,0.000000,0.599949,0.666816,0.618008,0.337095,0.337095,598.000000,510.000000,88.000000,48.000000,0.000000,0.000000,0.000000,0.000000,0.000000;
#CREDIT:dockkeyboard;
#NOTES:
0000
0000
0000
0000
,
0000
0000
0000
0000
,
0000
0000
0000
0000
,
0000
0000
0000
0000
,
0000
0000
1100
0000
0000
0100
0000
0000
0110
0000
0000
0010
0000
0000
0011
0000
,
0000
0000
0101
0000
0000
0100
0000
0000
0110
0000
0000
0010
0000
0000
1010
0000
,
0000
0000
1100
0000
0000
1000
0000
0000
0101
0000
0000
0001
0000
0000
1100
0000
,
0000
0000
1010
0000
0000
1000
0000
0000
0011
0000
0000
0001
0000
0000
1010
0000
,
1000
0000
0010
0100
0000
0000
0100
0000
0001
0010
0001
0000
1000
0000
0020
0000
,
0130
0000
0001
0010
0000
0000
0010
0000
0100
1000
0100
0000
1000
0000
0200
0000
,
1300
0000
0010
0100
0000
0000
0100
0000
0001
0010
0001
0000
1000
0000
0002
0000
,
0103
0000
0010
1000
0000
0000
0010
0000
0020
0000
0000
0000
2030
0000
0000
0000
,
3001
0100
1000
0100
0010
0100
1000
0100
,
0001
0010
1000
0010
0100
0010
1000
0010
,
0001
0100
1000
0100
0010
0100
1000
0100
,
0010
0000
1000
0010
0000
0010
1000
0000
0001
0000
0010
0000
1000
0000
0010
0000
,
0001
0000
0011
0000
0000
0110
0000
0000
1100
0000
0000
0110
0000
0000
0011
0000
,
0000
0000
0101
0000
0000
0110
0000
0000
1010
0000
0000
0110
0000
0000
0101
0000
,
0000
0000
0011
0000
0000
0110
0000
0000
0011
0000
0000
0110
0000
0000
0011
0000
,
0000
0000
0101
0000
0000
0110
0000
0000
2000
0000
0000
0000
3020
0000
0000
0000
,
0130
0000
0101
0000
0000
0110
0000
0000
0101
0000
0000
0011
0000
0000
0110
0000
,
0100
0000
1100
0000
0000
1010
0000
0000
0110
0000
0000
1001
0000
0000
0011
0000
,
0001
0000
1001
0000
0000
1010
0000
0000
1100
0000
0000
1001
0000
0000
0101
0000
,
0100
0000
0110
0000
0000
1010
0000
0000
2000
0000
0000
0000
3200
0000
0000
0000
,
1300
0000
0010
0000
0001
0000
0010
0000
0100
0010
0100
0000
0001
0000
0000
0000
,
0100
0010
0100
0000
0010
0100
0010
0000
1000
0010
1000
0000
0100
0000
0100
0000
,
1000
0000
0000
1010
0000
0000
0010
0000
0100
0000
0000
0110
0000
0000
0100
0000
,
0001
0000
0000
0101
0000
0000
0100
0000
0001
0000
0010
0000
1000
0000
0010
0000
,
0001
0000
0100
0000
1000
0000
0100
0000
0010
0100
0010
0000
1000
0000
0000
0000
,
0100
0010
0100
0000
0010
0100
0010
0000
0001
0010
0001
0000
0100
0000
0100
0000
,
0001
0000
0000
0011
0000
0000
0010
0000
0100
0000
0000
0110
0000
0000
0100
0000
,
1000
0000
0000
1100
0000
0000
1000
0000
0001
0000
0100
0000
1000
0000
0100
0000
,
0002
1000
0100
0010
,
0000
0203
0320
2030
3200
0000
0320
0032
,
0203
1000
0001
1000
,
0000
0302
0023
0230
2300
0000
3020
0000
,
2030
3200
0320
0230
0000
0000
2300
3020
,
0230
0302
0023
0230
,
0302
1000
0100
0203
,
2300
0010
3020
0100
,
1030
0000
0000
1010
0000
0000
0010
0000
0100
0000
0001
0000
0010
0000
0100
0000
,
1000
0000
0000
1100
0000
0000
0100
0000
0010
0000
0001
0000
0010
0000
0100
0000
,
1000
0000
0000
1010
0000
0000
0010
0000
0100
0000
0001
0000
0010
0000
0001
0000
,
0100
0000
0000
0110
0000
0000
0010
0000
2000
0000
0000
0000
3020
0000
0000
0000
,
0130
0000
0000
0110
0000
0000
0010
0000
1000
0000
0100
0000
1000
0000
0001
0000
,
0010
0000
0000
0011
0000
0000
0001
0000
0100
0000
0010
0000
1000
0000
0100
0000
,
1000
0000
0000
1010
0000
0000
0010
0000
0100
0000
0001
0000
0010
0000
0100
0000
,
0010
0000
0000
0110
0000
0000
0100
0000
2000
0000
0000
0000
3020
0000
0000
0000
,
0130
0000
0001
0100
0000
0000
0001
0000
0010
0100
0010
0000
0100
0000
2000
0000
,
3001
0000
0100
0010
0000
0000
0100
0000
0001
0010
0001
0000
1000
0000
0200
0000
,
0310
0000
0001
0010
0000
0000
0001
0000
0100
0010
0100
0000
0010
0000
2000
0000
,
3001
0000
0010
0100
0000
0010
0100
0000
2000
0000
0000
0000
3020
0000
0000
0000
,
0130
1000
0100
0001
0100
0010
1000
0001
,
1000
0100
0001
0100
1000
0100
0010
0001
,
1000
0010
0001
0010
0100
0010
1000
0010
,
0100
0000
0001
0010
0000
0001
0010
0000
0001
0000
0100
0000
1000
0000
0100
0000
,
0001
0000
0000
0000
0101
0000
0000
0000
0100
0010
0000
0100
0000
0000
0010
0000
,
1000
0000
0000
0000
1100
0000
0000
0000
0100
0010
0000
0001
0000
0000
0100
0000
,
0001
0000
0000
0000
0101
0000
0000
0000
0100
0010
0000
0100
0000
0000
0001
0000
,
1000
0100
0001
0100
0010
0100
1000
0001
,
0100
0010
0110
0000
0010
1000
1010
0000
,
1000
0100
0001
0100
1000
0100
0001
0100
,
1000
0000
0010
0000
1010
0000
0000
0000
0010
0100
0010
0000
1000
0000
0001
0000
,
1000
0000
1010
0000
0000
0110
0000
0000
0101
0000
0000
0110
0000
0000
0101
0000
,
0000
0000
0011
0000
0000
0110
0000
0000
1100
0000
0000
0110
0000
0000
1100
0000
,
0000
0000
1001
0000
0000
0011
0000
0000
1001
0000
0000
1010
0000
0000
1001
0000
,
0000
0000
0011
0000
0000
0101
0000
0000
0002
0000
0000
0000
0203
0000
0000
0000
,
0310
1000
0100
0010
0001
0100
0010
0000
,
1000
0100
0010
1000
0100
0010
0100
0000
,
0001
0010
0100
1000
0001
0010
0100
0000
,
1000
0010
0100
1000
0010
0100
1000
0000
,
0001
0000
0100
0010
0000
0100
0010
0000
1000
0000
0000
0100
0000
0000
0010
0000
,
0001
0000
0010
0100
0000
0010
0100
0000
1000
0000
0000
0010
0000
0000
0100
0000
,
0001
0000
0100
0010
0000
0100
0010
0000
1000
0000
0000
0100
0000
0000
0010
0000
,
0001
0000
0100
0001
0000
0000
1001
0000
1000
0000
0100
0000
0001
0000
0100
0000
,
1000
0000
0010
0100
0000
0010
0100
0000
0001
0000
0000
0011
0000
0000
0010
0000
,
0100
0000
1000
0100
0000
1000
0100
0000
1000
0000
0000
1010
0000
0000
0010
0000
,
0100
0000
0001
0100
0000
0001
0100
0000
0010
0000
0000
0110
0000
0000
1001
0000
,
1000
0100
0001
0100
1000
0100
0001
0100
,
2000
3000
0000
0000
0000
0000
0000
0000
;

//---------------dance-single - ----------------
#NOTEDATA:;
#CHARTNAME:;
#STEPSTYPE:dance-single;
#DESCRIPTION:;
#CHARTSTYLE:;
#DIFFICULTY:Hard;
#METER:15;
#RADARVALUES:0.762477,0.722385,0.814647,0.126411,0.688236,760.000000,644.000000,116.000000,18.000000,0.000000,0.000000,0.000000,0.000000,0.000000,0.762477,0.722385,0.814647,0.126411,0.688236,760.000000,644.000000,116.000000,18.000000,0.000000,0.000000,0.000000,0.000000,0.000000;
#CREDIT:dockkeyboard;
#NOTES:
// measure 0
0000
0000
0000
0000
,  // measure 1
0000
0000
0000
0000
,  // measure 2
0000
0000
0000
0000
,  // measure 3
0000
0000
0000
0000
,  // measure 4
0000
0000
1010
0000
0000
0011
0000
0000
1100
0000
0000
0101
0000
0000
1001
0000
,  // measure 5
0000
0000
1100
0000
0000
1100
0000
0000
1010
0000
0000
1010
0000
0000
1001
0000
,  // measure 6
0000
0000
0101
0000
0000
0101
0000
0000
0011
0000
0000
0011
0000
0000
1001
0000
,  // measure 7
0000
0000
1000
0000
0000
0100
0000
0000
0001
0000
0000
0100
0000
0000
1000
0000
,  // measure 8
0001
0000
1000
0010
0000
1000
0010
0000
1000
0100
1000
0100
1000
0000
1001
0000
,  // measure 9
0001
0000
1000
0100
0000
1000
0100
0000
1000
0010
1000
0010
1000
0000
1001
0000
,  // measure 10
1000
0000
0001
0100
0000
0001
0100
0000
0001
0010
0001
0010
0001
0000
1001
0000
,  // measure 11
1000
0000
0001
0010
0000
0001
0010
0000
0002
0000
0000
0000
2003
0000
0000
0000
,  // measure 12
3001
0000
0010
1000
0000
0010
0100
0000
1000
0001
1000
0001
1000
0000
1001
0000
,  // measure 13
1000
0000
0010
0001
0000
0010
0100
0000
0001
1000
0001
1000
0001
0000
1001
0000
,  // measure 14
1000
0000
0100
0001
0000
0100
1000
0000
0001
0010
0001
0010
0001
0000
1001
0000
,  // measure 15
1000
0000
0010
1000
0000
0001
1000
0000
0010
0000
0001
0000
1000
0000
0100
0000
,  // measure 16
0001
0000
1000
0100
0000
0010
0001
0000
1000
0000
0010
0100
0000
0000
0110
0000
,  // measure 17
0001
0000
1000
0010
0000
0100
0001
0000
1000
0000
0100
0010
0000
0000
0110
0000
,  // measure 18
1000
0000
0001
0010
0000
0100
1000
0000
0001
0000
0100
0010
0000
0000
0110
0000
,  // measure 19
1000
0000
0100
0010
0000
0010
0100
0000
2000
0000
0000
0000
3002
0000
0000
0000
,  // measure 20
1003
0000
0100
0001
0000
0100
0010
0000
0001
0000
0100
0010
0000
0000
1001
0000
,  // measure 21
0001
0000
0100
1000
0000
0100
0010
0000
1000
0000
0100
0010
0000
0000
1001
0000
,  // measure 22
1000
0000
0010
0001
0000
0010
0100
0000
0001
0000
0010
0100
0000
0000
1001
0000
,  // measure 23
1000
0000
0100
0001
0000
0100
1000
0000
1100
0000
0000
1001
0000
0000
0101
0000
,  // measure 24
1001
0000
1000
0000
0010
0000
0100
0000
0001
0010
0100
0000
1000
0000
0001
0000
,  // measure 25
1000
0010
0100
0000
0010
0100
0001
0000
1000
0100
0010
0001
1000
0000
1000
0000
,  // measure 26
1100
0000
0000
1100
0000
0000
0100
0000
0110
0000
0000
0110
0000
0000
0010
0000
,  // measure 27
0011
0000
0000
0011
0000
0000
0001
0000
1000
0010
1000
0010
1000
0000
0001
0000
,  // measure 28
1000
0000
0001
0000
0010
0000
0100
0000
1000
0001
0100
0000
0010
0000
1000
0000
,  // measure 29
0001
0010
0100
0000
0010
0100
1000
0000
0001
0100
0010
1000
0001
0000
0001
0000
,  // measure 30
0101
0000
0000
0101
0000
0000
0100
0000
0110
0000
0000
0110
0000
0000
0010
0000
,  // measure 31
1010
0000
0000
1010
0000
0000
1000
0000
0001
0010
0001
0010
0001
0000
1000
0010
,  // measure 32
1000
0000
0100
1000
0000
0100
1000
0000
0001
0100
0000
0001
0100
0000
0001
0000
,  // measure 33
1000
0000
0010
1000
0000
0010
1000
0000
0001
0010
0000
0001
0010
0000
0001
0000
,  // measure 34
1000
0000
0100
0010
0000
0100
0010
0000
0001
1000
0000
0001
1000
0000
0100
0000
,  // measure 35
1000
0000
0010
0100
0000
0010
0100
0000
0002
0000
0000
0000
2003
0000
0000
0000
,  // measure 36
3001
0000
0010
0100
0000
0100
1000
0000
1000
0010
0000
0010
0100
0000
0001
0000
,  // measure 37
1000
0000
0010
0100
0000
0100
0001
0000
0001
0010
0000
0010
0100
0000
1000
0000
,  // measure 38
0001
0000
0001
0010
0000
0010
0100
0000
0100
0010
0000
0010
0001
0000
1000
0000
,  // measure 39
0001
0000
0001
0100
0000
0100
0001
0000
2000
0000
0000
0000
3002
0000
0000
0000
,  // measure 40
1003
0000
0000
1010
0000
0000
0010
0000
0000
0110
0000
0000
0100
0000
0101
0000
,  // measure 41
0001
0000
0000
0011
0000
0000
0010
0000
0000
0110
0000
0000
0100
0000
1100
0000
,  // measure 42
1000
0000
0000
0110
0000
0000
0001
0000
0000
1001
0000
0000
1000
0000
1010
0000
,  // measure 43
0010
0000
0000
0110
0000
0000
1010
0000
2000
0000
0000
0000
3002
0000
0000
0000
,  // measure 44
1003
0000
0010
0100
0000
0000
0110
0000
0100
0001
0000
0000
1000
0000
1001
0000
,  // measure 45
0001
0000
0010
0100
0000
0000
0110
0000
0100
1000
0000
0000
0001
0000
1001
0000
,  // measure 46
1000
0000
0010
0100
0000
0000
0101
0000
0100
0010
0000
0000
0010
0000
1010
0000
,  // measure 47
1000
0000
0100
0010
0000
0000
1100
0000
2000
0000
0000
0000
3002
0000
0000
0000
,  // measure 48
1003
0000
0010
1000
0000
0010
0100
0000
0010
1000
0010
0100
0001
0000
1001
0000
,  // measure 49
1000
0000
0100
0010
0000
0100
1000
0000
0100
1000
0100
0010
0001
0000
1001
0000
,  // measure 50
1000
0000
0010
0100
0000
0010
1000
0000
0010
0100
0010
1000
0001
0000
1001
0000
,  // measure 51
1000
0000
0001
0010
0000
0010
0001
0000
2000
0000
0000
0000
3002
0000
0000
0000
,  // measure 52
1003
0000
0010
0100
0000
0001
0010
0000
0100
1000
0100
0010
0001
0000
1001
0000
,  // measure 53
0001
0010
1000
0001
0100
1000
0001
0010
,  // measure 54
1000
0000
0010
0000
0100
0010
0001
0000
0100
0000
0010
1000
0000
0001
0100
0000
,  // measure 55
0001
0100
1000
0100
0010
0001
1000
0100
,  // measure 56
0101
0000
0000
0000
0101
0000
0000
0000
0100
0010
0000
1010
0000
1000
0100
0000
,  // measure 57
1100
0000
0000
0000
1100
0000
0000
0000
0100
0010
0000
0011
0000
0001
0100
0000
,  // measure 58
0101
0000
0000
0000
0110
0000
0000
0000
0010
1000
0000
1001
0000
0001
0010
0000
,  // measure 59
0001
0010
1000
0010
0100
0001
0100
1000
,  // measure 60
0001
0100
0101
0100
0010
1000
1010
0010
,  // measure 61
1000
0010
0011
0010
1000
0100
0101
0100
,  // measure 62
1000
0000
0001
0000
1001
0000
1000
0000
0100
0010
0001
0000
1000
0000
0010
0100
,  // measure 63
0001
0000
1000
0100
0000
0010
0001
0000
0011
0000
0010
0100
0000
0000
1100
0000
,  // measure 64
1000
0000
0010
0100
0000
0001
0100
0000
0110
0000
0010
1000
0000
0000
1010
0000
,  // measure 65
0010
0000
0100
0010
0000
1000
0001
0000
0011
0000
0010
0100
0000
0000
0110
0000
,  // measure 66
0010
0000
0001
0010
0000
0001
1000
0000
2010
0000
0001
0000
3002
0000
1000
0000
,  // measure 67
1003
0000
0010
0000
0001
0000
0010
0000
1000
0010
0000
0100
0001
0000
1001
0000
,  // measure 68
1000
0100
0010
0000
0010
0100
1000
0000
0001
0010
0000
0001
0100
0000
0101
0000
,  // measure 69
0001
0000
0100
0000
1000
0000
0100
0000
0001
0010
0000
0100
1000
0000
1100
0000
,  // measure 70
1000
0010
0100
0000
0100
0010
1000
0000
0001
0100
0000
0010
0100
0000
0110
0000
,  // measure 71
1001
0000
1000
0100
0000
0010
0001
0000
0011
0000
0000
1010
0000
0000
0011
0000
,  // measure 72
1001
0000
1000
0010
0000
0100
0001
0000
0101
0000
0000
1100
0000
0000
0101
0000
,  // measure 73
1001
0000
1000
0010
0000
0010
1000
0000
1100
0000
0000
0110
0000
0000
1100
0000
,  // measure 74
1001
0000
0001
0100
0000
0000
0101
0000
0001
0000
0010
0000
1000
0000
0010
0000
,  // measure 75
0001
0000
0100
1000
0000
0100
0001
0000
0101
0000
0000
0110
0000
0000
1010
0000
,  // measure 76
1100
0000
0100
0001
0000
0100
1000
0000
1100
0000
0000
0110
0000
0000
0011
0000
,  // measure 77
0101
0000
0100
1000
0000
0100
0001
0000
0011
0000
0000
0101
0000
0000
1001
0000
,  // measure 78
1000
0100
0001
0100
0010
0100
1000
0001
,  // measure 79
2002
3003
0000
0000
0000
0000
0000
0000
;
