#VERSION:0.83;
#TITLE:Amphitryon;
#SUBTITLE:;
#ARTIST:Gentle Stick;
#TITLETRANSLIT:;
#SUBTITLETRANSLIT:;
#ARTISTTRANSLIT:;
#GENRE:;
#ORIGIN:;
#CREDIT:;
#BANNER:;
#BACKGROUND:;
#PREVIEWVID:;
#JACKET:;
#CDIMAGE:;
#DISCIMAGE:;
#LYRICSPATH:;
#CDTITLE:;
#MUSIC:Amphitryon.ogg;
#OFFSET:-3.885161;
#SAMPLESTART:54.959999;
#SAMPLELENGTH:15.000000;
#SELECTABLE:YES;
#BPMS:0.000=155.000,
228.000=77.000,
232.000=155.000;
#STOPS:;
#DELAYS:;
#WARPS:;
#TIMESIGNATURES:0.000=4=4;
#TICKCOUNTS:0.000=4;
#COMBOS:0.000=1;
#SPEEDS:0.000=1.000=0.000=0;
#SCROLLS:0.000=1.000;
#FAKES:;
#LABELS:0.000=Song Start;
#BGCHANGES:;
#KEYSOUNDS:;
#ATTACKS:
;

//---------------dance-single - ----------------
#NOTEDATA:;
#CHARTNAME:;
#STEPSTYPE:dance-single;
#DESCRIPTION:;
#CHARTSTYLE:;
#DIFFICULTY:Hard;
#METER:15;
#RADARVALUES:0.693204,0.983964,0.057183,0.179719,0.481975,594.000000,587.000000,7.000000,22.000000,0.000000,0.000000,0.000000,0.000000,0.000000,0.693204,0.983964,0.057183,0.179719,0.481975,594.000000,587.000000,7.000000,22.000000,0.000000,0.000000,0.000000,0.000000,0.000000;
#CREDIT:nutpuss;
#NOTES:
// measure 0
0000
0000
0000
0000
,  // measure 1
0000
0000
0000
0000
,  // measure 2
0000
0000
0000
0000
,  // measure 3
0000
0000
0000
0000
,  // measure 4
0000
0000
0000
0000
,  // measure 5
1000
0000
0010
1000
0000
0010
1000
0000
0010
0000
0000
0010
0000
0000
0010
0000
,  // measure 6
0001
0000
0100
0001
0000
0100
0001
0000
0100
0000
0000
0100
0000
0000
0100
0000
,  // measure 7
0010
0000
1000
0010
0000
1000
0010
0000
1000
0000
0000
1000
0000
0000
1000
0000
,  // measure 8
0001
0000
1000
0001
0000
1000
0001
0000
1000
0000
0000
1000
0000
0000
0010
0000
,  // measure 9
1000
0000
0001
0000
1000
0000
0010
0000
1000
0000
0010
1000
0010
0000
0100
0000
,  // measure 10
0010
0000
1000
0000
0001
0000
0100
0000
0001
0000
0100
0001
0100
0000
0010
0000
,  // measure 11
1000
0000
0001
0000
1000
0000
0010
0000
0100
0000
0010
0100
0010
0000
0100
0000
,  // measure 12
1000
0000
0001
0000
0100
0000
0001
0000
0100
0000
0010
0001
0010
0000
1000
0000
,  // measure 13
0001
0000
0100
0000
0010
0000
1000
0000
0001
0000
0100
0010
0100
0000
0010
0000
,  // measure 14
1000
0000
0001
0000
1000
0000
0010
0000
1000
0000
0010
1000
0010
0000
1000
0000
,  // measure 15
1001
1010
0110
1001
,  // measure 16
1000
0000
0001
0000
1000
0000
0001
0000
1000
0001
1000
0001
1000
0001
1000
0001
,  // measure 17
2000
0000
3001
0010
2000
0000
3001
0010
,  // measure 18
0002
0000
2003
0000
3020
0000
0130
0001
,  // measure 19
0200
0000
0301
0010
2000
0000
3010
0100
,  // measure 20
0001
0000
1000
0001
1000
0000
0010
0000
1000
0000
0001
0000
1000
0000
0010
0000
,  // measure 21
1000
0000
0001
0000
1000
0000
0100
0000
0010
0000
0000
1010
0000
0000
1000
0000
,  // measure 22
1000
0000
0000
0010
0000
0000
1000
0000
0002
0000
0000
0000
0103
0000
0001
0000
,  // measure 23
2000
3020
0230
0302
,  // measure 24
2003
3020
0100
0100
,  // measure 25
0130
0000
0010
0000
1000
0001
1000
0001
1000
0000
0010
0000
1000
0000
0001
0000
,  // measure 26
0100
0000
0010
0000
0001
0100
0001
0100
0001
0000
0000
0100
0000
0000
0001
0000
,  // measure 27
0101
0000
0000
0000
0001
1000
0001
1000
0001
0000
0000
1000
0000
0000
0001
0000
,  // measure 28
1001
0000
0000
0000
1000
0001
1000
0001
1000
0000
0000
0000
0010
1000
0010
1000
,  // measure 29
0010
0000
0000
0000
0100
0001
0100
0001
0100
0000
0000
0000
0010
0001
0010
0001
,  // measure 30
0010
0000
0000
0000
1000
0010
1000
0010
1000
0000
0000
0000
0001
0000
0100
0000
,  // measure 31
0001
0001
1000
1000
0001
0001
0100
0100
,  // measure 32
1000
0000
1000
0000
0001
0000
0001
0000
1000
0010
1000
0010
1000
0000
0100
0000
,  // measure 33
1000
0001
1000
0001
1000
0000
0100
0000
1000
0000
0010
0000
0100
0000
0001
0000
,  // measure 34
0010
0001
0010
0001
0010
0000
1000
0000
0001
0000
0100
0000
0010
0000
1000
0000
,  // measure 35
0100
0001
0100
0001
0100
0000
0010
0000
1000
0000
0001
0000
0100
0000
0010
0000
,  // measure 36
0100
0010
0100
0010
0100
0000
1000
0000
0010
0000
0100
0000
0001
0000
0100
0000
,  // measure 37
0010
0001
0010
0001
0010
0000
0100
0000
1000
0000
0010
0000
1000
0000
0010
0000
,  // measure 38
1000
0010
1000
0010
1000
0000
0100
0000
0010
0000
0100
0000
0001
0000
0100
0000
,  // measure 39
0001
0100
0001
0100
0001
0000
0010
0000
1000
0000
0001
0000
0100
0000
0010
0000
,  // measure 40
1000
0100
1000
0100
1000
0000
0010
0000
1000
0000
0001
0000
1000
0000
0010
0000
,  // measure 41
1000
0000
0000
0010
0000
0000
0100
0000
0010
0000
0100
0000
0010
0000
0100
0000
,  // measure 42
1000
0000
0010
1000
0000
1000
0010
0000
0100
0000
0000
0100
0000
0000
0100
0000
,  // measure 43
0001
0100
0001
0100
0010
1000
0100
0000
,  // measure 44
1000
0000
0001
1000
0000
0001
1000
0000
0001
0000
0000
0001
0000
0000
0001
0000
,  // measure 45
1000
0010
1000
0001
0100
0010
1000
0100
,  // measure 46
0010
0000
1000
0010
0000
1000
0010
0000
1000
0000
0000
0010
0000
0000
0100
0000
,  // measure 47
1000
0001
1000
0010
1000
0010
1000
0001
,  // measure 48
1000
0100
1000
0001
1000
0100
1000
0010
,  // measure 49
2000
0010
3020
0001
,  // measure 50
0032
1000
2003
0100
,  // measure 51
3200
0010
0320
0001
,  // measure 52
0032
1000
2003
0010
,  // measure 53
3010
0001
1000
0010
1000
0010
1000
0010
,  // measure 54
0100
0010
0100
0010
0100
0010
0100
0010
,  // measure 55
0001
0001
1000
1000
0010
0010
0100
0100
,  // measure 56
0001
0001
0100
0100
1000
1000
0001
0001
,  // measure 57
1000
0000
0000
0010
1000
0010
1000
0010
1000
0001
1000
0001
1000
0000
0010
0000
,  // measure 58
0100
0001
0100
0001
0100
0000
0010
0000
1000
0000
0001
0000
0100
0000
0010
0000
,  // measure 59
0100
0010
0100
0010
0100
0000
0010
0000
1000
0000
0001
0000
1000
0000
0001
0000
,  // measure 60
1000
0010
1000
0010
1000
0000
0010
0000
1000
0000
0001
0000
0100
0000
0010
0000
,  // measure 61
1000
0010
1000
0010
1000
0000
0001
0000
0100
0000
0010
0000
1000
0000
0001
0000
,  // measure 62
1000
0001
1000
0001
1000
0000
0010
0000
1000
0000
0001
0000
1000
0000
0010
0000
,  // measure 63
1000
0010
1000
0010
1000
0000
0100
0000
0001
0000
0100
0000
0001
0000
0100
0000
,  // measure 64
0001
0100
0001
0100
0001
0000
0010
0000
1000
0000
0001
0000
1000
0000
0010
0000
,  // measure 65
0100
0010
0100
0010
0100
0000
0010
0000
1000
0000
0001
0000
1000
0000
0010
0000
,  // measure 66
1000
0010
1000
0010
1000
0000
0001
0000
0100
0000
0001
0000
0010
0000
0100
0000
,  // measure 67
0001
0100
0001
0100
0001
0000
0010
0000
1000
0000
0010
0000
0100
0000
0001
0000
,  // measure 68
0100
0010
0100
0010
0100
0000
0010
0000
1000
0000
0001
0000
1000
0000
0010
0000
,  // measure 69
1000
0001
1000
0001
1000
0000
0100
0000
0001
0000
1000
0000
0010
0000
1000
0000
,  // measure 70
0010
1000
0010
1000
0010
0000
0100
0000
0010
0000
0100
0000
0001
0000
0010
0000
,  // measure 71
1000
0100
0010
0001
1000
0100
0010
0001
1000
0100
0010
0001
1000
0100
0010
0001
,  // measure 72
1000
0100
1000
0100
1000
0001
1000
0001
1000
0010
1000
0010
1000
0100
1000
0100
,  // measure 73
1000
0000
0000
0000
;

//---------------dance-single - ----------------
#NOTEDATA:;
#CHARTNAME:;
#STEPSTYPE:dance-single;
#DESCRIPTION:;
#CHARTSTYLE:;
#DIFFICULTY:Medium;
#METER:12;
#RADARVALUES:0.518152,0.655976,0.163381,0.130705,0.089860,444.000000,424.000000,20.000000,16.000000,0.000000,0.000000,0.000000,0.000000,0.000000,0.518152,0.655976,0.163381,0.130705,0.089860,444.000000,424.000000,20.000000,16.000000,0.000000,0.000000,0.000000,0.000000,0.000000;
#CREDIT:nutpuss;
#NOTES:
0000
0000
0000
0000
,
0000
0000
0000
0000
,
0000
0000
0000
0000
,
0000
0000
0000
0000
,
0000
0000
0000
0000
,
1000
0000
0000
0001
0000
0000
1000
0000
0000
0010
0000
0000
1000
0000
0001
0000
,
1000
0000
0000
0010
0000
0000
0100
0000
0000
0001
0000
0000
0100
0000
0001
0000
,
0100
0000
0000
0001
0000
0000
0100
0000
0000
0010
0000
0000
1000
0000
0010
0000
,
1000
0000
0000
0010
0000
0000
0100
0000
0000
0001
0000
0000
0100
0000
0001
0000
,
0100
0001
0100
0001
0100
0000
0010
0000
,
1000
0010
1000
0010
1000
0000
0010
0000
,
0100
0010
0100
0010
0100
0000
0010
0000
,
0100
0001
0100
0001
0100
0000
0001
0000
,
1000
0001
1000
0001
1000
0000
0001
0000
,
0100
0001
0100
0001
0100
0000
0001
0000
,
1001
1001
0110
0110
,
1000
0001
1000
0000
0001
1000
0001
0000
,
1000
0010
1000
0000
0010
0000
1010
0000
,
0100
0010
0100
0000
0010
0000
0110
0000
,
0001
0100
0001
0000
0100
0000
0101
0000
,
0001
1000
0001
0000
1000
0000
1001
0000
,
1000
0010
1000
0000
0010
0000
1010
0000
,
1000
0001
1000
0000
0001
0000
1001
0000
,
0100
0001
0100
0000
0001
0000
0101
0000
,
0001
1000
0001
0000
0100
0000
1010
0000
,
1001
0000
1000
0010
1000
0010
1000
0001
,
1000
0000
0100
0001
0100
0001
0100
0010
,
0001
0000
1000
0010
1000
0001
1000
0010
,
1000
0000
0100
0010
0100
0000
0001
1000
,
0001
0000
1000
0010
1000
0000
0100
0001
,
0100
0000
1000
0010
1000
0000
0001
0100
,
0001
0100
0001
0100
0001
0100
0001
0100
,
0001
1001
1000
1010
,
2000
0000
0000
3010
0001
0010
0001
0010
,
0100
1000
0100
1000
0100
0000
0010
0000
,
0002
0000
0000
0103
0001
0100
0001
0100
,
0010
0100
0010
1000
0010
0000
0010
0000
,
0020
0000
0000
0130
0001
0100
0001
0100
,
0001
0100
1000
0100
1000
0100
1000
0010
,
2000
0000
0000
3001
1000
0001
1000
0001
,
1000
1001
0001
0101
,
0100
0001
0100
0001
0100
0000
0010
0000
,
1000
0000
0010
0000
1000
0000
0010
0000
1000
0000
0000
0010
0000
0000
1000
0000
,
0001
0100
0001
0000
1000
0010
1000
0000
,
1000
0000
0001
0000
1000
0000
0001
0000
1000
0000
0000
0001
0000
0000
1000
0000
,
0100
0001
0100
0000
0010
1000
0010
0000
,
0100
0000
0010
0000
0100
0000
0010
0000
0100
0000
0000
0010
0000
0000
0100
0000
,
0001
1000
0001
0000
0100
0001
0100
0000
,
2000
3020
0032
0023
,
2030
0000
3002
0000
,
0203
0000
0320
0000
,
2030
0000
3002
0000
,
2003
0000
3002
0000
,
1003
0001
1000
0000
0010
0000
0100
0000
,
0010
0100
0010
0000
1000
0000
0010
0000
,
1000
0001
1000
0000
0001
1000
0001
0000
,
1000
1010
0010
0011
,
1000
0010
1000
0000
0100
0001
0100
0000
,
1000
0001
1000
0000
0100
0000
0010
0000
1000
0000
0001
0000
0100
0000
0010
0000
,
1000
0001
0100
0010
0001
0100
0010
1000
,
0010
1000
0010
0000
0100
0000
0001
0000
1000
0000
0010
0000
0100
0000
0001
0000
,
1000
0010
0100
0001
1000
0100
0010
0100
,
0001
0100
0001
0000
0010
0000
1000
0000
0001
0000
0100
0000
0010
0000
1000
0000
,
0001
0100
0010
1000
0100
1000
0100
0010
,
0001
0010
0001
0000
1000
0000
0010
0000
1000
0000
0001
0000
1000
0000
0010
0000
,
1000
0100
0010
0001
0100
0001
0100
0010
,
0001
0100
0001
0000
0010
0000
1000
0000
0010
0000
0100
0000
0010
0000
0001
0000
,
1000
0010
1000
0001
1000
0100
1000
0001
,
1000
0001
1000
0000
0010
0000
1000
0000
0001
0000
0100
0000
0010
0000
1000
0000
,
0010
0100
0001
0100
0001
0100
0010
1000
,
0100
0001
0100
0000
0010
0000
1000
0000
0100
0000
0010
0000
0100
0000
0001
0000
,
0100
0000
0001
0100
0001
0000
0010
0000
1000
0000
0010
1000
0010
0000
0100
0000
,
0001
0000
0100
0001
0100
0000
0010
0000
1000
0000
0010
0100
0010
0000
0100
0000
,
0110
0000
0000
0000
;

//---------------dance-single - ----------------
#NOTEDATA:;
#CHARTNAME:;
#STEPSTYPE:dance-single;
#DESCRIPTION:;
#CHARTSTYLE:;
#DIFFICULTY:Easy;
#METER:6;
#RADARVALUES:0.298754,0.387622,0.040845,0.065353,0.000000,256.000000,251.000000,5.000000,8.000000,0.000000,0.000000,0.000000,0.000000,0.000000,0.298754,0.387622,0.040845,0.065353,0.000000,256.000000,251.000000,5.000000,8.000000,0.000000,0.000000,0.000000,0.000000,0.000000;
#CREDIT:nutpuss;
#NOTES:
0000
0000
0000
0000
,
0000
0000
0000
0000
,
0000
0000
0000
0000
,
0000
0000
0000
0000
,
0000
0000
0000
0000
,
1000
0100
1000
0100
,
1000
0001
1000
0001
,
1000
0010
1000
0010
,
1000
0100
1000
0100
,
1000
1000
0001
0001
,
0100
0100
0010
0010
,
1000
1000
0001
0001
,
0100
0100
0010
0010
,
1000
1000
0001
0001
,
0100
0100
0010
0010
,
1001
1001
1001
1001
,
1000
1000
0001
0001
,
1000
0010
1000
0010
,
1000
0001
1000
0001
,
1000
0010
0001
0010
,
0001
0100
0001
0100
,
0001
1000
0010
1000
,
0010
0001
0010
0001
,
1000
0001
1000
0001
,
1000
0010
1000
0010
,
1000
1000
0001
0001
,
0100
0100
0010
0010
,
1000
1000
0001
0001
,
0100
0100
0010
0010
,
1000
1000
0001
0001
,
1000
1000
0001
0001
,
2000
0000
3002
0000
,
2003
0000
3002
0000
,
1003
1000
0010
0010
,
1000
1000
0001
0001
,
0100
0100
0010
0010
,
1000
1000
0001
0001
,
0100
0100
0001
0001
,
1000
1000
0001
0001
,
0100
0100
0010
0010
,
1000
1000
0001
0001
,
1000
1000
0001
0001
,
1000
0001
1000
0001
,
0100
0000
0100
0000
,
0100
0001
0100
0001
,
0100
0000
0100
0000
,
0010
1000
0010
1000
,
0010
0000
0010
0000
,
1000
1000
0001
0001
,
2000
0000
0000
0000
,
3002
0000
0000
0000
,
2003
0000
0000
0000
,
3002
0000
0000
0000
,
1003
1000
0010
0010
,
0100
0100
0001
0001
,
1000
0001
1000
0001
,
1000
0010
1000
0010
,
1000
0010
1000
0010
,
1000
1000
0001
0001
,
0100
0100
0010
0010
,
1000
1000
0001
0001
,
0100
0100
0010
0010
,
1000
1000
0001
0001
,
0100
0100
0010
0010
,
1000
0001
1000
0001
,
1000
0010
1000
0010
,
1000
0100
1000
0100
,
1000
0001
1000
0001
,
1000
0010
1000
0010
,
1000
0001
1000
0001
,
1000
0010
1000
0010
,
1000
0100
1000
0001
,
1000
0010
1000
0001
,
1001
0000
0000
0000
;
