#VERSION:0.83;
#TITLE:ASIAN VIRTUAL REALITIES;
#SUBTITLE:(MELTING TOGETHER IN DAZZLING DARKNESS);
#ARTIST:かめりあ;
#TITLETRANSLIT:;
#SUBTITLETRANSLIT:;
#ARTISTTRANSLIT:;
#GENRE:;
#ORIGIN:;
#CREDIT:;
#BANNER:;
#BACKGROUND:;
#PREVIEWVID:;
#JACKET:;
#CDIMAGE:;
#DISCIMAGE:;
#LYRICSPATH:;
#CDTITLE:;
#MUSIC:ASIAN VIRTUAL REALITIES (MELTING TOGETHER IN DAZZLING DARKNESS).ogg;
#OFFSET:-1.600000;
#SAMPLESTART:36.400002;
#SAMPLELENGTH:12.800000;
#SELECTABLE:YES;
#DISPLAYBPM:75.000000:150.000000;
#BPMS:0.000=150.000,
37.500=300.000,
38.500=225.000,
40.000=150.000,
143.000=75.000,
159.000=150.000,
196.500=300.000,
197.500=225.000,
199.000=150.000;
#STOPS:121.500=0.200,
123.750=0.200,
131.250=0.200,
131.500=0.200,
131.750=0.200,
132.000=0.200,
132.250=0.200,
132.750=0.200,
133.500=0.200,
134.250=0.200,
135.000=0.200,
135.750=0.200;
#DELAYS:;
#WARPS:;
#TIMESIGNATURES:0.000=4=4;
#TICKCOUNTS:0.000=4;
#COMBOS:0.000=1;
#SPEEDS:0.000=1.000=0.000=0;
#SCROLLS:0.000=1.000;
#FAKES:;
#LABELS:0.000=Song Start;
#BGCHANGES:;
#KEYSOUNDS:;
#ATTACKS:
;

//---------------dance-single - ----------------
#NOTEDATA:;
#CHARTNAME:;
#STEPSTYPE:dance-single;
#DESCRIPTION:;
#CHARTSTYLE:;
#DIFFICULTY:Easy;
#METER:12;
#RADARVALUES:0.454385,0.468479,0.227192,0.176705,0.164083,378.000000,351.000000,27.000000,21.000000,0.000000,0.000000,0.000000,0.000000,0.000000,0.454385,0.468479,0.227192,0.176705,0.164083,378.000000,351.000000,27.000000,21.000000,0.000000,0.000000,0.000000,0.000000,0.000000;
#CREDIT:pocketporridge;
#DISPLAYBPM:75.000000:150.000000;
#NOTES:
0000
0000
0000
0000
,
0000
0000
0000
0000
,
1001
0001
0100
0000
0000
0100
0010
0000
,
1000
0000
0001
0000
0010
0000
0000
0000
0100
0000
0000
0000
1000
0001
0000
0000
,
0101
0100
0010
0000
0000
0010
1000
0000
,
0001
0000
0010
0000
0100
0000
1000
0000
0000
0000
0001
0000
0100
0001
0000
0000
,
1001
1000
0100
0000
0000
0100
0010
0000
,
0001
0000
1000
0000
0010
0000
0000
0000
0100
0000
0000
0000
0001
1000
0000
0000
,
1100
0100
0010
0000
0011
0000
1010
0000
,
0001
0100
0010
2000
0000
0000
0000
0000
,
3000
0000
1001
0000
0100
0010
0100
0001
,
1000
0000
1100
0000
0010
0100
1000
0001
,
0100
0001
0000
0000
1001
0000
0000
0000
0010
0000
0100
0000
0010
0000
0001
0000
,
1000
0000
1010
0000
0001
0010
0000
0001
,
0100
0010
1000
0000
0100
0010
0100
1000
,
0001
0000
0101
0000
0010
0100
0001
1000
,
0100
1000
0000
0000
1001
0000
0000
0000
0010
0000
0100
0000
0010
0000
1000
0000
,
0001
0000
0000
0000
0010
0001
0000
0000
1000
0000
1000
0000
0000
0000
0010
0000
,
0100
0001
0010
0000
0100
0000
0000
0000
,
0100
0000
0100
0000
,
0100
0010
0000
0000
1001
0000
0000
0000
0100
0000
0000
0000
0000
0000
0000
0000
,
0100
0000
0000
0000
0010
0000
0000
0010
0000
0000
0010
0000
0000
0010
0000
0000
,
0010
0000
0000
0000
1001
0000
0000
0000
1000
0000
0001
0010
0000
0000
0010
0000
,
0100
0000
1000
0000
0001
0000
0000
0000
0100
0000
0001
1000
0000
0000
1000
0000
,
0010
0100
0002
0000
0010
0000
1000
0000
,
0103
0000
0001
0010
0001
1000
0001
0100
,
0001
0000
0010
0000
0100
0000
1000
0000
0001
0000
1000
0010
0000
0000
0010
0000
,
0100
0000
0001
0000
1000
0000
0000
0000
0100
0000
1000
0001
0000
0000
0001
0000
,
0010
0100
2000
0000
0010
0000
0001
0000
,
3100
0000
1000
0010
1000
0001
0010
0100
,
1000
0000
0010
0000
0100
0000
0200
0300
0001
0000
0001
0000
0000
1000
0000
2000
,
3000
0001
0000
0100
0000
0001
0000
0000
1000
0000
0100
0000
1000
0000
0001
0000
,
0000
0010
0000
0100
0000
0000
1000
0000
0000
0001
0000
0100
0000
0002
2003
3002
,
2003
3002
0003
0200
0300
0000
0020
0030
0000
0200
0300
0000
0020
0030
0000
0200
,
0300
0001
0000
0000
1000
0000
0100
0000
0000
1000
0000
0000
0001
0000
0100
0000
,
0010
1000
0001
0010
0100
1000
0020
0000
,
0030
0000
0000
0000
1000
0001
0020
0030
,
0000
0000
0000
0001
1000
0010
0100
0000
,
0000
0001
0010
0000
0001
1000
0100
0000
,
0000
0000
0020
0000
0000
0030
0001
0000
,
0100
0001
0100
0010
,
1000
0010
1000
0001
,
0010
0001
0010
0100
,
1000
0000
0100
0000
1000
0010
0100
0000
,
0001
0100
0001
1000
,
0100
0010
0001
1001
,
0000
0100
0000
0000
1001
0000
0000
0000
0000
0010
0000
0000
1001
0000
0000
0000
,
0000
1000
0000
0000
1001
0000
0000
0000
0000
0001
0000
0000
1000
0000
0001
0000
,
0100
0001
1000
0001
0100
0001
1000
0100
,
0010
0002
0000
0000
0000
0000
0003
0000
,
1001
0000
1000
0010
0100
0001
0010
1000
,
0000
1000
0100
0010
0001
1000
0010
0000
,
1001
0000
1000
0100
0010
0001
1000
0010
,
0001
0000
0000
0000
0001
0000
0000
0100
0000
0000
0001
0000
2000
0000
0000
0000
,
3000
0000
0000
0000
0110
0000
0000
0001
0000
0000
1000
0000
0100
0000
0000
0000
,
0010
0000
0100
0000
1000
0000
0000
0010
0000
0000
1000
0000
0001
0000
0000
0000
,
0110
0000
0000
0101
0000
0000
1100
0000
,
0110
0000
0000
1000
0000
0000
1100
0000
0000
0101
0000
0000
0000
0000
0000
0000
,
0001
1000
0010
0100
0000
1000
0010
0100
,
0001
1000
0000
0100
0010
0001
1000
0001
,
0010
0100
0000
0001
0010
0100
1000
0001
,
0000
0100
0010
1000
0001
0000
0010
0100
,
1000
0010
0001
1000
0100
0001
0010
0100
,
1000
0001
1000
0001
0010
0000
0001
1000
,
0010
0000
1000
0001
0010
0100
0010
0200
,
0000
0000
0300
0000
;

//---------------dance-single - ----------------
#NOTEDATA:;
#CHARTNAME:;
#STEPSTYPE:dance-single;
#DESCRIPTION:;
#CHARTSTYLE:;
#DIFFICULTY:Medium;
#METER:15;
#RADARVALUES:0.615463,0.716498,0.100974,0.210363,0.618468,512.000000,500.000000,12.000000,25.000000,0.000000,0.000000,0.000000,0.000000,0.000000,0.615463,0.716498,0.100974,0.210363,0.618468,512.000000,500.000000,12.000000,25.000000,0.000000,0.000000,0.000000,0.000000,0.000000;
#CREDIT:pocketporridge;
#DISPLAYBPM:75.000000:150.000000;
#NOTES:
0000
0000
0000
0000
,
0000
0000
0000
0000
,
1001
0000
1000
0000
0010
0000
0000
0100
0000
0000
0001
0000
0010
0000
0000
0000
,
0100
0000
0010
0000
0001
0000
0000
0100
0000
0000
0010
0000
1000
0000
0000
0000
,
1001
0000
0001
0000
0010
0000
0000
0100
0000
0000
1000
0000
0010
0000
0000
0000
,
0100
0001
1000
1001
0000
0001
0010
0000
,
0110
0000
0100
0000
1000
0000
0000
0010
0000
0000
1000
0000
0001
0000
0000
0000
,
0010
0000
0001
0000
0100
0000
0000
0001
0000
0000
1000
0000
0010
0000
0000
0000
,
0110
0000
0000
0100
0000
0000
0001
0000
0000
0000
0000
0000
1000
0000
0100
0000
1000
0000
0001
0000
0100
0000
0001
0000
,
1000
0100
0010
0002
0000
0000
0000
0000
,
0003
0000
0000
0000
1000
0000
1000
0000
0010
0000
0100
0001
0000
1000
0001
0000
,
0010
0000
0100
1000
0000
0001
1000
0000
0010
0000
0100
0001
0000
0010
0001
0000
,
2000
0100
0000
0000
3001
0000
0001
0000
0010
0000
0100
1000
0000
0001
1000
0000
,
0010
0000
0100
0001
0000
0010
0001
0000
1000
0000
1000
0000
0001
0100
0001
0000
,
0020
0000
0000
0000
0130
0000
1000
0000
0010
0000
0100
0001
0000
0001
1000
0000
,
0010
0000
1000
0100
0000
0100
0010
0000
0001
0000
1000
0001
0000
0100
0001
0000
,
2000
0010
0000
0000
3001
0000
0001
0000
0010
0000
0100
1000
0000
1000
0001
0000
,
0010
0000
0100
0000
0000
1001
0000
0000
1000
0000
1010
0000
0000
0101
0000
0000
,
1000
0001
0010
0010
0100
0000
0000
1000
,
0100
0000
0010
0010
0100
0000
0000
1000
,
0001
2000
0000
0000
3010
0000
0010
0000
0100
0000
0000
0000
0000
0000
0001
0000
,
0100
0000
0000
0000
0010
0000
0000
0010
0000
0000
0010
0000
0000
0010
0000
0000
,
0020
0000
0000
0000
1030
0000
0001
0000
0010
0000
0100
1000
0000
0000
1000
0000
,
0010
1000
0000
0000
0001
0000
0100
0000
0010
0000
0100
0001
0000
0000
0001
0000
,
1000
0001
0000
0000
0010
0000
0100
0000
1000
0000
0100
0000
0001
0000
1000
0000
,
0010
0001
1000
0010
0100
1000
0001
0010
,
1000
0000
0000
0000
0001
0000
0100
0000
0010
0000
1000
0001
0000
0000
0001
0000
,
0100
0001
0000
0000
0010
0000
1000
0000
0010
0000
0001
1000
0000
0000
1000
0000
,
0100
1000
0000
0000
0001
0000
1000
0000
0010
0000
0100
0000
1000
0000
0001
0000
,
0010
1000
0001
0010
0100
0001
1000
0010
,
0001
0000
1000
0000
0010
0100
0020
1030
0001
0000
0010
0000
0100
0010
0000
0200
,
1300
0001
0000
0100
0000
0010
0000
0100
0001
0000
1000
0000
0010
0000
0100
0001
,
0100
0001
0000
0010
0000
0100
1000
0000
0100
1000
0000
0001
1000
0002
2003
3002
,
2003
3002
1003
0200
0300
0001
0200
0300
1000
0200
0300
0001
0200
0300
1000
0200
,
0300
0001
1000
0001
1000
0000
0100
0010
0100
0010
0000
0001
1000
0001
1000
0000
,
0010
1000
0010
0000
0100
0001
0100
0000
0001
1000
0001
1000
0200
0000
0000
0000
,
0300
0000
0000
0000
0000
0000
0000
0000
1000
0100
0001
0100
1000
0010
0100
0000
,
0000
0000
0000
0000
0000
0001
0100
1000
0100
0001
0010
0100
1000
0000
0000
0000
,
0000
1000
0010
0001
0010
1000
0000
0001
0100
0010
1000
0000
0200
0000
0000
0000
,
0000
0000
0000
0000
0000
0000
0000
0000
0310
0000
0000
0010
0000
0000
0010
0000
0000
0010
0000
0000
0010
0000
0000
0000
0001
0000
0000
0000
0000
0000
0000
0000
,
0001
0000
0100
0000
0100
0000
1000
0010
,
0000
0010
0100
0000
0100
0000
0001
0010
,
0000
0010
0100
0000
0100
0000
1000
0010
,
0000
0010
0100
0000
0100
0001
1000
0000
,
1000
0000
0100
0000
0100
0000
0001
0010
,
0000
0000
0010
0000
0100
0000
0000
0000
1000
0000
0001
1000
0001
0000
0000
0000
,
0000
0010
0000
0000
0011
0000
0000
0000
0000
0001
0000
0000
1001
0000
0000
0000
,
0000
1000
0000
0000
1010
0000
0000
0000
0000
0010
0000
0000
0110
0000
1000
0000
,
0001
0010
0100
1000
0010
0100
0001
0010
,
0100
2000
0000
0000
0000
0000
3000
0000
,
0001
0000
0100
0000
0010
0000
1000
0001
0000
0100
0001
0000
0010
0000
0010
0100
,
0000
1000
0010
0000
0100
0000
0001
0100
0000
0010
1000
0000
0002
0010
0000
0000
,
0103
0000
0001
0000
1000
0000
0100
0010
0000
0001
0010
0000
0100
0000
1000
0001
,
0000
0100
0010
0000
0100
0000
0001
0100
0000
0100
0010
0000
2000
0001
0000
0000
,
3100
0000
0000
0000
0001
0010
0001
0010
0000
0001
1000
0000
0010
0000
0100
0000
,
0001
1000
0001
0000
0010
0000
0100
1000
0000
1000
0001
0000
0010
0000
0100
0000
,
1000
0000
0001
0100
0001
0000
0010
0000
0100
1000
0100
0000
0010
0000
0001
1000
,
0010
0000
1000
0100
0000
0100
0010
0000
0010
0001
0000
0001
2000
0000
0000
0000
,
3010
0000
0100
0000
1000
0000
0100
0001
0000
0100
0001
0000
0010
0000
0100
1000
,
0100
0000
0001
0000
0100
0000
0010
0001
0000
0010
0001
0000
1000
0000
0010
0000
,
0001
0000
0010
1000
0000
0010
1000
0000
0100
0000
0010
0001
0010
0000
1000
0000
,
0010
0000
0100
1000
0000
0100
1000
0000
0001
0000
0100
0000
0010
1000
0000
0001
,
0010
0000
0100
1000
0000
0001
0100
0000
0010
1000
0000
0100
0010
0000
0001
1000
,
0010
0000
0100
0000
0001
1000
0100
1000
0001
1000
0000
0000
0001
0100
0010
0100
,
0001
0100
0000
0000
0010
1000
0010
1000
0001
0000
0010
0000
0100
0000
2000
0000
,
0000
0000
3000
0000
;

//---------------dance-single - ----------------
#NOTEDATA:;
#CHARTNAME:;
#STEPSTYPE:dance-single;
#DESCRIPTION:;
#CHARTSTYLE:;
#DIFFICULTY:Hard;
#METER:17;
#RADARVALUES:0.758510,0.799170,0.185120,0.277680,0.980293,631.000000,609.000000,22.000000,33.000000,16.000000,0.000000,0.000000,0.000000,0.000000,0.758510,0.799170,0.185120,0.277680,0.980293,631.000000,609.000000,22.000000,33.000000,16.000000,0.000000,0.000000,0.000000,0.000000;
#CREDIT:pocketporridge;
#DISPLAYBPM:75.000000:150.000000;
#NOTES:
// measure 0
0000
0000
0000
0000
,  // measure 1
0000
0000
0000
MMMM
,  // measure 2
1001
0000
1000
0000
0010
0000
0000
0100
0000
0001
0100
0000
0010
0000
0000
0000
,  // measure 3
1000
0000
0001
1000
0010
0000
0000
0100
0000
0000
0001
0000
0010
0100
0000
0000
,  // measure 4
1001
0000
0001
0000
0010
0000
0000
0100
0000
1000
0100
0000
0010
0000
0000
0000
,  // measure 5
0001
0000
0100
0000
0001
0000
0101
0000
0000
1000
0001
1000
0100
0000
0000
0000
,  // measure 6
1001
0000
0001
0000
0100
0000
0000
0010
0000
1000
0010
0000
0100
0000
0000
0000
,  // measure 7
0001
0000
0000
1000
0100
0000
0000
0010
0000
0000
0100
0000
1000
0010
0000
0000
,  // measure 8
0101
0000
0000
0001
0000
0000
1000
0000
0000
0000
0000
0000
0001
0000
0100
0000
0100
0000
0010
0000
0100
0000
0100
0000
,  // measure 9
0002
1000
0100
0020
0000
0000
0000
0000
,  // measure 10
0033
0000
MMMM
0000
1100
0000
0001
0000
1000
0100
1000
0001
0000
0010
0001
0000
,  // measure 11
1000
0010
1000
0100
0000
0010
0001
0000
1000
0100
1000
0001
0000
0100
0010
0000
,  // measure 12
2000
0001
0000
0000
3010
0000
0100
0000
0001
0100
0001
1000
0000
0010
1000
0000
,  // measure 13
0001
0010
0001
0100
0000
0010
1000
0000
0100
0010
0001
1000
0000
0010
0100
0000
,  // measure 14
0002
1000
0000
0000
0013
0000
0100
0000
1000
0010
1000
0001
0000
0001
0010
0000
,  // measure 15
0100
1000
0001
0100
0000
0100
0010
0000
1000
0100
1000
0001
0000
0100
0010
0000
,  // measure 16
2000
0001
0000
0000
3100
0000
0010
0000
0001
0100
0001
1000
0000
0010
1000
0000
,  // measure 17
0100
0010
0001
1000
0000
0001
0100
0000
0100
0000
0010
1000
0000
0100
1000
0000
,  // measure 18
0002
0000
0000
0000
0103
0000
0100
0000
0001
0000
0000
1000
0000
0010
0000
0000
,  // measure 19
1000
0000
0000
0000
0100
0000
0100
0000
1000
0000
0000
0001
0000
0010
0000
0000
,  // measure 20
0002
0100
0000
0000
1003
0000
1000
0000
0100
0000
0000
1000
0000
0001
0000
0000
,  // measure 21
0100
0000
0010
1000
0010
0000
0000
0101
0000
0000
1100
0000
0001
0010
0100
1000
,  // measure 22
0002
0000
0000
0000
0103
0000
0010
0000
1000
0000
0001
0010
0000
0001
0010
0000
,  // measure 23
0100
0000
1000
0000
0010
0000
0001
0000
0010
0000
1000
0100
0000
1000
0100
0000
,  // measure 24
0010
0002
0000
0000
1003
0000
0010
0000
0100
0000
0001
1000
0010
1000
0001
0000
,  // measure 25
0010
0100
1000
0000
0001
0100
0010
1000
0010
0100
0001
1000
0100
0000
0001
0000
,  // measure 26
1000
0000
0010
0000
0001
0000
1000
0000
0010
0000
0100
0001
0000
0100
0001
0000
,  // measure 27
1000
0000
0010
0000
0100
0000
1000
0000
0100
0000
0001
1000
0000
0001
1000
0000
,  // measure 28
0100
0020
0000
0000
0031
0000
0010
0000
0100
0000
1000
0001
0100
0001
1000
0000
,  // measure 29
0100
0010
0001
0000
1000
0010
0100
0001
0100
0010
1000
0001
0010
0000
0100
0000
,  // measure 30
1000
0000
0001
0000
0100
0001
0200
1300
0100
0000
1000
0000
0100
1000
0000
0200
,  // measure 31
0301
0100
0000
0001
0000
1000
0000
0001
0010
0000
0100
0000
1000
0000
0001
0100
,  // measure 32
0001
0100
0000
0010
0000
1000
0001
1000
0001
0010
0000
0100
1000
0200
0302
2003
,  // measure 33
3002
2003
3001
0200
0300
1000
0200
0300
0001
0200
0300
1000
0200
0300
0001
0200
,  // measure 34
0300
1000
0100
0010
0001
0000
1000
0010
0100
0001
0000
1000
0100
1000
0001
0100
,  // measure 35
0001
1000
0010
1000
0001
0010
0100
1000
0001
0100
0001
1000
0020
0000
0000
0000
,  // measure 36
0030
0000
0000
0000
0000
0000
0000
0000
0000
0000
0000
0000
0000
0000
0000
0000
2000
0000
0001
0000
3010
0000
1000
0100
1000
0000
0001
0000
0100
0000
0000
0000
,  // measure 37
0000
0000
0000
0000
0000
0000
0000
0000
0000
0000
0002
0000
0010
0000
1003
0000
0001
0100
0001
0000
0010
0000
0000
0010
0100
0000
0000
0000
0000
0000
0000
0000
,  // measure 38
0000
0000
2000
0000
0010
0000
3001
1000
0001
0000
0100
0000
0000
0000
0010
0000
1000
0001
0000
1000
0001
0000
0000
0000
0020
0000
0000
0000
0000
0000
0000
0000
,  // measure 39
0000
0000
0000
0000
0000
0000
0000
0000
0130
0000
0000
0100
0000
0000
0100
0000
0000
0100
0000
0000
0100
0000
0000
0000
1000
0000
0000
0000
0001
0000
0000
0000
,  // measure 40
0100
0000
0001
0000
0010
0000
0100
0000
1000
0000
0001
0100
0001
0000
0001
0000
,  // measure 41
0010
0000
0001
0000
0100
0000
0010
0000
1000
0001
0000
0000
0010
0000
0010
0000
,  // measure 42
0100
0000
1000
0000
0010
0000
0100
0000
0001
0000
1000
0100
1000
0000
1000
0000
,  // measure 43
0010
0000
1000
0000
0100
0000
0010
0000
0001
1000
0000
1000
0010
0000
0100
0000
,  // measure 44
0001
0000
1000
0000
0100
0000
0010
0000
0001
0000
1000
0100
1000
0000
1000
0000
,  // measure 45
0010
0000
1000
0000
0100
0000
0010
0000
0001
1000
0001
1000
0010
0000
0000
0000
,  // measure 46
0000
0110
0000
0000
0101
0000
0000
0000
0000
0110
0000
0000
1100
0000
0000
0000
,  // measure 47
0000
1001
0000
0000
0110
0000
0000
0000
0000
1001
0000
0000
1100
0000
0001
0000
,  // measure 48
0010
0000
0001
0000
1000
0010
0100
0001
1000
0100
0010
0100
2000
0000
0001
0000
,  // measure 49
0100
0020
0000
0000
0000
0000
3030
MMMM
,  // measure 50
0101
0000
1000
0000
0001
0010
0100
1000
0000
0010
1000
0000
0001
0100
0001
0010
,  // measure 51
0000
0001
1000
0000
0001
0100
0010
1000
0000
0100
1000
0000
0002
0100
0000
0000
,  // measure 52
0013
0000
0001
0000
1000
0010
0100
0001
0000
0010
0100
0000
1000
0001
0100
0001
,  // measure 53
0000
1000
0010
0000
1000
0100
0010
0001
0000
0100
0010
0000
0110
0000
1001
0000
,  // measure 54
MMMM
0000
0000
0000
0001
0010
0000
0100
0010
0001
0100
0000
0010
1000
0100
1000
,  // measure 55
0001
0010
0100
0000
1000
0010
0100
0010
0000
1000
0100
0000
0010
0000
0010
0000
,  // measure 56
0001
0100
0001
0100
0010
0000
1000
0001
1000
0001
0010
0000
0100
1000
0100
1000
,  // measure 57
0001
0000
0001
0100
0000
0100
0010
0000
0010
1000
0000
1000
0002
0000
0000
0000
,  // measure 58
0013
0000
0100
1000
0100
0000
0001
0100
0000
1000
0100
0000
0001
0100
0010
0001
,  // measure 59
1000
0000
0010
0100
0010
0000
0001
0000
0010
1000
0100
1000
0001
0000
0010
0001
,  // measure 60
0010
0000
1000
0010
0000
0001
0010
0000
1000
0010
0100
1000
0001
0000
1000
0010
,  // measure 61
0100
0000
0001
0010
0100
1000
0010
0000
1000
0100
0010
0100
0001
0000
1000
0010
,  // measure 62
0100
0010
0001
0000
1000
0010
0100
0010
0001
0000
1000
0100
0010
0100
0001
1000
,  // measure 63
0100
0000
0010
0000
0100
1000
0010
1000
0001
0010
0000
0000
0001
0100
0001
0010
,  // measure 64
0100
1000
0000
0000
0010
1000
0100
1000
0001
0000
0110
0000
1001
0000
0220
0000
,  // measure 65
0000
0000
0330
0000
;
