#VERSION:0.83;
#TITLE:ALiCE;
#SUBTITLE:;
#ARTIST:Seibin;
#TITLETRANSLIT:;
#SUBTITLETRANSLIT:;
#ARTISTTRANSLIT:;
#GENRE:;
#ORIGIN:;
#CREDIT:;
#BANNER:;
#BACKGROUND:;
#PREVIEWVID:;
#JACKET:;
#CDIMAGE:;
#DISCIMAGE:;
#LYRICSPATH:;
#CDTITLE:;
#MUSIC:song.ogg;
#OFFSET:-0.368000;
#SAMPLESTART:53.279999;
#SAMPLELENGTH:15.000000;
#SELECTABLE:YES;
#BPMS:0.000=145.000;
#STOPS:;
#DELAYS:;
#WARPS:;
#TIMESIGNATURES:0.000=4=4;
#TICKCOUNTS:0.000=4;
#COMBOS:0.000=1;
#SPEEDS:0.000=1.000=0.000=0;
#SCROLLS:0.000=1.000;
#FAKES:;
#LABELS:0.000=Song Start;
#BGCHANGES:;
#KEYSOUNDS:;
#ATTACKS:
;

//---------------dance-single - ----------------
#NOTEDATA:;
#CHARTNAME:;
#STEPSTYPE:dance-single;
#DESCRIPTION:;
#CHARTSTYLE:;
#DIFFICULTY:Hard;
#METER:13;
#RADARVALUES:0.505467,0.535757,0.307676,0.461514,0.280921,529.000000,483.000000,46.000000,69.000000,0.000000,0.000000,0.000000,0.000000,0.000000,0.505467,0.535757,0.307676,0.461514,0.280921,529.000000,483.000000,46.000000,69.000000,0.000000,0.000000,0.000000,0.000000,0.000000;
#CREDIT:nestleoverjoyed;
#NOTES:
// measure 0
0000
0000
0000
0000
,  // measure 1
0000
0000
0000
0000
,  // measure 2
0000
0000
0000
0000
,  // measure 3
0000
0000
0000
0000
0000
0000
0000
0000
0002
0000
0013
0000
0001
0100
0010
1000
,  // measure 4
0002
0000
0000
0000
0000
0000
1003
0001
0020
0000
0000
0000
0130
0000
0000
0000
,  // measure 5
0010
0000
0000
0001
0000
0000
0100
0000
0020
0000
0000
0000
1030
0000
0000
0000
,  // measure 6
2010
0000
0000
0000
0000
0000
3001
0000
1000
0100
1000
0100
1000
0000
1100
0000
,  // measure 7
0000
0110
0000
0011
0000
0001
1000
0000
,  // measure 8
0001
0000
0010
0000
0000
0000
0010
0000
0001
0000
0000
0100
0000
0000
1000
0000
,  // measure 9
0100
0000
0000
0010
0000
0000
1000
0000
0000
0000
0000
0000
0100
0000
0010
0000
,  // measure 10
0100
0000
0000
1000
0000
0000
0002
0000
0000
0000
0000
0000
0103
0000
0000
0000
,  // measure 11
0001
0000
0000
0010
0000
0000
0100
0000
0200
0000
0000
0000
2300
0000
0000
0000
,  // measure 12
3010
0000
0000
0000
0000
0000
1000
0000
0001
0000
0000
0010
0000
0000
0001
0000
,  // measure 13
0100
0000
0000
1000
0000
0000
0200
0000
0000
0000
0000
0000
0310
0000
0100
0000
,  // measure 14
0001
0000
0000
0010
0000
0000
1000
0000
0001
0000
0000
0000
0100
0000
0000
0000
,  // measure 15
0010
0000
0000
0001
0000
0000
0100
0000
0010
1000
0010
1000
0002
0000
0000
0000
,  // measure 16
0103
0000
0000
0000
0001
0000
0010
0000
0100
0000
0000
0010
0000
0000
0001
0000
,  // measure 17
1000
0000
0000
0010
0000
0000
0001
0000
0000
0000
0000
0000
0010
0000
0100
0000
,  // measure 18
0001
0000
0000
0010
0000
0000
0200
0000
0000
0000
0000
0000
0310
0000
0100
0000
,  // measure 19
1000
0000
0000
0001
0000
0000
0100
0000
0100
0000
0000
0000
0010
0000
0000
0000
,  // measure 20
1000
0000
0000
0000
0100
0000
0010
0000
0100
0000
0000
1000
0000
0000
1000
0000
,  // measure 21
0001
0000
0000
0100
0000
0000
1000
0000
0100
0000
0000
0000
0001
0000
0010
0100
,  // measure 22
0010
0000
0000
0001
0000
0000
0100
0000
0010
0000
0000
0000
1000
0000
0000
0000
,  // measure 23
0001
0000
0000
0010
0100
0000
0010
0000
0100
0000
0000
0000
0010
0000
0000
0000
,  // measure 24
0002
0000
0000
0000
0000
0000
0000
0000
1003
0000
0000
0001
0100
0000
0001
0000
,  // measure 25
1000
0000
0000
0100
0000
0000
0010
0000
0100
0000
0000
0000
1100
0000
1000
0000
,  // measure 26
0001
0000
0000
0100
0000
0000
0010
0000
0010
0000
0000
0000
1010
0000
1000
0000
,  // measure 27
0001
0000
0000
0010
0000
0000
0001
0000
0100
0000
0010
0000
0110
0000
0010
0000
,  // measure 28
1000
0000
0000
0000
0100
0000
1000
0100
1000
0000
0000
0001
0000
0000
0100
0000
,  // measure 29
0020
2030
3002
0023
,  // measure 30
0130
0000
0010
0000
0001
0000
1000
0000
0010
0000
0100
0000
0001
1000
0001
1000
,  // measure 31
0001
0000
0000
0010
0000
0000
0110
0000
2002
0000
3003
0000
0000
0000
0000
0000
,  // measure 32
0001
0000
0000
0010
0001
0000
0010
0000
0100
0000
0000
0000
1000
0000
0000
0000
,  // measure 33
0010
0000
0000
1000
0010
0000
1000
0000
0001
0000
0000
0000
0010
0000
0000
0000
,  // measure 34
0100
0000
0000
1000
0100
0000
1000
0000
0002
0000
0000
0000
0203
0000
0000
0000
,  // measure 35
0320
0000
0000
0000
0000
0000
0130
0000
0010
1000
0001
0100
0001
0000
0000
0000
,  // measure 36
0010
0000
0000
0100
0000
0000
1000
0000
1002
0000
0000
0000
0103
0000
0000
0000
,  // measure 37
0001
0000
0000
0100
0000
0000
0010
0000
0120
0000
0000
0000
1030
0000
0000
0000
,  // measure 38
2010
0000
0000
0000
0001
0000
3001
1000
0001
0000
0000
0000
1000
0000
0000
0000
,  // measure 39
0200
0000
0000
0000
0310
0000
0100
0000
1000
0100
0010
0001
1000
0000
0001
0000
,  // measure 40
0100
0000
0000
0001
0010
0000
0001
0000
0100
0000
0000
0000
0010
0000
0000
0000
,  // measure 41
1000
0000
0000
0001
0010
0000
0100
0000
0020
0000
0000
0000
0031
0000
0000
0000
,  // measure 42
0020
0230
2300
3010
,  // measure 43
1020
0000
0000
0000
0100
0000
0031
0010
1000
0000
0000
0000
0100
0010
0100
0010
,  // measure 44
0001
0000
0000
1000
0000
0000
0010
0000
0200
0000
0000
0000
0301
0000
0100
0010
,  // measure 45
0100
0000
0000
0010
0000
0000
1000
0000
0200
0000
0000
0000
0320
0000
0000
0000
,  // measure 46
0032
1000
0010
0103
,  // measure 47
0001
0010
0001
0010
0100
0000
0000
0000
0020
0000
0000
0000
0032
0000
0000
0000
,  // measure 48
2003
0000
0010
0000
0001
0000
3100
1000
,  // measure 49
1010
0000
0000
0101
0000
0000
0011
0000
1100
0000
0000
0000
1000
0000
0000
0000
,  // measure 50
0001
0000
0100
0001
0101
0000
0001
0000
,  // measure 51
1000
0000
0100
0010
0110
0000
0010
0000
,  // measure 52
0001
0000
1000
0010
1010
0000
1000
0000
,  // measure 53
0001
0000
0100
0010
0110
0000
0010
0000
,  // measure 54
1000
0000
0001
0010
0011
0000
0010
0000
,  // measure 55
0100
0000
1000
0001
0101
0000
0001
0000
,  // measure 56
0010
0000
0000
0000
0100
0000
0010
0000
0011
0000
0000
0001
0000
0000
1000
0000
,  // measure 57
0020
0000
0130
0010
,  // measure 58
2000
0000
0000
0000
0100
0000
0000
0000
3001
0000
0000
1000
0000
0000
0100
0000
,  // measure 59
0001
0000
0000
1000
0000
0000
0001
0000
0100
0000
1000
0000
0001
0000
0100
0000
,  // measure 60
0020
0000
0000
0000
1030
0000
0010
0000
1000
0000
0000
0010
0000
0000
0100
0000
,  // measure 61
0002
0000
0000
0010
0013
0000
0001
1000
,  // measure 62
2020
0030
3010
1000
2002
3000
1003
0001
,  // measure 63
0010
0000
0000
0100
0000
0000
1000
0000
0010
0000
0000
0000
1000
0000
0000
0000
,  // measure 64
0002
0000
0000
0013
0001
0100
0010
1000
,  // measure 65
1100
0000
0000
0110
0000
0000
0011
0000
2002
0000
3003
0000
0000
0000
0000
0000
,  // measure 66
0001
0000
0000
0010
0001
0000
0010
0000
0100
0000
0000
0000
1000
0000
0000
0000
,  // measure 67
0010
0000
0000
1000
0010
0000
1000
0000
0001
0000
0000
0000
0010
0000
0000
0000
,  // measure 68
0100
0000
0000
1000
0100
0000
1000
0000
0002
0000
0000
0000
0203
0000
0000
0000
,  // measure 69
0320
0000
0000
0000
0000
0000
0130
0000
0010
1000
0001
0100
0001
0000
0000
0000
,  // measure 70
0010
0000
0000
0100
0000
0000
1000
0000
1002
0000
0000
0000
0103
0000
0000
0000
,  // measure 71
0001
0000
0000
0100
0000
0000
0010
0000
0120
0000
0000
0000
1030
0000
0000
0000
,  // measure 72
2010
0000
0000
0000
0001
0000
3001
1000
0001
0000
0000
0000
1000
0000
0000
0000
,  // measure 73
0200
0000
0000
0000
0310
0000
0100
0000
1000
0100
0010
0001
1000
0000
0001
0000
,  // measure 74
0100
0000
0000
0001
0010
0000
0001
0000
0100
0000
0000
0000
0010
0000
0000
0000
,  // measure 75
1000
0000
0000
0001
0010
0000
0100
0000
0020
0000
0000
0000
0031
0000
0000
0000
,  // measure 76
0020
0230
2300
3010
,  // measure 77
1020
0000
0000
0000
0100
0000
0031
0010
1000
0000
0000
0000
0100
0010
0100
0010
,  // measure 78
0001
0000
0000
1000
0000
0000
0010
0000
0200
0000
0000
0000
0301
0000
0100
0010
,  // measure 79
0100
0000
0000
0010
0000
0000
1000
0000
0200
0000
0000
0000
0320
0000
0000
0000
,  // measure 80
0032
1000
0010
0103
,  // measure 81
0001
0010
0001
0010
0100
0000
0000
0000
0020
0000
0000
0000
0032
0000
0000
0000
,  // measure 82
2003
0000
0010
0000
0001
0000
3100
1000
,  // measure 83
1010
0000
0000
0101
0000
0000
0011
0000
1100
0000
0000
0000
1000
0000
0000
0000
,  // measure 84
0001
0000
0000
0100
0000
0000
1000
0000
1100
0000
0000
0000
0100
0000
0000
0000
,  // measure 85
0010
0000
0000
1000
0000
0000
0001
0000
1001
0000
0000
0000
0001
0000
0000
0000
,  // measure 86
0011
1010
0101
1100
,  // measure 87
1002
0000
0000
0103
0101
0000
0100
0000
,  // measure 88
0020
0000
0000
0000
,  // measure 89
0030
0000
0000
0000
;

//---------------dance-single - ----------------
#NOTEDATA:;
#CHARTNAME:;
#STEPSTYPE:dance-single;
#DESCRIPTION:;
#CHARTSTYLE:;
#DIFFICULTY:Easy;
#METER:6;
#RADARVALUES:0.241745,0.267879,0.086952,0.240790,0.000000,253.000000,240.000000,13.000000,36.000000,0.000000,0.000000,0.000000,0.000000,0.000000,0.241745,0.267879,0.086952,0.240790,0.000000,253.000000,240.000000,13.000000,36.000000,0.000000,0.000000,0.000000,0.000000,0.000000;
#CREDIT:nestleoverjoyed;
#NOTES:
0000
0000
0000
0000
,
0000
0000
0000
0000
,
0000
0000
0000
0000
,
0000
0000
0010
1000
,
0002
0010
2003
0000
,
3100
1000
0010
0100
,
0002
0000
0000
0000
0013
0000
0000
0001
,
0000
0001
0000
1000
0000
0000
1001
0000
,
1000
0000
0100
0000
,
0010
0000
0100
0000
,
1000
0000
0001
0000
,
0100
0000
0010
0000
,
0100
0000
0001
0000
,
0010
0000
0001
0000
,
1000
0000
0010
0000
,
0100
0000
0001
1000
,
0001
0001
0010
0000
,
0100
0100
0010
0000
,
0001
0001
1000
0000
,
0010
0010
1000
0000
,
0100
0100
1000
0001
,
0100
0100
0001
1000
,
0010
0010
1000
0100
,
0010
0001
1000
0001
,
0200
0000
0310
0100
,
0010
0100
0001
0000
,
0020
0000
0031
0010
,
0001
0010
0100
0000
,
2000
0000
3100
1000
,
0010
0100
0001
1000
,
0002
0000
0000
0010
,
0020
0000
0033
0000
,
0001
0100
0010
0000
,
1000
0100
0010
0000
,
0100
1000
0001
0100
,
0020
0000
0130
0000
,
0010
0010
1000
0000
,
0001
0001
0100
0010
,
2000
0000
3100
1000
,
0002
0000
0103
0000
,
0001
0010
0100
0000
,
0010
0001
1000
0000
,
0010
1000
0001
0100
,
0002
0000
0013
0000
,
0001
1000
0100
0000
,
0010
0100
1000
1000
,
0002
0000
0100
0000
,
0013
0001
0100
0010
,
2000
0000
3001
1000
,
0010
0000
0110
0000
,
0100
0000
0101
0000
,
0001
0000
1001
0000
,
1000
0000
1100
0000
,
0100
0000
0110
0000
,
0010
0000
0011
0000
,
0001
0000
0101
0000
,
0100
0000
0110
0000
,
2002
0000
3003
0000
,
2000
0000
0100
0100
,
0010
0010
3001
0000
,
0002
0000
0100
0100
,
0020
0030
1003
0000
,
0002
0000
0023
0000
,
0130
0010
0001
1000
,
0020
0000
0100
0130
,
0010
0000
0110
0000
,
0010
1000
0100
0000
,
0010
0001
0100
0000
,
0001
1000
0010
0100
,
0020
0000
1030
0000
,
0010
1000
0100
0000
,
0100
0010
0001
0001
,
2000
0000
3010
1000
,
0002
0000
0103
0000
,
0001
0010
0100
0020
,
0032
2003
3020
0230
,
0310
0010
0100
0001
,
2000
0000
3001
0000
,
1000
0100
0010
0000
,
0100
1000
0001
0001
,
0200
0000
0010
0000
,
0001
1000
0001
1000
,
0302
0000
0000
0000
,
1003
0000
1001
0000
,
0001
0010
0100
0000
,
0010
0100
1000
0000
,
0100
1000
0010
0100
,
0002
0000
1003
0000
,
2002
0000
0000
0000
,
3003
0000
0000
0000
;

//---------------dance-single - ----------------
#NOTEDATA:;
#CHARTNAME:;
#STEPSTYPE:dance-single;
#DESCRIPTION:;
#CHARTSTYLE:;
#DIFFICULTY:Medium;
#METER:10;
#RADARVALUES:0.404183,0.446464,0.173904,0.401316,0.160527,423.000000,397.000000,26.000000,60.000000,0.000000,0.000000,0.000000,0.000000,0.000000,0.404183,0.446464,0.173904,0.401316,0.160527,423.000000,397.000000,26.000000,60.000000,0.000000,0.000000,0.000000,0.000000,0.000000;
#CREDIT:nestleoverjoyed;
#NOTES:
0000
0000
0000
0000
,
0000
0000
0000
0000
,
0000
0000
0000
0000
,
0000
0000
0000
0000
0001
0010
0100
1000
,
0002
0000
0000
0103
0002
0000
1003
0000
,
0001
0000
0000
0010
0000
0000
0100
0000
0020
0000
0000
0000
0130
0000
0000
0000
,
0010
0000
0001
0000
1000
0010
1000
1010
,
0000
1010
0000
0101
0000
0001
1000
0000
,
0001
0000
0000
0000
0000
0000
0010
0000
0100
0000
0000
0100
0000
0000
0000
0000
,
0010
0000
0000
0001
0000
0000
1000
0000
0000
0000
0000
0000
0001
0000
0010
0000
,
0001
0000
0000
0100
0000
0000
0010
0000
0000
0000
0000
0000
1000
0000
0010
0000
,
1000
0000
0000
0100
0000
0000
0010
0000
0000
0000
0000
0000
0200
0000
0000
0000
,
1300
0000
0000
0000
0000
0000
0100
0000
0010
0000
0000
0100
0000
0000
0010
0000
,
0001
0000
0000
1000
0000
0000
0010
0000
0000
0000
0000
0000
1000
0000
0001
0000
,
1000
0000
0000
0001
0000
0000
0010
0000
0010
0000
0000
0000
0001
0000
0000
0000
,
0100
0000
0000
0010
0000
0000
1000
0000
0200
0000
0000
0000
0310
0000
0000
0000
,
0100
0000
0000
0000
1000
0000
0100
0000
1000
0000
0000
0010
0000
0000
0100
0000
,
0001
0000
0000
1000
0000
0000
0001
0000
0000
0000
0000
0000
0010
0000
0001
0000
,
0010
0000
0000
0100
0000
0000
1000
0000
0010
0000
0000
0000
1000
0000
0100
0000
,
1000
0000
0000
0010
0000
0000
0100
0000
0001
0000
0000
0000
1000
0000
0000
0000
,
0001
0000
0000
0000
0000
0000
0010
0000
0010
0000
0000
0001
0000
0000
0100
0000
,
0010
0000
0000
1000
0000
0000
0001
0000
1000
0000
0000
0000
0000
0000
0001
0000
,
0010
0000
0000
0001
0000
0000
0001
0000
0100
0000
0000
0000
0010
0000
0000
0000
,
1000
0000
0001
0001
0100
0010
1000
0000
,
0200
0000
0000
0000
0000
0000
0000
0000
0310
0000
0000
0100
0000
0000
1000
0000
,
0010
0000
0000
0010
0000
0000
0100
0000
0000
0000
0000
0000
0010
0000
1000
0000
,
0001
0000
0000
0010
0000
0000
0001
0000
0000
0000
0000
0000
0100
0000
0010
0000
,
1000
0000
0000
1000
0000
0000
0001
0000
0100
0000
0000
0000
0101
0000
0000
0000
,
1001
0000
0000
0000
1000
0000
0100
0000
0010
0000
0000
0100
0000
0000
1000
0000
,
2000
3002
0203
0320
,
2030
0000
0000
0000
0000
3001
1000
0100
,
0010
0000
0000
0001
0000
0000
1000
0000
1001
0000
0000
0000
0000
0000
0000
0000
,
0001
0000
0000
0100
0000
0000
0020
0000
0000
0000
0000
0000
1030
0000
0000
0000
,
0010
0000
0000
1000
0000
0000
0001
0000
0002
0000
0000
0000
0013
0000
0000
0000
,
0001
0000
0000
0010
0000
0000
0001
0000
0100
0000
0000
0000
0010
0000
0000
0000
,
2000
0000
0000
3001
1000
0100
0010
0001
,
0100
0000
0000
0010
0000
0000
0100
0000
0002
0000
0000
0000
1003
0000
0000
0000
,
0001
0000
0000
0010
0000
0000
0001
0000
0200
0000
0000
0000
0310
0000
0000
0000
,
0120
0000
1030
0010
0100
0000
0001
0000
,
2001
0000
3100
1000
0010
0000
0100
0000
,
0010
0000
0000
1000
0000
0000
0200
0000
0000
0000
0000
0000
0320
0000
0000
0000
,
0230
2300
3002
0203
,
0310
0110
0100
0101
,
2001
0000
0000
3001
1000
0000
0100
0000
,
1000
0000
0000
0100
0000
0000
0001
0000
0002
0000
0000
0000
0000
0000
0103
0000
,
0001
0000
0000
0100
0000
0000
0010
0000
0001
0000
0000
0000
1000
0000
0000
0000
,
0020
0000
0000
0000
,
0001
0100
1000
0100
,
0200
0000
0000
0000
0000
0000
0330
0100
,
0010
0000
0000
1000
0000
0000
0001
0000
1001
0000
0000
0000
0001
0000
0000
0000
,
0010
0000
0001
0100
0001
0000
0010
0000
,
0100
0000
1000
0010
1000
0000
0100
0000
,
0010
0000
0001
1000
0001
0000
0100
0000
,
0010
0000
1000
0001
1000
0000
0100
0000
,
0010
0000
0001
0100
0001
0000
0010
0000
,
0100
0000
1000
0010
1000
0000
0010
0000
,
0100
0000
0000
0000
0001
0000
1000
0000
0001
0000
0000
0010
0000
0000
0100
0000
,
2000
3200
0320
0032
1003
0000
0001
0000
,
0200
0000
0000
0000
0010
0000
0000
0000
1300
0000
0000
0100
0000
0000
0001
0000
,
1000
0000
0000
0100
0000
0000
0001
0000
0100
0000
0010
0000
0100
0000
0000
0000
,
0020
0000
0000
0000
0001
0000
0000
0000
1030
0000
0000
0010
0000
0000
0001
0000
,
2000
0000
0000
3010
1000
0000
0001
0000
,
0201
0000
0000
0310
0100
0000
0010
0000
,
1000
0000
0000
0001
0000
0000
0010
0000
0200
0000
0000
0000
0310
0000
0000
0000
,
0200
0000
0000
1300
0100
0010
0100
1000
,
0001
0000
0000
0100
0000
0000
0010
0000
0110
0000
0000
0000
0200
0000
0000
0000
,
0301
0000
0000
0100
0000
0000
0020
0000
0000
0000
0000
0000
1030
0000
0000
0000
,
0010
0000
0000
1000
0000
0000
0001
0000
0002
0000
0000
0000
0013
0000
0000
0000
,
0001
0000
0000
0010
0000
0000
0001
0000
0100
0000
0000
0000
0010
0000
0000
0000
,
2000
0000
0000
3001
1000
0100
0010
0001
,
0100
0000
0000
0010
0000
0000
0100
0000
0002
0000
0000
0000
1003
0000
0000
0000
,
0001
0000
0000
0010
0000
0000
0001
0000
0200
0000
0000
0000
0310
0000
0000
0000
,
0120
0000
1030
0010
0100
0000
0001
0000
,
2001
0000
3100
1000
0010
0000
0100
0000
,
0010
0000
0000
1000
0000
0000
0200
0000
0000
0000
0000
0000
0320
0000
0000
0000
,
0230
2300
3002
0203
,
0310
0110
0100
0101
,
2001
0000
0000
3001
1000
0000
0100
0000
,
1000
0000
0000
0100
0000
0000
0001
0000
0002
0000
0000
0000
0000
0000
0103
0000
,
0001
0000
0000
0100
0000
0000
0010
0000
0001
0000
0000
0000
1000
0000
0000
0000
,
0020
0000
0000
0000
,
0001
0100
1000
0100
,
0200
0000
0000
0000
0000
0000
0330
0100
,
0010
0000
0000
1000
0000
0000
0001
0000
1001
0000
0000
0000
0001
0000
0000
0000
,
0010
0000
0000
0100
0000
0000
2000
0000
3001
0000
0000
0000
1000
0000
0000
0000
,
0010
0000
0000
0100
0000
0000
0002
0000
1003
0000
0000
0000
0001
0000
0000
0000
,
0011
1010
1100
0101
,
1001
0000
0000
0001
1000
0000
0000
0000
,
2020
0000
0000
0000
,
3030
0000
0000
0000
;
