#VERSION:0.83;
#TITLE:AIN'T NOTHIN' LIKE A FUNKY BEAT;
#SUBTITLE:;
#ARTIST:長沼英樹;
#TITLETRANSLIT:;
#SUBTITLETRANSLIT:;
#ARTISTTRANSLIT:HIDEKI NAGANUMA;
#GENRE:;
#ORIGIN:;
#CREDIT:;
#BANNER:;
#BACKGROUND:;
#PREVIEWVID:;
#JACKET:;
#CDIMAGE:;
#DISCIMAGE:;
#LYRICSPATH:;
#CDTITLE:;
#MUSIC:AIN'T NOTHIN' LIKE A FUNKY BEAT.ogg;
#OFFSET:-1.146999;
#SAMPLESTART:14.647952;
#SAMPLELENGTH:12.000000;
#SELECTABLE:YES;
#BPMS:0.000=142.000;
#STOPS:27.500=1.690;
#DELAYS:;
#WARPS:;
#TIMESIGNATURES:0.000=4=4;
#TICKCOUNTS:0.000=4;
#COMBOS:0.000=1;
#SPEEDS:0.000=1.000=0.000=0;
#SCROLLS:0.000=1.000;
#FAKES:;
#LABELS:0.000=Song Start;
#BGCHANGES:;
#KEYSOUNDS:;
#ATTACKS:
;

//---------------dance-single - ----------------
#NOTEDATA:;
#CHARTNAME:;
#STEPSTYPE:dance-single;
#DESCRIPTION:;
#CHARTSTYLE:;
#DIFFICULTY:Hard;
#METER:13;
#RADARVALUES:0.627921,0.602742,0.741731,0.000000,0.531116,480.000000,399.000000,81.000000,0.000000,7.000000,0.000000,0.000000,0.000000,0.000000,0.627921,0.602742,0.741731,0.000000,0.531116,480.000000,399.000000,81.000000,0.000000,7.000000,0.000000,0.000000,0.000000,0.000000;
#CREDIT:flagdiscount;
#NOTES:
0000
0000
0000
0000
,
0000
0000
0000
0000
,
0000
0000
0000
0000
,
0000
0000
0000
0000
,
0001
0000
0000
0000
1000
0000
0000
0000
0001
0000
1000
0010
0000
0010
0100
0010
,
0000
0100
0010
0000
0100
0000
0001
0000
1000
0000
0100
0010
0000
0100
1000
0000
,
0010
0000
0000
0000
0100
0000
0000
0000
0001
0000
0100
0010
0000
1000
0100
0000
,
1001
0000
0000
0000
1010
0000
0000
0000
1001
0000
0000
1000
0003
0000
0001
0010
,
000M
0010
1000
0000
0010
0000
0100
0000
0110
0000
0000
0010
1000
0000
1000
0000
,
0001
0000
0000
0000
0010
0000
0000
0000
0001
0000
0000
0100
0000
0000
0001
0000
,
1000
0100
0010
0001
0000
0000
0000
0000
,
0101
0000
0000
0000
0011
0000
0000
0000
0101
0000
0000
0001
0003
0000
1000
0100
,
M000
0100
0001
0000
1000
0000
0100
0000
0110
0000
0000
0001
0010
0000
0010
0000
,
0100
0000
0000
0000
1000
0000
0000
0000
0010
0000
0000
0100
0000
0000
0010
0000
,
0100
0000
0001
0000
0010
0000
0100
1000
0010
0000
0100
0001
0000
1000
3010
0000
,
0101
0000
0000
0000
1010
0000
0000
0000
1100
0000
0000
0110
0000
0000
0001
0100
,
000M
0100
1000
0000
0001
0003
1000
0000
0010
0000
0000
0010
0100
0000
0100
0000
,
0110
0000
0000
0000
1010
0000
0000
0000
1100
0000
0000
0011
0000
0000
0101
0000
,
0010
0000
1000
0000
1001
0000
0000
0110
0000
0000
0000
0000
0000
0000
0000
0000
,
0000
0000
0010
1000
0010
0000
1000
0000
0001
0000
0100
0001
0000
0010
0100
0000
,
0000
0000
1000
0001
1000
0000
0001
0000
0010
0000
0001
0100
0000
0000
0000
0000
,
0000
0000
0001
0010
0001
0000
0100
0000
0001
0000
1000
0100
0000
1000
0010
0000
,
0000
0000
0100
0000
0010
0100
0010
1000
0001
0000
1000
3001
0010
0000
0010
0000
,
0000
0000
0001
1000
0001
0000
0100
0000
0001
0000
0010
0001
0000
0100
0010
0000
,
0000
0000
1000
0001
1000
0000
0100
0000
0010
0000
0100
0010
0000
0000
0000
0000
,
0000
0000
0100
1000
0100
0000
1000
0000
0010
0000
1000
0001
0000
0010
0001
0000
,
0000
0000
0100
0000
0001
0100
0001
1000
0001
0000
0000
0110
0000
0000
1000
0000
,
1100
0000
0000
0000
0011
0000
0000
0000
1100
0000
0000
0011
0000
0000
1000
0100
,
M000
0100
0001
0000
0100
0000
0001
0000
1001
0000
0000
1010
0000
0000
0000
0000
,
1001
0000
0000
0000
1010
0000
0000
0000
1100
0000
0000
1001
0000
0000
0101
0000
,
0010
0000
0100
0010
0000
0010
0100
0000
0001
0000
1000
0000
1001
0000
0000
0000
,
1010
0000
0000
0000
1100
0000
0000
0000
1001
0000
0000
0101
0000
0000
0001
0010
,
000M
0010
1000
0000
0001
0000
1000
0000
1100
0000
0000
1001
0000
0000
0000
0000
,
0101
0000
0000
0000
1001
0000
0000
0000
0011
0000
0000
0110
0000
0000
1100
0000
,
1000
0000
0001
0100
0000
0001
1000
0000
0100
0000
0100
0000
1001
0000
0000
0000
,
0001
0000
1000
0000
0001
0000
1000
0000
0001
0000
0100
0010
0000
0010
0100
0000
,
0000
0001
1000
0000
0001
0000
0010
0000
0100
0000
1000
0010
0000
0010
0100
0000
,
0001
0000
1000
0000
0001
0000
1000
0000
0001
0000
0010
0100
0000
0100
0010
0000
,
0000
0010
0001
0000
0100
0000
0010
0000
1000
0000
0100
0010
0000
0010
0100
0010
,
0100
0000
1000
0000
0010
0000
1000
0000
0001
0100
0000
0010
0000
0000
0100
0001
,
0000
1000
0100
0000
0010
0000
0100
0000
1000
0010
0000
1000
0001
0000
0001
0000
,
0000
0000
0000
0000
1000
0000
0010
0000
0110
0000
0000
1010
0000
0000
0000
0000
,
1000
0000
0100
0000
0110
0000
0000
0011
0000
0000
0001
0103
0000
0100
0010
1000
,
0100
0000
0000
0000
1010
0000
0000
0000
0110
0000
0000
0101
0000
0000
1000
0100
,
M000
0100
0001
0000
1000
0000
0001
0000
0011
0000
0000
1001
0000
0000
0000
0000
,
0001
0000
0010
0000
0001
0000
1000
0000
1010
0000
0000
1001
0000
0000
0000
0000
,
0001
0000
0100
0000
0101
0000
0000
1001
0000
0000
0000
0000
0000
0000
0000
0000
,
1010
0000
0000
0000
0110
0000
0000
0000
0101
0000
0000
0011
0000
0000
0001
0100
,
000M
0100
1000
0000
0100
0000
0010
0000
0110
0000
0000
1100
0000
0000
0000
0000
,
1001
0000
0000
0000
0000
0000
0001
0000
0010
0000
1000
0000
0000
0000
0010
0001
,
1000
0100
0010
0001
,
0000
0000
0000
0000
1000
0000
0001
0000
0100
0010
0000
0100
0000
0000
0001
0000
,
1000
0000
0001
0000
0100
0010
0000
0100
0000
0000
0000
0000
0000
0000
0000
0000
,
0000
0000
0000
0000
0010
0000
1000
0000
0010
0100
0000
0001
0000
0000
1000
0000
,
0100
0000
0010
0000
0100
0010
0000
0001
0010
0000
0000
0010
0000
0000
0010
0000
,
1001
0000
0000
0000
0100
0000
0001
0000
0011
0000
0000
1100
0000
0000
0000
0000
,
0100
0000
1000
0000
1010
0000
0000
0101
0000
0000
0000
0000
0110
0000
0000
0000
,
0000
0000
0000
0000
0001
0000
0010
0000
0110
0000
0000
0011
0000
0000
0000
0000
,
0010
0000
0100
0000
1100
0000
0000
0010
0001
0000
0000
0001
0000
0000
0001
0000
,
1000
0000
0000
0000
0001
0000
0100
0000
0110
0000
0000
0101
0000
0000
0000
0000
,
1000
0000
0100
0000
0110
0000
0000
1100
0000
0000
0001
0003
0001
0000
0000
0000
,
1000
0000
0000
0000
0110
0000
0000
0000
1010
0000
0000
0101
0000
0000
1001
0000
,
0000
0000
0001
0000
0010
0100
1000
0001
0100
0000
0103
0010
0000
0000
0000
0000
;

//---------------dance-single - ----------------
#NOTEDATA:;
#CHARTNAME:;
#STEPSTYPE:dance-single;
#DESCRIPTION:;
#CHARTSTYLE:;
#DIFFICULTY:Medium;
#METER:11;
#RADARVALUES:0.423846,0.487934,0.219772,0.000000,0.293030,324.000000,300.000000,24.000000,0.000000,0.000000,0.000000,0.000000,0.000000,0.000000,0.423846,0.487934,0.219772,0.000000,0.293030,324.000000,300.000000,24.000000,0.000000,0.000000,0.000000,0.000000,0.000000,0.000000;
#CREDIT:flagdiscount;
#NOTES:
// measure 0
0000
0000
0000
0000
,  // measure 1
0000
0000
0000
0000
,  // measure 2
0000
0000
0000
0000
,  // measure 3
0000
0000
0000
0000
,  // measure 4
1001
0000
0001
1000
0010
0000
0100
0000
,  // measure 5
0010
0000
1000
0001
0100
0000
0001
0000
,  // measure 6
1000
0000
0000
0000
0010
0000
0100
0000
0001
0000
0000
1000
0000
0000
0110
0000
,  // measure 7
0001
0000
0000
0000
0100
0000
0000
0000
0010
0000
0000
1000
0000
0000
0100
0010
,  // measure 8
0000
0100
0010
0000
0100
0000
1000
0000
0001
0000
0000
0001
0000
0000
0000
0000
,  // measure 9
1000
0000
0000
0000
0001
0000
0000
0000
0010
0000
0000
0001
0000
0000
0100
0000
,  // measure 10
0001
0010
0100
1000
0000
0000
0000
0000
,  // measure 11
0001
0000
0000
0000
1000
0000
0000
0000
0100
0000
0000
0010
0000
0000
0100
0010
,  // measure 12
0000
0100
0010
0000
0100
0000
1000
0000
0001
0000
0000
0100
0000
0000
0000
0000
,  // measure 13
0001
0000
0000
0000
1100
0000
0000
0000
0100
0000
0000
0010
0000
0000
0001
0000
,  // measure 14
0100
0000
0010
0000
1000
0000
0001
0010
0000
0000
0000
0000
0000
0000
0000
0000
,  // measure 15
1000
0000
0000
0000
0100
0000
0000
0000
1000
0000
0000
0010
0000
0000
0100
0001
,  // measure 16
0000
0100
0001
0000
0100
0000
0001
0000
0010
0000
0000
0100
0000
0000
0000
0000
,  // measure 17
0010
0000
0000
0000
0100
0000
0000
0000
1000
0000
0000
0100
0000
0000
1000
0000
,  // measure 18
0001
0000
0100
0000
0010
0000
0000
1001
0000
0000
0000
0000
0000
0000
0000
0000
,  // measure 19
0000
0000
1000
0000
0100
0000
0001
0000
0100
0000
0000
0010
0000
0000
0001
0000
,  // measure 20
0000
0000
0001
0000
0100
0000
1000
0000
0100
0000
0000
0010
0000
0000
0000
0000
,  // measure 21
0000
0000
1000
0000
0010
0000
0001
0000
0010
0000
0000
0100
0000
0000
0001
0000
,  // measure 22
0000
0000
1000
0000
0001
0000
0100
0000
0010
0000
1000
0001
0000
0000
0000
0000
,  // measure 23
0000
0000
0010
0000
0001
0000
0100
0000
0001
0000
0000
1000
0000
0000
0100
0000
,  // measure 24
0000
0000
0010
0000
0001
0000
1000
0000
0010
0000
0000
1000
0000
0000
0000
0000
,  // measure 25
0000
0000
0001
0000
1000
0000
0100
0000
0010
0000
0000
0100
0000
0000
1000
0000
,  // measure 26
0000
0000
0001
0000
0100
0000
0010
0000
1010
0000
0000
0101
0000
0000
1010
0000
,  // measure 27
0001
0000
0000
0000
0100
0000
0000
0000
0001
0000
0000
1000
0000
0000
0100
1000
,  // measure 28
0000
0100
1000
0000
0100
0000
1000
0000
0010
0000
0000
0100
0000
0000
0000
0000
,  // measure 29
0010
0000
0000
0000
0100
0000
0000
0000
0001
0000
0000
1000
0000
0000
0001
0000
,  // measure 30
0100
0000
0001
0010
0000
0010
0100
0000
1000
0000
0001
0000
0000
0000
0000
0000
,  // measure 31
0010
0000
0000
0000
0001
0000
0000
0000
0100
0000
0000
0001
0000
0000
1000
0001
,  // measure 32
0000
1000
0001
0000
1000
0000
0001
0000
0010
0000
0000
0100
0000
0000
0000
0000
,  // measure 33
0010
0000
0000
0000
0001
0000
0000
0000
1100
0000
0000
0011
0000
0000
1001
0000
,  // measure 34
0000
0000
0000
0000
,  // measure 35
1000
0001
0100
0001
,  // measure 36
0010
0001
1000
0100
,  // measure 37
0001
0100
1000
0010
,  // measure 38
0001
0010
0100
0001
,  // measure 39
1000
0000
0000
0000
0001
0000
0100
0000
0010
1000
0000
0010
0000
0000
0010
1000
,  // measure 40
0000
1000
0010
0000
0100
0000
0001
0000
1000
0010
0000
0100
0000
0000
0000
0000
,  // measure 41
0000
0000
0000
0000
0001
0000
0010
0000
0100
0000
0000
1100
0000
0000
0000
0000
,  // measure 42
1000
0000
0100
0000
0010
0000
0000
0011
0000
0000
0000
0000
0000
0000
0000
0000
,  // measure 43
0001
0000
0000
0000
1000
0000
0000
0000
0010
0000
0000
0100
0000
0000
0001
1000
,  // measure 44
0000
0001
1000
0000
0001
0000
0010
0000
0100
0000
0000
0010
0000
0000
0000
0000
,  // measure 45
0100
0000
0000
0000
0010
0000
0100
0000
1000
0000
0000
1100
0000
0000
0000
0000
,  // measure 46
0100
0000
0010
0000
0001
0000
0000
0011
0000
0000
0000
0000
0000
0000
0000
0000
,  // measure 47
0001
0000
0000
0000
1000
0000
0000
0000
0010
0000
0000
0100
0000
0000
0001
0100
,  // measure 48
0000
0100
0001
0000
1000
0000
0100
0000
0010
0000
0000
1001
0000
0000
0000
0000
,  // measure 49
0110
0000
0000
1000
0001
1000
0000
0000
,  // measure 50
0100
0100
0100
0100
,  // measure 51
1001
0000
1000
0100
0010
0000
0100
0000
,  // measure 52
1000
0000
0001
0010
0100
0000
0010
0000
,  // measure 53
0001
0000
1000
0001
0100
0000
0001
0000
,  // measure 54
1000
0000
0000
0000
0001
0000
1000
0000
0010
0000
0000
0010
0000
0000
0010
0000
,  // measure 55
0000
0000
0000
0000
0100
0000
0010
0000
1000
0000
0000
0101
0000
0000
0000
0000
,  // measure 56
0001
0000
0010
0000
0100
0000
0000
0011
0000
0000
0000
0000
0000
0000
0000
0000
,  // measure 57
0000
0000
0000
0000
0100
0000
1000
0000
0010
0000
0000
0110
0000
0000
0000
0000
,  // measure 58
0100
0000
0001
0000
1000
0000
0000
0101
0000
0000
0000
0000
0000
0000
0000
0000
,  // measure 59
0001
0000
0000
0000
1000
0000
0100
0000
0010
0000
0000
1100
0000
0000
0000
0000
,  // measure 60
0010
0000
0001
0000
0100
0000
0000
1010
0000
0000
0000
0000
0000
0000
0000
0000
,  // measure 61
0110
0001
0000
0000
,  // measure 62
0000
0000
1000
0000
0010
0000
0100
0000
0001
0000
0000
0010
0000
0000
0000
0000
;

//---------------dance-single - ----------------
#NOTEDATA:;
#CHARTNAME:;
#STEPSTYPE:dance-single;
#DESCRIPTION:;
#CHARTSTYLE:;
#DIFFICULTY:Easy;
#METER:7;
#RADARVALUES:0.242011,0.287020,0.027472,0.018314,0.000000,185.000000,182.000000,3.000000,2.000000,0.000000,0.000000,0.000000,0.000000,0.000000,0.242011,0.287020,0.027472,0.018314,0.000000,185.000000,182.000000,3.000000,2.000000,0.000000,0.000000,0.000000,0.000000,0.000000;
#CREDIT:flagdiscount;
#NOTES:
0000
0000
0000
0000
,
0000
0000
0000
0000
,
0000
0000
0000
0000
,
0000
0000
0000
0000
,
1000
0100
0010
0001
,
0010
0001
0010
0010
,
0001
0000
0010
0000
0100
0000
0000
0010
,
0100
0010
0001
1000
,
0010
1000
0100
0000
,
1000
0001
0010
0100
,
0010
0001
0010
0001
0000
0000
0000
0000
,
0010
0001
1000
0010
,
1000
0100
0010
0000
,
0100
1000
0001
0100
,
0010
0100
0001
0100
0010
0000
0000
0000
,
0100
0010
1000
0001
,
1000
0100
0010
0000
,
0100
1000
0010
0100
,
0001
0001
0001
0000
,
0000
1000
0001
0100
,
0000
0001
1000
0010
,
0000
1000
0100
0010
,
0000
0100
1000
0010
,
0000
0100
0001
1000
,
0000
0001
0010
0100
,
0000
0010
0001
0100
,
0000
0010
1000
0000
,
0001
1000
0100
0000
,
0010
0010
0001
0000
,
0100
0010
1000
1000
,
0001
0000
0000
0000
,
1000
0001
0010
0000
,
0100
0010
0010
0000
,
0100
1000
0010
0100
,
1001
0000
0000
0000
,
0001
0001
0001
0001
,
1000
1000
1000
1000
,
0010
0010
0010
0010
,
0100
0010
1000
0001
,
1000
0001
0010
0000
,
0100
0010
0100
0000
,
0000
0010
0001
0000
,
0100
0010
1000
0000
,
0001
1000
0100
0000
,
0010
0100
1000
0000
,
0100
1000
0010
0000
,
0100
0001
0010
0000
,
0100
0010
0001
1000
,
0010
0100
0001
0000
,
1000
0000
0001
0000
,
0100
0100
0100
0100
,
1001
0000
1000
0000
,
0001
0000
0010
0000
,
0001
0000
1000
0000
,
0100
0000
0020
0000
,
0130
0010
0001
0000
,
0010
0001
1000
0000
,
0000
0100
1000
0010
,
0100
0010
1000
0000
,
0000
0001
1000
0100
,
0010
0100
1000
0000
,
0000
0101
0000
0000
,
0000
0000
2000
0000
0000
0000
0000
0000
0000
0000
0000
3000
0000
0000
0000
0000
;
