#TITLE:Voices in the Sky;
#SUBTITLE:;
#ARTIST:Brymir;
#TITLETRANSLIT:;
#SUBTITLETRANSLIT:;
#ARTISTTRANSLIT:;
#GENRE:;
#CREDIT:z-axis;
#MUSIC:01 - Voices In the Sky.ogg;
#BANNER:;
#BACKGROUND:;
#CDTITLE:;
#SAMPLESTART:71.832;
#SAMPLELENGTH:19.089;
#SELECTABLE:YES;
#OFFSET:-0.745;
#BPMS:0.000=165.014;
#STOPS:;
#BGCHANGES:;
#FGCHANGES:;

//--------------- dance-single - ----------------
#NOTES:
     dance-single:
     :
     Challenge:
     14:
     0,0,0,0,0:
0000
0000
0000
0000
,
0000
0000
0000
0000
,
0000
0000
0000
0000
,
0000
0000
0000
0000
,
0000
0000
0000
0000
,
0000
0000
0000
0000
,
0000
0000
0000
0000
,
0000
0000
0000
0000
,
1000
0100
0010
0000
0001
0100
0001
0000
,
0100
0001
0010
0001
0100
0010
1000
0100
,
0010
0001
1000
0010
,
0100
0000
0001
0000
0010
0000
0001
0100
,
0010
1000
1000
0000
,
0001
0010
0100
1000
0010
0100
0001
0010
,
0001
0000
1000
0000
0100
0000
0010
0100
,
1000
0001
1000
0000
0100
0000
0010
0001
,
1000
0010
1000
0001
0100
0010
0100
0001
1000
0001
0100
0010
0100
0001
1000
0001
,
0100
0010
1000
0001
0100
0001
1000
0100
0010
0001
0010
0100
1000
0001
0100
0001
,
1000
0100
0010
0001
1000
0100
1000
0010
0100
0001
0100
0010
1000
0001
0100
0001
,
1000
0100
0010
0001
1000
0100
1000
0001
0100
0010
1000
0001
0100
0010
0100
0001
,
0010
0100
1000
0001
0010
0001
1000
0010
1000
0001
0100
0010
1000
0001
1000
0010
,
1000
0001
0100
0001
1000
0001
1000
0010
0100
0010
1000
0001
0100
0010
1000
0001
,
1000
0100
0010
0001
1000
0010
0100
0001
1000
0100
0010
0001
0010
0100
1000
0010
,
0100
0001
1000
0100
0010
0001
0100
0001
1000
0100
1000
0010
0100
0001
0010
0100
,
1000
0010
1000
0001
0100
0010
0100
0001
1000
0001
0100
0010
0100
0001
1000
0001
,
0100
0010
1000
0001
0100
0001
1000
0100
0010
0001
0010
0100
1000
0001
0100
0001
,
1000
0100
0010
0001
1000
0100
1000
0010
0100
0001
0100
0010
1000
0001
0100
0001
,
1000
0100
0010
0001
1000
0100
1000
0001
0100
0010
1000
0001
0100
0010
1000
0001
,
0010
0100
1000
0001
0100
0001
1000
0100
1000
0001
0100
0001
1000
0001
0100
0010
,
1000
0001
0010
0001
1000
0010
1000
0001
0100
0010
1000
0001
1000
0010
0100
0001
,
1000
0100
0010
0001
1000
0010
0100
0001
1000
0010
0100
0001
1000
0100
1000
0010
,
0100
0001
1000
0100
0010
0001
0100
0001
1000
0100
1000
0010
0100
0001
1000
0001
,
0010
0001
0010
0100
0000
0010
0100
0000
1000
0010
0000
0100
0000
0010
1000
0000
,
0001
0000
0010
0100
0000
0010
0001
0000
0100
0010
0000
1000
0000
0001
0010
0000
,
0001
0000
1000
0100
0000
1000
0010
0000
0100
0001
0000
0100
0000
0010
1000
0000
,
0001
0000
0010
0100
0000
0010
0001
0000
1000
0100
0000
0010
0000
0100
1000
0000
,
0001
0000
0100
0010
0000
0100
0001
0000
1000
0100
0000
0010
0000
0001
1000
0000
,
0001
0000
0100
0010
0000
0100
0001
0000
1000
0010
0000
1000
0000
0001
1000
0000
,
0100
1000
0100
1000
0010
1000
0010
1000
0001
0100
0001
0100
0010
0100
0010
0100
,
0001
1000
0001
1000
0100
0010
0100
0010
0001
0010
0001
1000
0100
0010
0001
0100
,
0010
1000
0010
0100
0000
0010
0100
0000
0001
0010
0000
0100
0000
0010
0001
0000
,
1000
0000
0010
0100
0000
0010
1000
0000
0100
0010
0000
0001
0000
1000
0010
0000
,
1000
0000
0001
0100
0000
0001
0010
0000
0100
1000
0000
0100
0000
0010
0001
0000
,
1000
0000
0010
0100
0000
0010
1000
0000
0001
0100
0000
0010
0000
0100
0001
0000
,
1000
0000
0100
0010
0000
0100
1000
0000
0001
0100
0000
0010
0000
1000
0001
0000
,
1000
0000
0100
0010
0000
0100
1000
0000
0001
0010
0000
0001
0000
1000
0001
0000
,
0100
0001
0100
0001
0010
0001
0010
0001
1000
0100
1000
0100
0010
0100
1000
0001
,
0100
0010
1000
0001
0010
0100
1000
0100
0010
0001
1000
0010
0100
0001
0100
0010
,
1000
0100
0010
0001
1000
0100
1000
0001
0100
0001
1000
0100
0010
0100
1000
0001
,
0100
0010
0100
0001
1000
0010
0100
0001
0100
0010
1000
0001
0100
0001
0010
0001
,
1000
0100
0010
0001
0010
0100
1000
0001
0010
0001
1000
0100
1000
0001
0010
0100
,
1000
0010
0100
0010
1000
0001
0100
0010
1000
0001
1000
0010
0100
0001
1000
0100
,
0010
0001
0010
0100
1000
0100
0010
0100
1000
0001
0100
0001
1000
0100
1000
0010
,
0100
0001
0100
0010
1000
0001
1000
0100
0010
0001
1000
0001
0100
0010
1000
0100
,
0010
0001
0010
0100
0010
0001
1000
0100
1000
0001
1000
0010
0100
0001
0100
0010
,
1000
0001
1000
0100
0010
0001
1000
0100
0010
0001
1000
0001
0100
0001
1000
0010
,
0100
0001
0100
0010
1000
0001
0100
0001
1000
0010
0100
0010
1000
0001
1000
0100
,
0010
0001
0010
0100
1000
0010
1000
0001
0100
0010
0100
0001
1000
0100
0010
0100
,
1000
0100
0010
0001
1000
0010
0100
0001
1000
0001
0010
0001
1000
0100
1000
0001
,
1000
0010
0100
0001
0010
0001
1000
0001
0100
0010
0100
0010
1000
0001
1000
0001
,
0010
0100
1000
0100
0010
0100
1000
0001
0010
0001
0100
0010
1000
0100
0010
0001
,
0010
0000
0100
1000
0001
0100
0010
0100
0001
1000
0100
0010
0001
1000
0001
0010
,
0200
0000
0000
1300
0100
1000
0010
0000
2000
0000
0000
3001
1000
0000
0100
0010
,
0002
0000
0103
0010
0000
0100
0001
0000
2000
0000
0000
3001
1000
0000
0001
0100
,
0010
1000
0000
0001
0000
1000
0001
0000
1000
0100
0000
0010
0000
0100
1000
0000
,
0020
0000
0000
0130
0001
0000
1000
0000
0100
0000
0010
0001
0000
0010
0100
0000
,
1000
0000
0001
1000
0000
0001
0100
0000
0020
0000
0000
1030
0001
0000
0010
0100
,
1000
0000
0001
0100
0000
0010
1000
0000
0002
0000
0000
0023
0000
0000
0230
0000
,
1300
0000
0100
0010
0000
0100
1000
0000
0001
0100
0000
0010
0000
0100
0001
0000
,
1000
0000
0001
0100
0000
0001
0010
0000
0001
0010
0001
1000
0001
0000
0100
0010
,
1000
0000
0010
0100
0000
0010
1000
0000
0001
0100
0001
1000
0010
0100
0001
1000
,
0100
0010
0100
1000
0001
0010
0100
0010
0001
1000
0010
0100
0001
1000
0001
0100
,
0010
1000
0001
1000
0000
0001
1000
0000
0100
1000
0000
0001
0000
1000
0100
0000
,
0010
0000
0001
1000
0000
0001
1000
0000
0100
0000
0010
0100
0000
0010
0100
0000
,
2000
0000
0001
0000
,
3010
0000
0100
0010
0000
0100
0010
0000
1000
0000
0001
0010
0000
0100
1000
0000
,
0001
0000
0000
0000
0000
0000
0000
0000
0001
0100
0000
0010
0000
0100
0001
0000
,
1000
0000
0100
0010
0000
0100
1000
0000
0010
0100
0000
0001
0000
1000
0100
0000
,
1000
0000
0001
0010
0000
0001
0100
0000
0010
1000
0000
0010
0000
0100
0001
0000
,
1000
0000
0100
0010
0000
0100
1000
0000
0001
0010
0000
0100
0000
0010
0001
0000
,
1000
0000
0010
0100
0000
0010
1000
0000
0001
0010
0000
0100
0000
1000
0001
0000
,
1000
0000
0010
0100
0000
0010
1000
0000
0001
0100
0000
0001
0000
1000
0001
0000
,
0010
0001
0010
0001
0100
0001
0100
0001
1000
0010
1000
0010
0100
0010
0100
0010
,
1000
0001
1000
0001
0010
0100
0010
0100
1000
0100
1000
0001
0010
0100
1000
0010
,
0100
0001
0100
0010
0000
0100
0010
0000
1000
0100
0000
0010
0000
0100
1000
0000
,
0001
0000
0100
0010
0000
0100
0001
0000
0010
0100
0000
1000
0000
0001
0100
0000
,
0001
0000
1000
0010
0000
1000
0100
0000
0010
0001
0000
0010
0000
0100
1000
0000
,
0001
0000
0100
0010
0000
0100
0001
0000
1000
0010
0000
0100
0000
0010
1000
0000
,
0001
0000
0010
0100
0000
0010
0001
0000
1000
0010
0000
0100
0000
0001
1000
0000
,
0001
0000
0010
0100
0000
0010
0001
0000
1000
0100
0000
1000
0000
0001
1000
0000
,
0010
1000
0010
1000
0100
1000
0100
1000
0001
0010
0001
0010
0100
0010
0001
1000
,
0010
0100
0001
1000
0100
0010
0001
0010
0100
1000
0001
0100
0010
1000
0010
0100
,
0001
0010
0100
1000
0001
0010
0001
1000
0010
1000
0001
0010
0100
0010
0001
1000
,
0010
0100
0010
1000
0001
0100
0010
1000
0010
0100
0001
1000
0010
1000
0100
1000
,
0001
0010
0100
1000
0100
0010
0001
1000
0100
1000
0001
0010
0001
1000
0100
0010
,
0001
0100
0010
0100
0001
1000
0010
0100
0001
1000
0001
0100
0010
1000
0001
0010
,
0100
1000
0100
0010
0001
0010
0100
0010
0001
1000
0010
1000
0001
0010
0001
0100
,
0010
1000
0010
0100
0001
1000
0001
0010
0100
1000
0001
1000
0010
0100
0001
0010
,
0100
1000
0100
0010
0100
1000
0001
0010
0001
1000
0001
0100
0010
1000
0010
0100
,
0001
1000
0001
0010
0100
1000
0001
0010
0100
1000
0001
1000
0010
1000
0001
0100
,
0010
1000
0010
0100
0001
1000
0010
1000
0001
0100
0010
0100
0001
1000
0001
0010
,
0100
1000
0100
0010
0001
0100
0001
1000
0010
0100
0010
1000
0001
0010
0100
0010
,
0001
0010
0100
1000
0001
0100
0010
1000
0001
1000
0100
1000
0001
0010
0001
1000
,
0001
0100
0010
1000
0100
1000
0001
1000
0010
0100
0010
0100
0001
1000
0001
1000
,
0100
0010
0001
0010
0100
0010
0001
1000
0100
1000
0010
0100
0001
0010
0100
1000
,
0100
0000
0010
0001
1000
0010
0100
0010
1000
0001
0010
0100
1000
0100
0010
0001
,
2000
0000
0000
0000
,
0000
0000
3000
0000
,
0000
0000
0000
0000
,
0000
0000
0000
0000
,
0000
0000
0000
0000
,
0000
0000
0000
0000
,
0000
0000
0000
0000
,
0000
0000
0000
0000
,
0101
0010
0100
0000
1010
0001
1000
0000
,
0101
1000
0010
1100
0001
0100
0100
1000
,
0010
0100
0011
1000
,
0100
0000
0100
0000
1010
0000
0001
0100
,
0010
0000
0000
0000
0000
0000
1000
0000
0000
0000
0000
0000
1000
0000
0000
0000
0000
0000
0001
0000
0000
1000
0001
1000
,
0001
1010
0100
1000
0011
1000
0100
1010
,
0001
0000
1000
0000
0011
0000
0100
0010
,
1000
0000
0000
0100
0000
0000
1000
0000
0000
0000
0000
0000
0100
0000
0000
0000
1000
0100
1000
0000
0000
0010
0000
0000
,
0100
0001
1000
0000
1010
0100
1000
0000
,
0001
1010
0100
1000
0011
1000
0001
0100
,
0010
0000
1000
0000
0101
0000
0010
0001
,
0100
0000
0010
0000
1100
0000
0001
0001
,
0010
0100
1000
0000
0001
0100
0010
0000
,
1000
0001
0001
0010
0001
0001
0100
0010
,
1000
0000
0001
0100
0010
0000
1000
0100
,
1000
0000
0000
0010
0000
0000
1000
0000
0100
0000
0010
0000
0001
0000
0010
0000
0100
0000
1000
0000
0010
0000
0100
0000
,
0001
0100
0001
0100
0010
0100
0001
0100
,
0001
0100
0001
0100
0010
1000
0010
0100
,
0001
0010
0001
0010
0100
1000
0100
1000
,
0010
1000
0010
1000
0001
0100
0001
0100
,
0010
0100
0010
0100
0001
0100
0001
0100
,
0010
1000
0100
1000
0001
0010
0001
0010
,
0100
1000
0100
1000
0010
0100
0010
1000
,
1000
0000
0001
0100
0001
1000
0100
1000
0001
1000
0010
0100
0001
1000
0001
0100
,
0010
0100
0010
0100
0011
0100
0010
0100
,
0010
0100
0010
0100
0011
1000
0001
1000
,
0001
0100
0001
0100
0011
1000
0100
1000
,
0001
0010
0001
0010
0101
1000
0100
1000
,
0010
1000
0010
1000
0011
1000
0010
1000
,
0010
1000
0010
1000
0101
0010
0001
0010
,
0100
1000
0100
1000
0101
1000
0100
1000
,
0010
1100
0010
0100
0011
0000
1000
1000
,
0100
0010
0100
0010
0101
0010
0100
0010
,
0100
0010
0100
0010
0101
1000
0001
1000
,
0001
0010
0001
0010
0101
1000
0010
1000
,
0001
0100
0001
0100
0011
1000
0010
1000
,
0100
1000
0100
1000
0101
1000
0100
1000
,
0100
1000
0100
1000
0011
0100
0001
0100
,
0010
1000
0010
1000
0011
1000
0010
1000
,
0001
0000
0000
0000
0000
0000
0000
0000
0000
0000
0000
0000
0010
0000
0000
0000
0000
0000
0100
0000
0000
0000
0000
0000
1000
0000
0000
0000
0000
0000
0001
0000
0000
1000
0000
0000
0001
0000
0000
0000
0000
0000
0000
0000
0000
0000
0000
0000
1000
0000
0000
0000
0000
0000
0100
0000
0000
0000
0000
0000
1000
0000
0000
0000
0001
0000
0000
0000
1000
0000
0000
0000
0001
0000
0000
0000
0000
0000
0000
0000
0000
0000
0000
0000
1000
0000
0000
0000
0000
0000
0000
0000
0000
0000
0000
0000
,
0001
0000
0000
0001
0000
1000
0001
0000
0020
0000
0000
0000
0000
0000
0130
1000
,
0001
0000
0000
0001
0000
1000
0100
0000
0020
0000
0000
0000
0000
0000
0000
0000
,
0031
1000
0100
1000
0001
0100
0010
1000
0001
0010
0100
1000
0100
0010
0100
1000
,
0001
0100
0010
1000
0010
0100
0001
1000
0001
0010
0100
1000
0001
0010
0100
0010
,
0001
0000
1000
0100
1000
0100
0020
0000
0000
0000
0032
0000
0000
0000
0000
0000
,
1003
0000
0000
1000
0000
0000
0200
0000
0000
0000
0000
0000
0000
0000
0000
0000
,
0310
0001
1000
0100
1000
0010
1000
0001
0100
0010
1000
0001
1000
0100
0010
0100
,
1000
0001
0100
0010
0100
0001
0100
0010
1000
0100
0010
0001
1000
0001
0010
0100
,
2000
0000
0000
0000
0000
0000
0000
3010
,
0200
0000
0000
0302
,
2003
0000
0000
0000
0000
0000
0000
0000
3100
0000
0010
0001
1000
0100
0010
0100
,
1000
0001
0100
0010
0100
0001
1000
0001
0010
0100
1000
0001
0100
0010
1000
0001
,
2000
0000
0000
0000
3001
0010
0100
0010
0001
1000
0001
0100
0010
0100
0001
1000
,
0100
1000
0001
1000
0010
0100
0001
0100
0010
1000
0100
0010
0100
1000
0100
0010
,
0002
0000
0000
0000
1003
0100
0010
0001
1000
0100
1000
0001
0010
0100
0010
0001
,
1000
0010
0100
0001
0100
0010
1000
0001
0020
0000
0000
0000
0000
0000
0130
0000
,
1000
0010
0200
0000
0000
0000
0000
0000
0000
0000
0000
0000
0000
0000
0300
0000
,
0010
0100
0010
1000
0001
0100
0010
1000
0010
0100
0001
1000
0010
1000
0100
1000
,
0001
0010
0100
1000
0100
0010
0001
1000
0100
1000
0001
1000
0010
1000
0100
0010
,
0001
0100
0010
0100
0001
1000
0010
0100
0001
1000
0001
0100
0010
1000
0001
0010
,
0100
1000
0100
0010
0001
0010
0100
0010
0001
1000
0100
1000
0001
0010
0001
0100
,
0010
1000
0010
0100
0001
1000
0001
0010
0100
1000
0001
1000
0010
0100
0001
0010
,
0100
1000
0100
0010
0100
1000
0001
0010
0001
1000
0001
0100
0010
1000
0010
0100
,
0001
1000
0001
0010
0100
1000
0100
0010
0100
1000
0001
1000
0010
1000
0001
0100
,
0010
1000
0010
0100
0001
1000
0010
1000
0001
0100
0010
0100
0001
1000
0001
0010
,
0100
1000
0100
0010
0001
0100
0001
1000
0010
0100
0010
1000
0001
0010
0100
0010
,
0001
0010
0100
1000
0001
0100
0010
1000
0001
1000
0100
1000
0001
0010
0001
1000
,
0001
0100
0010
1000
0100
1000
0001
1000
0010
0100
0010
0100
0001
1000
0001
1000
,
0100
0010
0001
0010
0100
0010
0001
1000
0001
1000
0010
0100
0001
0010
0100
1000
,
0100
0010
0001
1000
0010
0100
0010
1000
0001
0010
0100
1000
0100
0010
0001
0010
,
0100
0000
1000
0100
0000
1000
0010
0000
0100
0001
0000
0010
0000
0001
1000
0000
,
0010
0000
0100
0010
0000
0100
0010
0000
1000
0100
0000
0010
0000
0001
1000
0000
,
2002
0000
0000
0000
,
0000
0000
0000
0000
,
3003
0000
0000
0000
;
