#TITLE:Thunder;
#SUBTITLE:;
#ARTIST:Riiho and Radiance;
#TITLETRANSLIT:;
#SUBTITLETRANSLIT:;
#ARTISTTRANSLIT:;
#GENRE:;
#CREDIT:z-axis;
#MUSIC:Thunder.mp3;
#BANNER:;
#BACKGROUND:;
#CDTITLE:;
#SAMPLESTART:47.000;
#SAMPLELENGTH:25.600;
#SELECTABLE:YES;
#OFFSET:-0.276;
#BPMS:0.000=150.000;
#STOPS:;
#BGCHANGES:;
#FGCHANGES:;

//--------------- dance-single - ----------------
#NOTES:
     dance-single:
     :
     Challenge:
     12:
     0,0,0,0,0:
0000
0000
0000
0000
,
0000
0000
0000
0000
,
0000
0000
0000
0000
,
0000
0000
0000
0000
,
0000
0000
0000
0000
,
2200
0000
0010
0000
,
0001
0000
0010
0000
,
0001
0000
0000
3020
1000
0000
0302
0000
,
1000
0000
0000
0000
0100
0000
0000
0033
,
0202
0000
1000
0023
,
1000
0000
0000
0000
1000
0000
0000
0330
,
0022
0000
0000
2003
0001
0000
0230
0000
,
3301
0000
0000
0000
0000
1000
0000
0000
0200
0000
0000
0000
0000
0000
0300
0000
,
1001
0000
0000
0000
0001
0000
0010
0100
1000
0000
0001
0000
0100
0000
0000
0000
,
0010
0000
0000
0000
1000
0000
0100
0010
0001
0000
0100
0000
0010
0000
1000
0001
,
0100
0000
0001
0000
0010
0000
0100
1000
0100
0000
0010
0000
0001
0000
1000
0000
,
0010
0000
0100
0000
0001
0000
0100
0010
1000
0000
0100
0000
0010
0000
0001
0000
,
1000
0001
0100
0010
1000
0001
0010
0100
1000
0001
0100
0010
1000
0001
0010
0001
,
1000
0100
0010
0001
0100
0010
1000
0001
0010
0100
0010
0001
1000
0010
0100
0004
,
4000
0000
0000
0000
,
0000
0000
3003
0000
,
1000
0100
0010
0001
1000
0001
0010
0100
1000
0100
0010
0001
1000
0001
0010
0100
,
1000
0100
0010
0001
1000
0001
0010
0100
1000
0001
1000
0100
0000
0000
0000
0000
,
1000
0100
0010
0001
1000
0001
0100
0010
1000
0001
1000
0010
0100
0001
0010
0100
,
1000
0001
0010
0100
1000
0001
0010
0100
1000
0001
0010
0100
0000
0000
0000
0000
,
1000
0010
0100
0001
1000
0010
0100
0001
0010
0100
1000
0001
0010
0100
1000
0010
,
0100
0001
0100
0001
0100
0001
0100
0001
0100
0001
0100
0001
0000
0000
0000
0000
,
0010
0001
1000
0100
0010
0001
1000
0010
0100
0001
1000
0010
0100
0001
0010
0100
,
1010
0000
0101
0000
1010
0000
0000
1010
0000
0000
0101
0000
1000
0001
0010
0100
,
1000
0010
1000
0010
0100
0001
1000
0010
0100
0001
1000
0001
0100
0010
1000
0010
,
0100
0001
1000
0001
0100
0010
1000
0010
0100
0001
1000
0010
0000
0000
0000
0000
,
0100
0001
0100
0001
0100
0001
0010
0100
1000
0001
1000
0100
0010
0100
1000
0001
,
0010
0100
1000
0001
0010
0100
1000
0001
0010
0100
1000
0001
0000
0000
0000
0000
,
1000
0010
0100
0001
0100
0010
1000
0001
0010
0100
1000
0001
0010
0100
1000
0010
,
0100
0001
0100
0001
0100
0001
0100
0001
0100
0001
0100
0001
0000
0000
0000
0000
,
1100
0011
1100
0101
1010
0101
1100
0011
,
1100
0000
0000
0011
0000
0000
1100
0000
0101
0000
0000
1010
0000
0000
0101
0000
,
1010
0101
1010
0101
,
1100
0000
0000
0000
0011
0000
0000
0000
1100
0000
0000
0000
0011
1100
0011
1100
,
0011
0000
1100
0000
0101
0000
1010
0101
,
1010
0000
0000
0000
0101
0000
0000
0000
1100
0011
1100
0011
1100
0000
0000
0000
,
0011
1100
0101
1010
,
0101
0000
0000
0000
1100
0000
0000
0000
0011
0000
0000
0000
1100
0011
1100
0011
,
1100
0000
0011
0000
1100
0000
0101
1010
,
0001
1000
0001
1000
0001
0100
0100
0100
1000
0100
0010
0001
1000
0000
0000
0000
,
0001
0010
0001
0010
0001
0010
0001
0010
0001
0010
0001
0010
0001
0010
0001
0010
,
0001
0010
0001
0010
0001
0010
0001
0010
0001
0010
0001
0010
0101
1010
0101
1010
,
0101
1000
0100
1000
0100
1000
0010
1000
0010
1000
0010
1000
0011
0100
0011
0100
,
0011
0100
0001
0100
0001
0100
0001
0100
0011
1100
0011
1100
0011
0000
0000
0000
,
1000
0100
1000
0100
1000
0100
1000
0100
1000
0100
1000
0100
0010
0100
0010
0100
,
1010
0101
1010
0101
0010
M10M
0010
0100
1010
0101
1010
0101
0000
0000
0000
0000
,
1010
0000
0000
0101
0000
0000
1100
0000
0000
0011
0000
0000
1100
0000
0000
0001
,
0100
0100
0100
0100
0100
0100
0100
0100
0100
0100
0100
0100
0000
0000
0000
0000
,
0001
0010
0100
1000
0001
1000
0100
0010
0001
0010
0100
1000
0001
1000
0100
0010
,
0001
0010
0100
1000
0001
1000
0100
0010
0001
1000
0001
0100
0000
0000
0000
0000
,
0001
0010
0100
1000
0001
1000
0010
0100
0001
1000
0001
0100
0010
1000
0100
0010
,
0001
1000
0100
0010
0001
1000
0100
0010
0001
1000
0100
0010
0000
0000
0000
0000
,
0001
0100
0010
1000
0001
0100
0010
1000
0100
0010
0001
1000
0100
0010
0001
1000
,
0100
0010
0001
0010
0001
0010
0001
0010
0001
0010
0001
0010
0000
0000
0000
0000
,
0100
1000
0001
0010
0100
1000
0001
0100
0010
1000
0001
0100
0010
1000
0100
0010
,
0101
0010
0101
0010
0101
0010
0100
1010
0100
0010
0101
1000
0010
0000
0000
0000
,
1001
0000
0000
0000
,
0000
0000
0000
0000
,
0000
0000
0000
0000
,
00M0
0000
0000
0000
;
