#TITLE:Sunrise Shine;
#SUBTITLE:;
#ARTIST:A-zu-ra, DDRKirby(ISQ);
#TITLETRANSLIT:;
#SUBTITLETRANSLIT:;
#ARTISTTRANSLIT:;
#GENRE:;
#CREDIT:;
#MUSIC:Sunrise Shine.mp3;
#BANNER:;
#BACKGROUND:;
#CDTITLE:;
#SAMPLESTART:341.387;
#SAMPLELENGTH:28.444;
#SELECTABLE:YES;
#OFFSET:-0.054;
#BPMS:0.000=135.000;
#STOPS:;
#BGCHANGES:;
#FGCHANGES:;

//--------------- dance-single - ----------------
#NOTES:
     dance-single:
     :
     Hard:
     10:
     0,0,0,0,0:
0000
0000
0000
0000
,
0000
0000
0000
0000
,
0000
0000
0000
0000
,
0000
0000
0000
0000
,
0000
0000
0000
0000
,
0000
0000
0000
0000
,
0000
0000
0000
0000
,
0000
0000
0000
0000
0000
0000
0000
0000
0001
0000
1000
0000
0010
0100
0010
0100
,
0001
1000
0010
0100
0001
0010
0100
1000
,
1100
1000
0000
1001
0000
1000
0001
1000
,
0010
0000
0000
0000
0100
0001
1000
0000
0000
0000
0200
0000
0000
0000
0000
0000
,
0310
0001
0000
0101
0000
1020
0000
0000
,
1030
0000
0001
0010
0000
0100
1000
0010
,
1000
0001
0100
0010
0000
0100
0000
0101
,
0000
0000
1000
0000
0100
0000
0010
0100
0000
0000
0000
0000
0010
0000
0000
0000
,
0001
0000
0010
0100
1000
0000
0001
0000
,
1001
0000
1000
0010
0100
0001
1000
0001
,
0010
0000
0001
0000
0000
0000
0011
0000
0000
0000
1000
0000
0010
1000
0010
0000
,
0100
0000
0000
0000
0001
0000
1000
0001
0000
0000
0010
0000
0100
0000
0010
0000
,
0001
0010
0100
1100
0000
0001
1000
0000
,
1010
0000
1000
0010
0000
0100
0001
0010
,
0100
0010
0001
0011
0000
0010
0001
1001
,
0000
0000
0001
0000
1000
0000
0100
0010
0000
0000
0100
0000
0010
0000
0000
0000
,
0001
0000
0000
0000
0001
0000
1000
0000
0000
0000
0000
0000
0001
0000
0000
0000
1000
0000
0000
0000
0001
1000
0001
0000
1000
0000
0001
0000
1000
0000
0000
0000
,
1001
0000
0000
0000
0001
0000
0020
0000
0000
0000
0000
0000
0032
0000
0000
0003
,
1000
0001
0000
0000
0100
0000
0000
0000
0001
0000
0000
0000
0020
0000
0000
0000
0000
0000
0000
0000
0000
0000
0000
0000
0130
0000
1000
0000
0001
0000
0000
0000
,
0200
0000
0000
0000
0000
0000
0000
0000
0302
0000
0000
0000
0023
0000
0000
0000
0000
0000
0000
0000
0230
0000
0000
0000
0000
0000
0000
0000
1300
0002
0000
0000
,
0000
0000
0000
0000
1000
0000
0000
0000
1000
0000
0000
0000
1003
0001
0010
0000
,
0200
1000
1000
1000
,
0320
0000
0001
0032
1000
2003
0100
0000
,
3200
0000
0010
0320
0001
0000
0032
0000
,
0203
0000
0000
0000
0301
0000
0000
1000
0100
1000
0000
0001
1000
0001
0010
0100
,
2000
0000
3100
0010
0001
0000
0010
0100
,
0010
0000
0100
0010
0001
0100
0001
0100
,
0010
0000
1000
2000
0000
0000
3001
0010
,
0100
0000
0000
0000
0000
0000
0100
0000
0000
0010
0000
0000
0001
0000
0100
0000
0010
0000
1000
0000
0100
0000
0010
0000
,
0200
0000
1000
1300
0010
0100
0001
0010
,
0100
0000
1000
0020
0000
1030
0000
0001
,
1000
0001
1000
0100
0010
0001
0100
0001
,
1000
0000
0100
0010
0100
0000
1000
0001
1000
0001
0010
0100
1000
0001
0100
0010
,
1000
0000
0000
0001
1000
0000
0010
0000
1000
0000
1001
0000
0000
0000
0011
0000
,
0000
0000
0002
0000
0203
0010
0320
0000
,
2030
0000
3100
0100
1000
0010
2000
0001
,
0000
0000
0000
0000
3001
0000
0000
0000
1000
0000
0010
0100
0010
0000
1000
0000
,
0200
0000
0310
0002
1000
2003
0000
3020
,
0000
2030
0001
0000
3100
1000
0001
0200
,
0010
0000
0000
0000
0000
0000
0000
0000
0310
0000
0000
0000
2000
0000
0000
0000
0000
0000
0000
0000
3001
0000
0000
0000
0100
0000
0000
0000
0001
2000
0000
0000
,
0000
0000
3002
0000
0100
0000
0103
0000
0001
0000
0010
0100
0010
0000
0001
0000
,
2000
0000
3010
0010
0100
0101
0000
0110
,
0002
0000
1003
0002
0000
0013
0100
1000
,
0001
1000
0001
0100
0001
1000
0100
0000
0010
0000
0001
0000
1000
0000
0002
0000
,
0000
0000
0000
0000
1003
0000
0000
0000
0000
0000
0000
0000
0001
0000
0000
0000
0100
0000
0000
0000
0010
0000
1000
0001
1000
0000
0000
0000
0001
0000
1000
0000
,
0002
0000
0013
0120
0000
0130
1200
0000
,
1300
0000
0000
0000
0001
1000
0001
0000
1000
0000
0100
0000
1000
0000
0001
0000
0010
0000
0000
0000
0100
0000
0000
0000
1000
0000
0001
0000
1000
0000
0010
0000
,
0200
0000
0301
1002
0000
1003
1010
1000
,
0010
0000
0000
0000
0220
0000
0000
0000
0000
0000
0000
0000
0000
0000
0000
0000
0330
0000
0000
0000
0100
0000
0001
0000
1000
0001
1000
0000
0001
0000
0000
0000
,
1001
0000
1000
0100
1000
0000
0001
0000
0010
0100
0010
0100
0010
0000
0001
0000
,
1000
0000
0001
0000
1000
0000
0001
1000
0001
0000
0000
0000
0100
0000
0001
0000
0100
0000
0000
0000
0010
0000
1000
0000
0010
0000
0000
0000
0100
0000
0000
0000
,
0001
1000
0001
1000
0001
0000
1000
0100
1000
0100
0010
0001
1000
0000
1000
0000
,
0010
0000
1000
0100
0010
0001
0010
0100
1000
0100
0010
0001
1000
0001
0100
0010
,
1000
0001
1000
0001
0100
0000
0000
0000
0010
0100
0010
0000
0100
0000
0001
0000
,
0010
0000
0100
0000
1000
0000
0001
1000
0001
0000
0000
0000
1000
0000
0001
0000
1000
0000
0001
0000
1000
0000
0000
0000
0100
0000
0000
0000
0010
0000
0000
0000
,
0001
0100
0010
0100
0010
0000
1000
0000
0001
0010
0001
0010
0100
0000
0100
1000
,
0002
0000
0203
0000
0320
0000
2030
0000
3000
0000
0001
1000
0100
0000
0010
0001
,
2000
0000
0000
3020
0230
0320
2030
3200
,
0000
0000
0000
0320
0000
0000
0230
0000
0320
0000
0230
0000
0320
0000
0032
0000
,
0203
0000
0310
1000
0000
1010
0000
0202
,
0000
0000
0303
0000
0001
1000
0001
1000
0100
0010
0100
1000
0010
0000
1000
0000
,
0020
0000
0130
0020
0000
0000
1030
0001
,
0200
0000
0320
0000
0230
0000
0301
1000
,
1001
0002
0000
1000
0000
0000
0010
0000
,
0000
0000
0000
0000
0000
0000
0000
0003
,
1000
0000
0000
0100
0000
0000
0010
0000
,
0000
0000
0000
0001
0100
0010
1000
0001
,
0010
0000
0000
0100
0000
0000
1000
0000
,
0001
0000
0000
0000
0001
0000
0000
0000
0001
0000
1000
0001
0000
0000
1000
0000
,
0001
0000
0000
0100
0000
0000
0010
0000
,
0100
0000
0000
0000
0100
0000
0010
0100
0010
0000
0100
0010
0000
0100
0010
0000
,
1001
0000
0000
0000
1000
0000
0000
0000
0100
0000
0000
0000
0010
0000
0001
1000
,
0001
1000
0001
0000
0010
0000
0100
0010
0000
0001
0010
0000
0001
0000
1000
0000
,
0010
0100
0010
1000
0001
0000
1000
0100
0000
0010
0100
0000
0010
0000
0001
1000
,
0001
0100
0001
0000
0010
0000
0100
1000
0000
0001
0100
0000
0010
0000
1000
0000
,
0001
0000
0010
0100
1000
0000
0100
0010
0000
0001
1000
0000
0001
0000
0100
0010
,
0100
0010
1000
0000
0001
0000
1000
0001
0000
0100
0001
0000
1000
0000
0010
0000
,
1000
0100
1000
0001
0010
0000
0100
1000
0000
0001
0010
0000
0001
0000
0100
0010
,
1000
0001
1000
0000
0001
0000
0100
0010
0000
0100
0010
0000
1000
0000
0001
0000
,
2001
0000
0000
3200
0010
0000
0320
0000
,
0001
0000
0000
0000
0031
0001
0100
0010
,
0200
0000
0000
0302
0100
0000
0000
0000
,
0100
0000
0000
0000
0100
0103
0001
0001
,
2000
0000
0000
0000
0100
3200
0000
0000
,
0320
0000
0000
0032
1000
0000
2003
0000
,
3002
0000
0000
0000
0000
0000
0000
0000
0000
0000
0000
0000
0000
0000
0000
0000
1000
0000
0000
0000
0000
0000
0000
0000
0003
0000
0000
0000
0000
0000
1000
0001
,
1000
0000
0000
0010
0100
0000
0100
0000
0001
0000
0100
0001
0010
0000
0001
0000
,
1001
0000
1000
0100
0110
0020
0001
0000
,
0130
0000
0000
1000
0100
0000
1000
0000
1000
0010
0100
0000
0001
0000
0010
0000
,
0100
0000
0000
1000
0010
0000
0100
0000
0101
0000
0001
1000
0000
0000
0001
0000
,
0010
0000
0000
0000
0000
0000
0100
0000
0010
0000
0000
0000
0100
0000
1000
0001
1000
0000
0000
0000
0001
0000
0010
0000
0100
0000
0000
0000
1000
0000
0000
0000
,
1100
0000
0000
0000
0000
0000
1000
0000
0100
0010
0001
0000
1000
0000
0000
0000
,
0101
0000
0001
0100
0010
0000
1000
0000
0010
0100
0010
0000
1000
0000
0100
0000
,
0010
0000
0001
1000
1010
0100
0001
0000
,
1001
0000
0000
0000
0000
0000
0001
0000
0010
0000
0000
0000
0100
0000
0000
0000
0010
0001
0010
0000
0100
0000
0010
0000
0000
0000
0000
0000
0100
0000
0000
0000
,
0210
0000
0310
0100
1000
0002
0000
0000
,
1003
0020
0000
0000
0000
0000
1000
0000
0000
0000
0000
0000
1030
0000
0000
0000
0001
0000
0010
0000
0001
0000
0000
0000
0100
0000
0000
0000
0010
0000
0000
0000
,
0020
0000
1030
1000
1001
0001
0000
0000
,
1100
0000
0000
0000
0000
0000
1000
0000
0100
0000
0000
0000
0010
0000
0001
1000
0001
0000
0000
0000
1000
0000
0000
0000
0010
0000
0000
0000
0100
0000
0000
0000
,
0010
2000
0000
0000
0000
0000
0000
0000
0000
0000
0000
0000
0001
0000
0000
0000
3001
0000
0000
0000
2000
0000
0000
0000
0000
0000
0000
0000
0000
0000
0000
0000
,
3001
0020
0000
0000
0000
0000
0001
0000
0000
0000
0000
0000
0031
0000
0000
0000
1000
0000
0100
0000
1000
0000
0000
0000
0001
0000
0000
0000
0001
0000
0000
0000
,
0201
0000
0000
0310
0100
0001
0000
1000
,
2001
0000
0000
0000
0000
0000
0000
0000
0000
0000
0000
0000
3010
0000
0100
0010
0100
0000
0000
0000
0001
0000
1000
0000
0100
0000
0000
0000
0010
0000
0000
0000
,
0120
0000
0000
0000
0031
0000
0002
0000
0000
0000
0003
0000
1000
0000
0001
0100
,
0010
0000
0100
0001
1000
0000
0010
0100
0001
0000
0001
0000
1000
0000
0020
0000
,
0000
0130
0001
0020
,
0230
2300
3020
0230
,
0320
0000
0000
0000
1030
0000
0001
1000
0100
0000
0010
0001
2000
0000
0000
0000
,
3020
0000
1000
2030
0000
0000
3002
0000
,
0010
0203
0310
2000
,
3001
0000
0000
0000
0020
0000
0000
0000
0130
0000
1000
0001
1000
0010
0100
0010
,
1000
0100
0010
0002
0000
0023
0000
0230
,
0000
0000
0320
0000
0000
0000
0032
0000
0000
0000
0103
0010
1000
0000
0100
0000
,
0010
0001
0010
0200
1000
2300
0000
3002
,
0010
0023
0000
0130
1000
0100
0010
0100
,
1000
0010
0100
2000
0000
3200
0000
0302
,
0000
0000
0023
0000
0000
0000
0130
0000
1000
0001
1000
0010
0100
0001
0020
0000
,
0001
0000
0001
0000
,
0130
0000
1000
0000
,
1001
0000
0000
0000
,
0000
0000
0000
0000
,
0000
0000
0000
0000
,
0000
0000
0000
0000
,
1000
1000
0100
0010
0100
0100
1000
0010
,
0100
0100
0001
0010
0001
0001
1000
0010
,
0100
0100
0001
1000
0001
0001
1000
0010
,
0100
0010
0100
0000
0010
0000
0100
0000
0010
0000
0000
0000
1000
0000
0001
0000
1000
0000
0100
0000
1000
0000
0001
0000
0010
0000
0001
0000
1000
0000
0100
0000
,
0010
0000
0001
0200
0000
0000
0310
0000
,
1000
0000
0100
0000
1000
0000
0020
0000
0000
0000
0000
0000
0130
0001
1000
0000
,
0200
0000
0000
0000
0000
0000
0000
0000
1300
0000
0000
0000
0020
0000
0000
0000
0000
0000
0000
0000
0230
0000
0000
0000
0000
0000
0000
0000
0301
2000
0000
0000
,
0000
0000
0000
0000
0000
0000
0000
0000
3001
0000
0000
0000
0000
0000
0000
0000
1000
0001
1000
0000
0001
0000
1000
0000
0100
0000
0010
0000
0001
0000
0000
0000
,
0020
0000
0031
0000
0010
0010
0001
0010
,
0200
0000
0000
0000
0000
0000
0000
0000
0000
0000
0000
0000
2300
0000
0000
0000
0000
0000
0000
0000
3010
0000
0000
0000
0100
0000
0001
0000
1000
0001
1000
0000
,
0001
0000
0000
0000
0010
0000
0100
0000
1000
0001
1000
0010
0100
0001
0100
0000
,
0110
0000
0000
0000
0000
0000
0100
0000
0000
0000
0000
0000
0001
0000
0000
0000
1000
0001
1000
0000
0001
0000
1000
0000
0000
0000
0001
0000
0010
0000
0100
0000
,
1000
0000
0000
1001
0000
0000
0000
0000
1000
0000
0000
0000
0010
0000
0100
0000
,
0101
0000
0000
0000
0000
0000
1000
0000
0001
0000
0000
0000
0000
0000
0000
0000
1000
0000
0000
0000
0000
0000
0100
0010
0100
0000
0000
0000
0000
0000
0000
0000
,
0110
0000
0000
1100
0000
0000
0000
0000
0001
0000
0100
0000
0010
0000
1000
0000
,
1001
0000
0000
0000
1000
0001
1000
0000
0000
0000
0001
0000
1000
0000
0000
0000
0010
0000
0000
0000
0100
0000
0001
0000
1000
0000
0010
0000
0100
0000
0001
0000
,
1000
0000
0000
0100
0010
0000
0000
0000
0001
0000
0000
0000
0000
0000
1000
0000
,
1100
0000
0000
1001
0000
0000
0000
0000
0001
0000
0100
0000
0000
0100
0000
0000
,
0001
0000
0000
1001
0000
0000
0000
0000
1000
0000
0000
0000
0000
0000
0010
0000
,
0110
0000
0100
0001
0100
0001
4000
0000
3100
0000
0000
0010
0100
1000
0001
0100
,
0010
0000
0000
1010
0000
0000
0000
0000
1000
0000
0000
0000
0010
0000
0100
0000
,
0101
0000
0000
0000
0000
0000
1001
0000
0000
0000
0000
0000
0000
0000
0000
0000
0001
0000
0000
0000
0000
0000
1000
0001
1000
0000
0000
0000
0000
0000
0000
0000
,
0100
0000
0000
0110
0000
0000
0000
0000
0010
0000
0001
0000
0100
0000
0100
0000
,
0110
0000
0000
0000
0010
0100
0010
0000
0100
0000
0010
0000
0100
0000
0000
0000
0001
0000
0000
0000
1000
0000
0100
0000
0010
0000
0100
0000
1000
0000
0001
0000
,
0100
0000
0000
0001
1000
0000
0000
0000
0100
0000
0000
0000
1000
0000
0001
0000
,
1001
0000
0000
1100
0000
0000
0000
0000
0100
0000
0010
0001
1000
0000
0001
0000
,
0011
0000
0000
0110
0000
0000
2100
0000
0000
0000
0000
0000
0001
0000
0000
0000
,
0000
0000
0000
0000
0010
0000
0000
0000
0000
0000
0000
0000
0000
0000
0000
0000
3001
0000
0000
0000
0010
0000
0000
0000
0100
0000
0000
0000
0010
0000
0000
0001
,
1000
0000
0000
1000
0000
0000
0001
0000
0000
0000
0010
0000
0000
0000
0200
0000
,
0000
0000
0000
0300
,
1001
0000
0000
0000
,
0000
0002
0023
0230
,
2300
0000
0000
3020
0000
0000
0230
0000
,
0000
0000
0001
0000
,
0302
0000
0103
0020
0000
2030
0000
3200
,
0000
0320
0000
0000
0001
0000
0031
0020
,
0100
0000
0000
0000
0000
0000
0000
0000
0130
0000
0000
0000
1000
0002
0000
0000
0000
0000
0000
0000
1003
0000
0000
0000
0010
0000
0000
0000
0100
0020
0000
0000
,
0000
0230
0000
0000
0302
0000
0203
0000
,
0320
0000
0000
1000
0000
0000
0100
0000
,
2030
0000
3001
2000
0000
3001
0010
0200
,
0010
0000
0000
1000
0000
0000
0310
0002
,
0000
2003
0000
3020
0000
0230
0000
0301
,
2000
0000
3010
0200
0000
0302
0000
0023
,
0000
0000
0000
0130
1000
0100
0010
0001
,
0200
0000
0310
2000
0000
3002
0000
0013
,
0200
0000
0310
0002
0000
0000
0103
0000
,
0120
0000
0000
0000
2030
0000
3001
0010
,
0000
0100
0000
1000
0001
1000
0001
0100
,
0010
0000
1000
0100
0000
1000
0000
1000
,
0002
0000
0000
0013
0100
0000
1000
0010
,
0100
0000
0001
0020
0000
0000
0000
0000
,
0130
0000
1000
0010
0000
0100
0001
0010
,
0200
0000
0000
0310
0001
0000
1000
0000
,
0010
0100
0001
0010
0000
0001
1000
0000
,
0100
1000
0100
0010
0001
0010
0001
2000
,
0010
0000
3010
0100
0010
1000
0100
0010
,
0001
0000
1000
0010
0000
0110
0000
1001
,
0000
0000
1000
0001
1000
0010
0100
0010
,
1000
0000
0100
0020
0001
0000
0031
0001
,
0010
0000
0001
0002
0000
0000
0003
1000
,
0010
0000
0100
0000
0001
0000
1000
0001
,
1001
0000
0000
0000
0000
0000
0001
0000
0100
0000
0001
0000
0010
0100
1000
0001
,
0020
0000
0000
0000
0031
0000
1000
0000
0100
1000
0100
0000
1000
0000
0020
0000
,
1000
0000
2030
0000
0000
0000
3001
0000
0010
0001
0010
0000
0100
0000
1000
0000
,
2000
0000
3010
0200
0000
0310
1000
0020
,
1000
0000
1030
0100
0010
0001
0010
0100
1000
0100
0010
0001
1000
0001
0100
0010
,
1000
0001
1000
0001
0100
0000
0010
0000
1000
0010
1000
0000
0001
0000
0001
0000
,
2000
0000
3100
0020
0000
0031
1000
0010
,
0100
0001
1000
0000
0100
0000
0010
0000
0001
0000
1000
0000
1000
0000
0001
0000
,
0002
0000
0203
0000
0302
0000
0023
0000
0031
0100
0010
1000
0100
1000
0010
0100
,
0002
0000
0000
0023
0230
0320
0032
0203
,
0000
0000
0000
0320
0000
0000
0230
0000
0320
0000
0230
0000
0320
0000
2030
0000
,
3200
0000
0320
0032
0003
0101
0000
0022
,
0000
0000
0033
0000
0001
1000
0001
1000
0100
0010
0100
0010
0001
0000
0001
0000
,
0020
0000
0000
0000
0130
0000
0010
0000
0001
0000
0010
0001
0000
0001
1000
0000
,
0200
0000
1300
0001
0000
1000
0010
0100
,
1002
0000
1003
0010
0000
0100
0000
0020
,
0000
0000
0000
0000
0000
0000
0000
0000
0000
0000
0000
0000
1030
0010
0100
0001
,
1000
0000
0001
0010
0100
1000
0100
0010
,
0011
0000
0000
1001
0000
0001
1000
0001
,
0010
0000
0000
0000
0100
1000
0001
0000
0000
0000
0200
0000
0000
0000
0000
0000
,
0310
1000
0000
1100
0000
0021
0000
0000
,
0031
0000
1000
0010
0000
0100
0001
1000
,
0001
1000
0100
0010
0000
0100
0000
1100
,
0000
0000
0001
0000
0100
0000
0010
0100
0000
0000
0010
0000
1000
0000
0000
0000
,
0010
0000
0000
0000
1000
0000
0010
0000
0100
0001
1000
0001
0010
0000
0001
0000
,
0011
0000
0010
0100
1000
0010
1000
0010
,
0100
0000
0000
0000
0000
0000
0000
0000
0001
0000
0000
0000
0010
0000
0000
0000
0000
0000
0000
0000
0100
0000
0000
0000
0010
0100
0000
0000
0010
0000
0000
0000
,
0002
0000
0000
2003
0000
0000
3020
0000
,
0130
0000
0000
0000
0000
0000
0010
0000
0000
1000
0000
0000
0100
0000
0010
0000
0001
0000
0100
0000
0010
0000
1000
0000
,
0002
0000
0000
0023
0000
0130
1000
0020
,
0100
0000
0130
0002
0000
0203
0000
0320
,
0000
0000
1030
0002
0000
0000
2000
0000
,
0000
0000
0000
0000
,
0000
0000
0000
0000
,
3003
0000
0000
0000
;
