#TITLE:Stayer;
#SUBTITLE:;
#ARTIST:Sanaas;
#TITLETRANSLIT:;
#SUBTITLETRANSLIT:;
#ARTISTTRANSLIT:;
#GENRE:;
#CREDIT:;
#MUSIC:Stayer.ogg;
#BANNER:;
#BACKGROUND:;
#CDTITLE:;
#SAMPLESTART:223.506;
#SAMPLELENGTH:13.913;
#SELECTABLE:YES;
#OFFSET:-0.897;
#BPMS:0.000=138.000;
#STOPS:;
#BGCHANGES:;
#FGCHANGES:;

//--------------- dance-single - ----------------
#NOTES:
     dance-single:
     :
     Challenge:
     11:
     0,0,0,0,0:
0000
0000
0000
0000
,
0000
0000
0000
0000
,
0000
0000
0000
0000
,
0000
0000
0000
0000
0000
0000
0000
0002
,
1003
0000
0000
0000
0100
0000
0000
0000
0010
0000
0001
1000
0001
0000
4000
0000
,
3100
0000
0000
0000
1000
0001
1000
0001
1000
0000
0001
0100
0001
0000
2000
0000
,
3100
0000
0000
0000
0010
0000
0001
0000
0001
0000
1000
0100
1000
0000
0400
0000
,
0310
0000
0000
0000
0001
0100
0001
0100
0001
1000
0001
0000
1000
0000
0200
0000
,
0310
0000
0000
0000
0001
0000
0000
0000
1000
0000
0001
1000
0100
0000
4000
0000
,
3001
0000
0000
0000
1000
0100
1000
0100
1000
0000
0001
0100
0001
0000
0200
0000
,
0310
0000
0000
0000
1000
0000
0010
0000
0010
0000
1000
0001
1000
0000
0400
0000
,
0310
0000
0000
0000
0001
0010
0001
0010
0001
1000
0001
0000
0100
0000
0002
0000
,
1003
0000
0000
0000
0010
0000
0000
0000
0100
0000
0001
1000
0001
0000
2000
0000
,
3100
0000
0000
0000
0010
0001
0010
0001
0010
0000
0001
1000
0001
0000
0200
0000
,
0310
0000
0000
0000
1000
0000
0001
0100
0010
0000
0000
0000
1000
0000
0000
0000
,
0001
0000
0000
0000
1000
0001
1000
0001
1000
0100
1000
0001
0000
0000
1000
0000
,
0001
0000
0000
1000
0100
0000
0010
0000
0001
0100
0000
0001
1000
0000
0004
0000
,
1003
0000
0100
0000
1000
0100
1000
0100
0010
0000
0001
1000
0100
0000
2000
0000
,
3010
0000
0000
0100
0001
0000
1000
0000
0100
0010
0000
0001
0010
0000
0002
0000
,
1003
0000
0001
0000
1000
0010
1000
0010
0100
0001
1000
0000
0001
0000
2000
0000
,
3100
0000
0010
0001
0000
1000
0100
0000
1000
0000
0001
0100
0000
0000
0010
0000
,
1000
0000
0001
1000
0100
1000
0100
0010
0000
0000
0001
1000
0100
0000
0010
0001
,
1000
0000
0100
0010
0000
0100
1000
0001
0100
0010
0000
1000
0001
0000
0010
0000
,
0001
0000
0100
0010
1000
0000
0001
0000
1000
0100
1000
0100
0010
0000
0001
0000
,
1001
0000
1000
0010
0100
0000
0001
0000
1000
0100
0010
0100
0000
0010
0001
0000
,
1000
0000
0000
0001
1000
0000
0001
0000
0010
0000
0000
0100
1000
0000
0001
0000
,
0100
0000
0010
1000
0001
0000
0010
0000
0001
0000
1000
0100
0010
0000
0001
0000
,
1000
0000
0010
0100
0001
0000
1000
0000
0100
0000
0010
0001
1000
0000
0001
0000
,
0100
0100
0010
0010
1000
1000
0001
0001
,
0010
0010
0100
0100
1000
1000
0001
0001
,
1000
0100
0010
0001
1000
0010
0100
0004
4000
0000
0000
0000
0000
0000
3003
0000
,
1001
0000
0001
0100
0001
0010
0100
1000
0000
0001
0000
0100
0001
0000
0001
0000
,
1001
0000
0001
1000
0000
0000
0001
0000
0010
0000
0001
1000
0000
0000
0100
0000
,
1000
0000
0001
1000
0001
0000
0010
0000
0001
0100
0000
0000
0010
0000
1000
0000
,
0100
0000
1000
0001
0000
0000
1000
0000
0100
0000
1000
0001
0000
0000
0010
0000
,
0001
0000
1000
0001
1000
0000
0100
0000
1000
0010
1000
0100
0010
0000
0100
0000
,
1000
0000
1000
0001
0000
0000
1000
0000
0010
0000
1000
0001
0000
0000
0100
0000
,
0001
0000
1000
0001
1000
0000
0010
0000
1000
0100
0000
0000
0010
0000
0001
0000
,
0100
0000
0001
1000
0000
0000
0001
0000
0100
0000
0001
1000
0000
0000
0010
0000
,
1000
0000
0000
0000
0001
0000
1000
0000
0001
0000
0000
0000
0100
0000
0000
0000
0001
0000
1000
0100
1000
0000
0001
0000
1000
0000
0000
0000
0100
0000
0000
0000
,
1000
0000
0010
1000
0001
0000
0100
0000
0001
0000
0010
0100
1000
0000
0001
0000
,
0100
0000
0001
0100
0010
0000
1000
0000
0100
1000
0000
0001
1000
0000
0010
0000
,
1000
0000
0100
1000
0001
0000
0010
0000
0001
0000
0100
0010
1000
0000
0001
0000
,
0010
0000
0001
0010
0100
0000
1000
0000
0010
1000
0000
0001
1000
0000
0100
0000
,
1000
0000
0010
1000
0001
0000
0100
0000
0001
0000
0010
0100
1000
0000
0001
0000
,
0100
0000
0001
0100
0010
0000
1000
0000
0100
1000
0000
0001
1000
0000
0010
0000
,
0100
0000
0001
1000
0100
0000
0010
0000
0001
1000
0000
0001
1000
0000
1000
0000
,
0002
0000
0000
1003
0100
0010
0001
1000
,
1001
0000
0001
0010
0100
0000
1000
0000
0001
0010
0000
0001
0010
0000
0100
0000
,
1000
0010
0000
1000
0001
0000
1000
0000
0010
1000
0000
0010
0100
0000
0001
0000
,
1000
0000
1000
0100
0010
0000
0001
0000
1000
0100
0000
1000
0100
0000
0010
0000
,
0001
0100
0000
0001
1000
0000
0001
0000
0100
0001
0000
0100
0010
0000
1000
0000
,
0001
0000
1000
0100
0010
0000
0001
0000
1000
0100
0000
1000
0100
0000
0010
0000
,
0001
0100
0000
0001
1000
0000
0001
0000
0100
0001
0000
0100
0010
0000
1000
0000
,
0001
0000
1000
0100
0010
0000
0001
0000
1000
0100
0000
1000
0100
0000
0010
0000
,
0001
0100
0000
0001
1000
0000
0001
0000
0100
0001
0000
0100
0010
0000
1000
0000
,
0001
0000
1000
0100
0010
0000
0001
0000
1000
0100
0000
1000
0100
0000
0010
0000
,
0001
0100
0000
0001
1000
0000
0001
0000
0100
0001
0000
0100
0010
0000
1000
0000
,
0001
0000
1000
0100
0010
0000
0001
0000
1000
0010
0000
1000
0001
0000
0010
0000
,
0001
0100
0000
0001
1000
0000
0001
0000
0100
0001
0000
0100
0010
0000
1000
0000
,
0001
0000
0001
0100
0010
0000
1000
0000
0001
1000
0000
0001
1000
0000
0010
0000
,
1000
0100
0000
1000
0001
0000
1000
0000
0100
1000
0000
0100
0010
0000
0001
0000
,
1000
0000
0001
0100
0010
0000
1000
0000
0001
0100
0000
0001
0100
0000
0010
0000
,
1000
0000
0001
1000
0000
0001
1000
0000
0000
0010
0000
0100
0010
0000
0110
0000
,
1001
0000
0000
0000
0001
0000
0100
0000
0002
0003
0000
0000
1000
0000
0000
0000
0100
0000
0000
0000
0020
0030
0001
0000
0010
0000
0000
0000
0100
0000
0000
0000
,
2000
3000
0000
0000
0010
0000
0100
0000
0010
0000
0000
0000
1000
0000
0000
0000
0001
0000
0000
0000
0010
0000
0100
0000
0010
0000
0000
0000
0001
0000
0000
0000
,
1000
0000
0001
0100
0001
0000
1000
0000
0001
0000
0010
0001
0010
0000
0100
0000
,
1000
0000
0100
1000
0100
0000
0010
0000
0001
0000
1000
0001
1000
0000
0010
0000
,
1000
0000
0000
0000
0001
0000
0010
0000
0002
0003
0000
0000
1000
0000
0000
0000
0010
0000
0000
0000
0200
0300
0001
0000
0100
0000
0000
0000
0010
0000
0000
0000
,
2000
3000
0000
0000
0100
0000
0010
0000
0100
0000
0000
0000
1000
0000
0000
0000
0001
0000
0000
0000
0100
0000
0010
0000
0100
0000
0000
0000
0001
0000
0000
0000
,
1000
0000
0001
0010
0001
0000
1000
0000
0001
0000
0100
0001
0100
0000
0010
0000
,
1000
0000
0010
1000
0010
0000
0100
0000
0001
0000
1000
0001
1000
0000
0100
0000
,
1000
0000
0000
0000
0100
0000
0000
0000
0020
0030
0000
0000
0001
0000
0000
0000
0100
0000
0000
0000
0020
0030
0000
0000
1000
0000
0000
0000
0001
0000
0000
0000
,
0020
0030
0000
0000
0100
0000
0000
0000
1000
0000
0000
0000
0010
0000
0000
0000
0100
0000
0000
0000
0001
0000
0000
0000
1000
0000
0000
0000
0100
0000
0000
0000
,
0010
0001
0100
0010
1000
0100
0010
0100
,
1000
0001
0100
0010
0100
0001
1000
0100
,
0010
0000
0000
0000
0010
0000
0000
0000
0002
0003
0000
0000
0001
0000
0000
0000
1000
0000
0000
0000
2000
3000
0000
0000
0100
0000
0000
0000
0100
0000
0000
0000
,
2000
3000
0000
0000
1000
0000
0000
0000
0010
0000
0000
0000
0010
0000
0000
0000
0100
0000
0000
0000
0100
0000
0000
0000
0001
0000
0000
0000
0001
0000
0000
0000
,
1000
0100
0010
0001
1000
0010
0100
0001
1000
0100
0010
0001
1000
0010
0100
0001
,
1000
0000
0000
0001
0010
0100
1000
0001
,
2000
0000
0001
0000
0000
0010
0000
0000
,
0001
0000
0000
0100
3002
0000
0010
0000
,
0203
0000
0010
0000
0000
0001
0000
0000
,
1000
0000
0000
0010
0000
0000
0001
0000
,
0320
0000
1000
0000
0000
0001
0000
0000
,
0100
0000
0000
1000
0230
0000
0001
0000
,
0302
0000
0010
0000
0000
1000
0000
0000
,
0100
0000
0000
0010
0000
0000
1000
0000
,
0023
0000
0100
0000
0000
1000
0000
0000
,
0001
0000
0000
0100
0032
0000
1000
0000
,
0203
0000
0010
0000
0000
0001
0000
0000
,
1000
0000
0000
0010
0000
0000
0001
0000
,
0302
0000
1000
0000
0000
0010
0000
0000
,
0100
0000
0000
1000
0203
0000
0010
0000
,
0320
0000
1000
0000
0000
0001
0000
0000
,
0100
0000
0000
1030
0100
0010
0001
1000
,
0100
0000
0010
0000
0001
0010
0000
0001
,
0100
0000
0010
1000
0000
0010
0100
0001
,
1000
0000
0100
0000
0010
0001
0000
0010
,
0100
0000
1000
0100
0000
0010
0001
1000
,
0010
0000
0100
0000
0001
0100
0000
0010
,
1000
0000
0001
1000
0100
0000
0010
0001
,
1000
0000
0010
0000
0100
0001
0000
0100
,
0010
0000
1000
0010
0000
1000
0001
0010
,
0100
0000
1000
0000
0100
0010
0000
0100
,
1000
0000
0001
0100
0000
0010
0100
0010
,
1000
0000
0001
0000
0010
0100
0000
1000
,
0100
0000
1000
0001
0100
0000
0010
1000
,
0001
0000
1000
0100
0010
0000
0001
0100
,
0010
0000
1000
0100
0010
0001
0100
0010
,
1000
0000
0001
0010
0100
0000
1000
0001
,
1001
0000
0000
0001
0010
0100
1000
0001
,
1000
0000
0100
0010
0000
0100
0010
0000
0001
0000
0100
0010
0000
0100
0010
0000
,
1000
0000
0001
0010
0000
0001
0010
0000
0100
0000
1000
0010
0000
1000
0010
0000
,
0100
0000
0001
0100
0000
0001
1000
0000
0010
0000
1000
0010
0000
1000
0001
0000
,
0010
0000
0001
0010
0000
0001
1000
0000
0100
0000
0010
0001
0000
1000
0001
0000
,
1000
0000
0100
0010
0000
0100
1000
0000
0100
0000
0010
0100
0000
0010
0001
0000
,
1000
0000
0001
0010
0000
0001
1000
0000
0100
0000
0010
0001
0000
0010
0100
0000
,
1000
0000
0100
0010
0000
0001
1000
0000
0100
0000
1000
0010
0000
1000
0100
0000
,
0010
0000
0001
0010
0000
0001
1000
0000
0010
0000
0100
0000
0001
0000
1000
0000
,
1001
0000
0001
0010
0000
0001
1000
0000
0010
0000
1000
0001
0000
1000
0100
0000
,
0010
0000
0001
0100
0000
0001
1000
0000
0010
0000
0100
0001
0000
1000
0100
0000
,
1000
0000
0001
0100
0000
0001
0010
0000
0100
0000
1000
0001
0000
1000
0010
0000
,
0100
0000
0001
1000
0000
0100
0010
0000
0001
0000
0100
0010
0000
1000
0010
0000
,
0100
0100
0001
0001
1000
1000
0010
0010
,
0100
0100
0001
0001
0010
0010
0100
0100
,
1000
0100
0010
0001
1000
0001
0010
0100
1000
0010
0100
0010
1000
0001
0010
0100
,
2000
0000
0000
0000
3001
0100
0001
0010
0001
1000
0100
0010
0001
0000
1000
0000
,
0001
0000
0010
0100
0000
0100
1000
0000
0010
0000
0100
0010
0000
0010
1000
0000
,
1000
0000
0100
0010
0000
0010
0001
0000
0001
0000
1000
0010
0100
0001
1000
0000
,
0001
0000
0100
0010
0000
0010
1000
0000
0001
0000
0001
0010
0000
0010
0100
0000
,
1000
0000
0010
0100
0000
0100
0001
0000
0001
0000
1000
0100
0010
0001
1000
0000
,
1000
0000
0100
0010
0000
0010
0001
0000
0100
0000
0010
1000
0000
1000
0100
0000
,
0010
0000
0010
0100
0000
0100
1000
0000
1000
0000
0001
0100
0010
1000
0001
0000
,
1000
0000
0010
0100
0000
0100
0001
0000
0010
0000
0100
0010
0000
0010
0001
0000
,
0010
0000
0100
1000
0000
1000
0010
0000
0100
0000
0001
0000
0010
0000
0100
0000
,
1000
0000
0001
1000
0000
0001
1000
0001
1000
0000
1000
0100
0000
0100
0010
0000
,
0001
0000
0100
0010
0000
0010
1000
0000
0010
0000
0100
0001
0010
0100
1000
0000
,
1000
0000
0010
0100
0000
0100
0001
1000
0010
0000
0010
0100
0000
0100
0010
0000
,
1000
0000
0100
0010
0000
0010
0001
0000
0010
0000
0100
1000
0010
0100
0001
0000
,
0001
0000
0100
0010
0000
0010
1000
0001
0100
0000
0001
0010
0000
0010
0100
0000
,
1000
0000
0010
0100
0000
0100
0001
0000
0100
0000
0010
1000
0100
0010
0001
0000
,
0001
0000
0100
0010
0000
0010
1000
0001
0100
0000
0100
0010
0000
0010
0100
0000
,
0001
0000
0010
0100
0000
0100
1000
0000
0001
0000
0010
0000
0100
0000
1000
0000
,
0001
0000
1000
0100
1000
0001
0100
0000
0010
0000
1000
0010
1000
0001
0100
0000
,
0001
0000
1000
0100
1000
0001
0010
0000
0001
0000
0010
0100
0010
0001
1000
0000
,
0100
0000
1000
0010
0100
0010
1000
0000
0001
0000
1000
0100
0010
0100
1000
0000
,
0001
0000
0100
0010
0100
0001
1000
0000
0001
0000
0010
0001
0010
0100
0010
0000
,
0001
0000
1000
0010
0100
0001
0100
0000
0001
0000
1000
0100
0010
0100
1000
0000
,
0001
0000
0010
0001
0010
0100
0010
0000
0100
0000
1000
0100
1000
0001
1000
0010
,
0100
0000
0001
0100
0001
1000
0010
0000
1000
0000
0001
0100
0001
1000
0001
0000
,
1000
0000
0100
0010
0100
1000
0100
0000
0010
0000
0001
0000
1000
0000
0010
0000
,
1000
0000
0001
0010
0001
1000
0010
0000
0100
0000
0001
0100
0001
1000
0010
0000
,
1000
0000
0001
0010
0001
1000
0100
0000
1000
0000
0100
0010
0100
1000
0001
0000
,
0010
0000
0001
0100
0010
0100
0001
0000
1000
0000
0001
0010
0100
0010
0001
0000
,
1000
0000
0010
0100
0010
1000
0001
0000
1000
0000
0100
1000
0100
0010
0100
0000
,
1000
0000
0001
0100
0010
1000
0010
0000
1000
0000
0001
0010
0100
0010
0001
0000
,
1000
0000
0100
1000
0100
0010
0100
0000
0010
0000
0001
0010
0001
1000
0001
0100
,
0010
0000
1000
0010
1000
0001
0100
0000
0001
0000
1000
0010
1000
0001
1000
0000
,
0001
0000
0001
0000
1000
0000
1000
0100
1000
0001
0000
0011
0000
0000
1100
0000
,
0001
0000
0000
0000
1000
0000
0010
0000
2000
3000
0001
0000
0010
0000
0000
0000
0100
0000
0000
0000
2000
3000
0100
0000
1000
0000
0001
0000
0010
0000
0000
0000
,
0002
0003
0000
0000
1000
0000
0010
0000
1000
0000
0001
0000
0200
0300
0000
0000
0001
0000
0000
0000
0100
0000
0010
0000
0200
0300
0001
0000
1000
0000
0000
0000
,
0010
0000
0000
0000
1000
0000
0100
0000
0020
0030
0100
0000
1000
0000
0000
0000
0001
0000
0000
0000
2000
3000
0010
0000
0100
0000
0010
0000
1000
0000
0000
0000
,
0002
0003
0000
0000
0010
0000
0100
0000
0010
0000
0001
0000
2000
3000
0000
0000
0001
0000
0000
0000
0100
0000
0001
0000
0200
0300
0010
0000
0100
0000
0000
0000
,
0001
0000
0000
0000
1000
0000
0100
0000
0020
0030
0001
0000
0010
0000
0000
0000
0001
0000
0000
0000
2000
3000
0010
0000
0100
0000
0010
0000
1000
0000
0000
0000
,
0002
0003
0000
0000
0100
0000
0001
0000
0100
0000
0010
0000
0200
0300
0000
0000
0010
0000
0000
0000
1000
0000
0010
0000
2000
3000
0001
0000
1000
0000
0100
0000
,
0010
0000
0000
0000
0001
0000
0010
0000
0002
0003
1000
0000
0100
0000
0000
0000
1000
0000
0000
0000
0002
0003
0010
0000
0001
0000
1000
0000
0001
0000
0000
0000
,
2000
3000
0000
0000
0010
0000
0100
0000
0010
0000
1000
0000
0020
0030
0000
0000
0100
0000
0000
0000
0001
0000
0000
0000
2000
3000
0000
0000
0100
0000
0000
0000
,
1000
0000
0000
0000
0001
0000
0100
0000
0002
0003
1000
0000
0100
0000
0000
0000
0010
0000
0000
0000
0002
0003
0010
0000
0001
0000
1000
0000
0100
0000
0000
0000
,
2000
3000
0000
0000
0001
0000
0100
0000
0001
0000
1000
0000
0020
0030
0000
0000
1000
0000
0000
0000
0010
0000
0100
0000
0020
0030
1000
0000
0001
0000
0000
0000
,
0100
0000
0000
0000
0001
0000
0010
0000
0200
0300
0010
0000
0001
0000
0000
0000
1000
0000
0000
0000
0002
0003
0100
0000
0010
0000
0100
0000
0001
0000
0000
0000
,
2000
3000
0000
0000
0100
0000
0010
0000
0100
0000
1000
0000
0002
0003
0000
0000
1000
0000
0000
0000
0010
0000
1000
0000
0020
0030
0100
0000
0010
0000
0000
0000
,
1000
0000
0000
0000
0001
0000
0010
0000
0200
0300
1000
0000
0100
0000
0000
0000
1000
0000
0000
0000
0002
0003
0100
0000
0010
0000
0100
0000
0001
0000
0000
0000
,
2000
3000
0000
0000
0010
0000
1000
0000
0010
0000
0100
0000
0020
0030
0000
0000
0100
0000
0000
0000
0001
0000
0100
0000
0002
0003
1000
0000
0001
0000
0010
0000
,
0100
0000
0000
0000
1000
0000
0100
0000
2000
3000
0001
0000
0010
0000
0000
0000
0001
0000
0000
0000
2000
3000
0100
0000
1000
0000
0001
0000
1000
0000
0000
0000
,
0002
0003
0000
0000
0001
0000
0000
0000
1000
0000
0000
0000
1000
0000
0000
0000
0100
0000
0000
0000
0010
0000
0000
0000
0001
0000
0000
0000
1000
0000
0000
0000
,
0001
0000
0100
0010
0000
0100
0010
0000
1000
0000
0100
0010
0000
0100
0010
0000
,
0001
0000
1000
0010
0000
1000
0010
0000
0100
0000
0001
0010
0000
0001
0010
0000
,
0100
0000
1000
0100
0000
1000
0001
0000
0010
0000
0001
0010
0000
0001
1000
0000
,
0010
0000
1000
0010
0000
1000
0001
0000
0100
0000
0010
1000
0000
0001
1000
0000
,
0001
0000
0100
0010
0000
0100
0001
0000
0100
0000
0010
0100
0000
0010
1000
0000
,
0001
0000
1000
0010
0000
1000
0001
0000
0100
0000
0010
1000
0000
0010
0100
0000
,
0001
0000
0100
0010
0000
1000
0001
0000
0100
0000
0001
0010
0000
0001
0100
0000
,
0010
0000
1000
0010
0000
1000
0001
0000
0010
0000
0100
0000
1000
0000
0001
0000
,
1001
1000
0000
0100
0000
0010
0000
0001
,
0000
0100
0000
0010
0000
1000
0000
0100
,
0000
0010
0000
0001
0000
0100
0000
0010
,
0000
1000
0000
0001
0000
0010
0000
0100
,
1000
0000
0020
0000
0000
0230
0000
0000
,
0302
0000
0000
2003
0000
0000
3002
0000
,
0000
0000
0023
0000
0000
0230
0000
0000
,
2300
0000
0000
3002
0000
0000
2003
0000
,
3001
0001
1000
1000
0100
0100
0010
0010
,
0001
1000
0100
0010
0001
1000
0001
0040
0400
0000
0000
0000
0330
0000
0000
0000
,
1001
0000
0001
0010
0100
0000
1000
0000
0001
0010
0000
0001
0010
0000
0100
0000
,
1000
0010
0000
1000
0001
0000
1000
0000
0010
1000
0000
0010
0100
0000
0001
0000
,
1000
0000
1000
0100
0010
0000
0001
0000
1000
0100
0000
1000
0100
0000
0010
0000
,
0001
0100
0000
0001
1000
0000
0001
0000
0100
0001
0000
0100
0010
0000
1000
0000
,
0001
0000
1000
0100
0010
0000
0001
0000
1000
0100
0000
1000
0100
0000
0010
0000
,
0001
0100
0000
0001
1000
0000
0001
0000
0100
0001
0000
0100
0010
0000
1000
0000
,
0001
0000
1000
0100
0010
0000
0001
0000
1000
0100
0000
1000
0100
0000
0010
0000
,
0001
0100
0000
0001
1000
0000
0001
0000
0100
0001
0000
0100
0010
0000
1000
0000
,
0001
0000
1000
0100
0010
0000
0001
0000
1000
0100
0000
1000
0100
0000
0010
0000
,
0001
0100
0000
0001
1000
0000
0001
0000
0100
0001
0000
0100
0010
0000
1000
0000
,
0001
0000
1000
0100
0010
0000
0001
0000
1000
0010
0000
1000
0001
0000
0010
0000
,
0001
0100
0000
0001
1000
0000
0001
0000
0100
0001
0000
0100
0010
0000
1000
0000
,
0001
0000
0001
0100
0010
0000
1000
0000
0001
1000
0000
0001
1000
0000
0010
0000
,
1000
0100
0000
1000
0001
0000
1000
0000
0100
1000
0000
0100
0010
0000
0001
0000
,
1000
0000
0001
0100
0010
0000
1000
0000
0001
0100
0000
0001
0100
0000
0010
0000
,
1000
0000
0001
1000
0000
0001
1000
0000
0000
0010
0000
0100
0010
0000
0110
0000
,
1001
0000
0001
1000
0000
0000
0001
0000
0010
0000
0001
1000
0000
0000
0100
0000
,
1000
0000
0001
1000
0001
0000
0010
0000
0001
0100
0000
0000
0010
0000
1000
0000
,
0100
0000
1000
0001
0000
0000
1000
0000
0100
0000
1000
0001
0000
0000
0010
0000
,
0001
0000
1000
0001
1000
0000
0100
0000
1000
0010
1000
0100
0010
0000
0100
0000
,
1000
0000
1000
0001
0000
0000
1000
0000
0010
0000
1000
0001
0000
0000
0100
0000
,
0001
0000
1000
0001
1000
0000
0010
0000
1000
0100
0000
0000
0010
0000
0001
0000
,
0100
0000
0001
1000
0000
0000
0001
0000
0100
0000
0001
1000
0000
0000
0010
0000
,
1000
0000
0001
1000
0001
0000
0100
0000
0001
0000
1000
0001
1000
0000
0100
0000
,
1000
0000
0001
1000
0000
0000
0001
0000
0010
0000
0001
1000
0000
0000
0100
0000
,
1000
0000
0001
1000
0001
0000
0010
0000
0001
0100
0000
0000
0010
0000
1000
0000
,
0100
0000
1000
0001
0000
0000
1000
0000
0100
0000
1000
0001
0000
0000
0010
0000
,
0001
0000
1000
0001
1000
0000
0100
0000
1000
0010
1000
0100
0010
0000
0100
0000
,
1000
0000
1000
0001
0000
0000
1000
0000
0010
0000
1000
0001
0000
0000
0100
0000
,
0001
0000
1000
0001
1000
0000
0010
0000
1000
0100
0000
0000
0010
0000
0001
0000
,
0100
0000
0001
1000
0000
0000
0001
0000
0100
0000
0001
1000
0000
0000
0010
0000
,
1000
0001
0000
0100
0000
0010
0000
1000
,
1001
0000
0000
0000
;
