#TITLE:Sky Fall;
#SUBTITLE:;
#ARTIST:Audiofreq;
#TITLETRANSLIT:;
#SUBTITLETRANSLIT:;
#ARTISTTRANSLIT:;
#GENRE:;
#CREDIT:Z-Axis;
#MUSIC:Sky Fall.ogg;
#BANNER:bn.png;
#BACKGROUND:bg.png;
#CDTITLE:;
#SAMPLESTART:47.961;
#SAMPLELENGTH:25.594;
#SELECTABLE:YES;
#OFFSET:-0.055;
#BPMS:0.000=160.000;
#STOPS:127.750=1.500
,379.750=1.500
;
#BGCHANGES:;
#FGCHANGES:;

//--------------- dance-single - ----------------
#NOTES:
     dance-single:
     :
     Hard:
     14:
     0,0,0,0,0:
0000
0000
0000
0000
,
0000
0000
0000
0000
,
0000
0000
0000
0000
,
0000
0000
0000
0000
,
0000
0000
0000
0000
,
0000
0000
0000
0000
,
0000
0000
0000
0000
,
0000
0000
0000
0000
,
0000
0000
0000
0000
0000
0000
0000
0000
0000
0000
0001
0010
0001
0000
0100
0000
,
0100
0000
0000
0001
0001
0010
0100
1000
,
0001
0000
0000
0000
0000
0000
1000
0100
1000
0000
0001
0000
0100
0000
0010
0000
,
1000
0000
0000
0000
0000
0000
1000
0100
1000
0000
0001
0000
0010
0000
0100
0000
,
1000
0000
0000
0000
0000
0001
0100
0010
,
1000
0000
0000
0001
0001
0100
0010
1000
,
0100
0000
0000
0000
0000
0000
0010
0100
0010
0000
0001
0000
0100
0000
0010
0000
,
1000
0000
0000
0000
0000
0000
1000
0001
1000
0000
0001
0000
0010
0000
0100
0000
,
2000
0000
0002
0000
0000
0000
0000
0000
3003
0000
1000
0001
0100
0000
0010
0000
,
1001
0000
0001
1000
1000
0100
0010
0100
,
1000
0000
0000
0000
0001
0000
0010
0100
1000
0000
0010
0000
0100
0000
0001
0000
,
0010
0000
0000
0000
0100
0000
0010
0100
1000
0000
0100
0000
1000
0000
0001
0000
,
0010
0000
0010
0000
0010
0100
1000
0001
,
0100
0000
0100
0010
1000
0001
0010
0100
,
1000
0000
0000
0000
1000
0000
0001
0010
0100
0000
1000
0000
0001
0000
0100
0000
,
0010
0000
0000
0000
0010
0000
0100
0001
0100
0000
0010
0000
1000
0000
0001
0000
,
0020
0000
0000
0000
0230
0000
0000
0000
1300
0100
0000
1000
0100
0000
1000
0000
,
1010
0010
1000
1000
0010
0010
0100
0100
,
0001
0001
0010
0010
0001
0001
1000
1000
,
0001
0001
0100
0100
0010
0010
1000
1000
,
0001
0000
0001
0000
0010
0000
0010
0000
0100
0000
1000
0010
0000
0100
0001
0100
,
0010
0100
0010
0000
0100
0010
0100
0000
0001
1000
0001
0000
1000
0001
1000
0000
,
0001
0100
0001
0000
0100
0001
0100
0000
0010
1000
0010
0000
1000
0010
1000
0000
,
0001
0000
1000
0000
0001
0000
1000
0000
0001
0000
1000
0000
0001
0000
1000
0000
0001
0000
1000
0000
0001
0000
1000
0000
0001
0000
1000
0000
0001
0000
2000
3000
,
0010
0000
0000
0000
0100
0000
0100
0010
0000
0010
1000
0000
0001
0000
0001
0100
,
0010
0000
1000
0100
1000
0000
0001
0100
0001
0100
0010
0000
1000
0010
1000
0010
,
1000
0100
1000
0100
0010
0000
0001
0010
0001
0010
0100
0000
1000
0001
1000
0001
,
0100
0000
0001
0000
1000
0000
0001
0000
0010
0000
0000
0000
0100
0000
1000
0001
1000
0000
0100
0000
0010
0000
0001
0000
0100
0000
0010
0000
1000
0000
0001
0000
,
0010
0000
0100
1000
0100
0000
0010
0001
0010
0001
1000
0000
0001
1000
0001
1000
,
0100
0000
0100
0010
0001
0000
0001
1000
0001
1000
0010
0000
0100
0001
0100
0001
,
1000
0010
1000
0010
0100
0000
0100
0001
0100
0001
0010
0000
0100
1000
0100
1000
,
0001
0100
0000
0100
0010
0000
0010
1000
0000
1000
0100
0000
0010
0000
0100
0000
,
1001
0000
0000
0000
1000
0001
0010
0001
2000
0000
0100
0000
3100
0010
0100
0010
,
0001
0000
1000
0010
0100
0000
0001
0010
0200
0000
2300
0000
3001
0000
0101
0000
,
1000
0000
0100
1000
0100
0000
0010
0001
0010
0001
1000
0000
0010
0100
0010
0100
,
0001
0000
0000
0000
1000
0000
0100
0000
0010
0000
0000
0000
0001
0000
0100
0001
0100
0000
0010
0000
1000
0000
0001
0000
0010
0000
0001
0000
1000
0000
0000
0000
,
1001
0000
0000
0000
1000
0001
0010
0001
0200
0000
0310
0000
1000
0010
1000
0010
,
0100
0000
0100
0001
0010
0000
0100
1000
0100
1000
0001
0010
0100
0000
0110
0000
,
1100
0000
1000
0000
1001
0000
0001
0010
0001
0100
0010
0000
1000
0100
0010
0100
,
1000
0010
0000
0010
0100
0000
0100
0001
0000
0001
0010
0000
0010
0100
1000
0001
,
0011
0000
1000
0000
0010
0100
0001
0100
0020
0000
1030
0000
0100
1000
0100
0010
,
0001
0000
0001
0010
0100
0000
1000
0010
0200
0000
0301
0000
0110
0000
1000
0000
,
0001
0010
0001
0010
0200
0000
1300
0010
0100
0010
1000
0000
0001
0000
0010
0100
,
1000
0000
0000
0000
1000
0000
0001
1000
0001
0000
0010
0000
0001
0000
1000
0001
1000
0000
0000
0000
0100
0000
0000
0000
0010
0000
0000
0000
0010
0000
0000
0000
,
1001
0000
0000
0000
1000
0001
0010
0001
0100
0000
0010
1000
0001
1000
0010
1000
,
0100
0010
0001
1000
0100
0010
0001
1000
0100
0010
0001
0010
0100
1000
0001
0100
,
0010
1000
0010
1000
0000
0000
0001
1000
0001
1000
0000
0000
0100
1000
0100
1000
0000
0000
0001
0010
0001
0020
0000
0000
,
0230
0000
0000
0000
2300
0000
0000
0000
0000
0000
3001
0010
0001
0000
0100
0000
,
0200
0000
0000
0000
,
0302
0000
0000
0000
0023
0000
0000
0230
,
2300
0000
0000
0000
,
3020
0000
0000
0000
0000
0000
0230
0000
0302
0000
0103
0001
0100
0000
0010
0000
,
0020
0000
0000
0000
,
2030
0000
0000
0000
3200
0000
0000
0320
,
0032
0000
0000
0000
,
2003
0000
0000
0000
0000
3000
0010
0100
0010
0100
0000
0100
0010
0000
0010
0000
,
1001
0000
0010
1001
1000
0000
0001
0000
,
1000
0000
0010
1001
1000
0000
0100
1000
,
0001
0000
0010
1001
0001
0000
0100
0000
,
0010
0100
0000
0010
0100
0000
0100
0001
1000
0000
0001
1000
0001
0000
1000
0000
,
1000
0000
0010
1001
1000
0000
0001
0000
,
0100
0000
0001
1001
1000
0000
0100
0010
,
0001
0000
0010
1001
1000
0000
0001
0000
,
2000
0000
0002
0000
0000
0000
0000
0000
3003
0000
1000
0001
0100
0000
0010
0000
,
1001
1000
0001
1000
1000
0100
0010
0100
,
1000
0000
0010
0000
0001
0000
0010
0100
0001
0000
0100
0000
0001
0000
0010
0000
,
0100
0000
1000
0000
0001
0000
0010
0100
1000
0000
0001
0000
0010
0000
0100
0000
,
0010
0001
0000
0001
1000
0000
1000
0010
0000
0010
0100
0000
0001
0000
1000
0000
,
0010
1000
0100
0010
1000
0010
0100
1000
,
0010
0000
0001
0000
0010
0000
0100
0001
1000
0000
0001
0000
0010
0000
0100
0000
,
1000
0000
1000
0000
0010
0000
0100
0001
0100
0000
0010
0000
0100
0000
0001
0000
,
0020
0000
0000
0000
0230
0000
0000
0000
0300
0000
1000
0001
0010
0000
0001
0000
,
0100
000M
0100
0000
1000
0000
0010
M000
0010
0000
0001
0000
0100
0000
0010
0000
,
1001
0000
1000
0000
0001
0000
0100
0001
0010
0000
001M
0000
0010
0000
0001
0000
,
1001
0000
1000
0000
0010
0000
0100
0001
0100
0000
0001
0000
0001
0000
1000
0000
,
0001
0010
0000
0010
0100
0000
0100
1000
0000
1000
0010
0000
0100
0000
0001
0000
,
0100
000M
0100
0000
1000
0000
0010
M000
0010
0000
0001
0000
0100
0000
0010
0000
,
1001
0000
1000
0000
0001
0000
0010
0001
0100
0000
010M
0000
0100
0000
0001
0000
,
1001
1000
0100
1000
0100
0010
0001
0100
,
0001
0100
0000
0100
0010
0000
0010
1000
0000
1000
0100
0000
0010
0000
0001
0000
,
0200
0000
0000
0000
0301
0000
0001
0000
0001
0010
0001
0000
1000
0000
1000
0000
,
1000
0100
1000
0000
0010
0000
0010
0000
0010
0100
0010
0000
1000
0000
1000
0000
,
1000
0100
1000
0000
0001
0000
0001
0000
0001
0100
0001
0000
0010
0000
0010
0000
,
0010
0100
0010
0000
0100
0000
0100
0000
1000
0100
0010
0001
0000
0010
0100
1000
,
0001
0100
0001
0100
0010
1000
0010
1000
0100
1000
0100
1000
0001
0010
0001
0010
,
0100
0010
0100
0010
0100
1000
0100
1000
0001
0010
0001
0010
0001
1000
0001
1000
,
0001
0010
0100
1000
0010
0100
0001
0010
0100
1000
0010
0100
0001
0010
0100
0020
,
0031
0000
0000
0000
0001
0000
0100
0001
0100
0010
1000
0000
1000
0100
1000
0100
,
0010
0000
0010
0100
1000
0000
0010
0100
1000
0000
0100
0000
0001
0100
0010
0000
,
0010
0000
0100
0010
1000
0000
0100
0010
0001
0000
0100
0000
1002
0000
1000
0000
,
0103
0000
0010
1000
0100
0000
0000
1000
0010
0000
0100
0000
0011
0000
0100
0000
,
2010
0000
0000
0000
3001
0000
0100
0001
0100
0010
1000
0000
0001
0000
1000
0000
,
0100
0000
1000
0010
0100
0000
0100
0001
0020
0000
0000
0031
0100
0000
0010
0000
,
1000
0100
0000
0000
0100
0000
0010
0000
0001
0100
0001
0000
0010
0000
0010
0000
,
0001
0100
0000
0100
0010
0000
0010
1000
0000
1000
0100
0000
0010
0000
0100
0000
,
1001
0000
0000
0000
0011
0000
0000
0001
0010
0001
0100
0000
0010
1000
0010
0100
,
0001
0000
0100
0001
0010
0000
0100
1000
0020
0000
0000
0130
0001
1000
0001
0000
,
0010
0000
0010
0100
1000
0000
1000
0001
0010
0000
0012
0000
0103
0000
1001
0000
,
0010
0000
0100
0001
0010
0000
0100
1000
0010
0000
0100
0000
1001
0000
0210
0000
,
0320
0000
1030
0000
0001
0000
0010
0100
1000
0100
1000
0000
0020
0000
0230
0000
,
0301
0000
0001
0100
0010
0000
1000
0100
0020
0000
0000
0130
1000
0000
1001
0000
,
0001
0010
0001
0000
0001
0000
1000
0000
1000
0001
1000
0000
0100
0010
0001
0000
,
0200
0000
0000
0000
0010
0000
0000
0000
0010
0000
0000
0310
1000
0000
0100
0000
,
1001
0000
0000
0000
1001
0000
0001
1000
0010
0000
0100
0001
0010
0001
0100
0010
,
1000
0000
1000
0100
0010
0000
0010
0001
0100
0000
0010
0000
0100
0001
0010
0100
,
1000
0000
0010
0100
0001
0000
0010
0100
1000
0000
0001
0000
0011
0000
1000
0100
,
0010
0000
0000
0000
0010
0000
0001
0000
0100
0000
0000
0000
0010
0000
1000
0000
0100
1000
0100
0000
0010
0000
0001
0000
0100
0000
0010
0000
1000
0000
0000
0000
,
1010
0000
0001
0000
1000
0000
1000
0010
0100
0000
0001
0000
0010
0100
1000
0000
,
1000
0001
0100
0000
0001
0010
0100
0000
0001
0100
1000
0000
0001
0100
1000
0000
,
1000
0100
0010
0100
0001
0010
0100
1000
0010
0100
0001
0010
0100
1000
0001
0010
,
0200
0000
0000
0000
0000
0000
0000
0000
0300
0000
1000
0001
1000
0000
0001
0000
,
0001
0000
0000
0000
;

//--------------- dance-single - ----------------
#NOTES:
     dance-single:
     :
     Challenge:
     17:
     0,0,0,0,0:
0000
0000
0000
0000
,
0000
0000
0000
0000
,
0000
0000
0000
0000
,
0000
0000
0000
0000
,
0000
0000
0000
0000
,
0000
0000
0000
0000
,
0000
0000
0000
0000
,
0000
0000
0000
0000
,
0000
0000
0000
0000
0000
0000
0000
0000
0000
0000
1000
0100
1000
0000
0010
0000
,
0010
0000
0000
1000
1000
0100
0010
0001
,
1000
0000
0000
0000
0000
0000
0001
0010
0001
0000
1000
0000
0010
0000
0100
0000
,
0001
0000
0000
0000
0000
0000
0001
0010
0001
0000
1000
0000
0100
0000
0010
0000
,
0001
0000
0000
0000
0000
1000
0010
0100
,
0001
0000
0000
1000
1000
0010
0100
0001
,
0010
0000
0000
0000
0000
0000
0100
0010
0100
0000
1000
0000
0010
0000
0100
0000
,
0001
0000
0000
0000
0000
0000
0001
1000
0001
0000
1000
0000
0100
0000
0010
0000
,
0002
0000
2000
0000
0000
0000
0000
0000
3003
0000
0001
1000
0010
0000
0100
0000
,
1001
0000
1000
0001
0001
0010
0100
0010
,
0001
0000
0000
0000
1000
0000
0100
0010
0001
0000
0100
0000
0010
0000
1000
0000
,
0100
0000
0000
0000
0010
0000
0100
0010
0001
0000
0010
0000
0001
0000
1000
0000
,
0100
0000
0100
0000
0100
0010
0001
1000
,
0010
0000
0010
0100
0001
1000
0100
0010
,
0001
0000
0000
0000
0001
0000
1000
0100
0010
0000
0001
0000
1000
0000
0010
0000
,
0100
0000
0000
0000
0100
0000
0010
1000
0010
0000
0100
0000
0001
0000
1000
0000
,
0200
0000
0000
0000
0320
0000
0000
0000
0031
0010
0000
0001
0010
0000
0001
0000
,
1000
0100
1000
0000
0010
0100
0010
0000
1000
0100
1000
0000
0010
0100
0010
0000
,
1000
0001
1000
0000
0001
0010
0001
0000
0010
0100
0010
0000
0001
0010
0001
0000
,
1000
0100
1000
0000
0010
0100
0010
0000
1000
0100
1000
0000
0010
0100
0010
0000
,
1000
0001
1000
0000
0001
0010
0001
0000
0010
0100
0010
0100
0000
0010
0001
1000
,
0001
0100
0010
0000
1000
0100
0010
0000
0001
0100
0010
0000
1000
0010
0100
0000
,
0001
0100
0010
0000
1000
0001
0100
0000
0010
0100
0001
0000
1000
0001
0100
0000
,
0001
0000
0010
0000
0001
0000
0010
0000
0001
0000
0010
0000
0001
0000
0010
0000
0001
0000
0010
0000
0001
0000
0010
0000
0001
0000
0010
0000
0001
0000
0020
0030
,
0100
0000
0000
0000
1000
0000
0010
0100
0010
0100
0001
0000
1000
0100
1000
0100
,
0010
0000
0001
0010
0001
0000
1000
0010
1000
0010
0100
0000
0001
0100
0001
0100
,
0001
0010
0001
0010
0100
0000
1000
0100
1000
0100
0010
0000
0001
1000
0001
1000
,
0010
0000
1000
0000
0001
0000
1000
0000
0100
0000
0000
0000
0010
0000
0001
1000
0001
0000
0010
0000
0100
0000
1000
0000
0010
0000
0100
0000
0001
0000
1000
0000
,
0100
0000
0010
0001
0010
0000
0100
1000
0100
1000
0001
0000
1000
0001
1000
0001
,
0010
0000
0010
0100
1000
0000
1000
0001
1000
0001
0100
0000
0010
1000
0010
1000
,
0001
0100
0001
0100
0010
0000
0010
1000
0010
1000
0100
0000
0010
0001
0010
0001
,
1000
0010
0000
0010
0100
0000
0100
0001
0000
0001
0010
0000
0100
0000
0010
0000
,
1001
0000
0000
0000
0001
1000
0100
1000
0002
0000
0010
0000
0013
0100
0010
0100
,
1000
0000
0001
0100
0010
0000
1000
0100
0020
0000
0032
0000
1003
0000
1010
0000
,
0001
0000
0010
0001
0010
0000
0100
1000
0100
1000
0001
0000
0100
0010
0100
0010
,
1000
0000
0000
0000
0001
0000
0010
0000
0100
0000
0000
0000
1000
0000
0010
1000
0010
0000
0100
0000
0001
0000
1000
0000
0100
0000
1000
0000
0001
0000
0000
0000
,
1001
0000
0000
0000
0001
1000
0100
1000
0020
0000
0130
0000
0001
0100
0001
0100
,
0010
0000
0010
1000
0100
0000
0010
0001
0010
0001
1000
0100
0010
0000
0110
0000
,
0011
0000
0001
0000
1001
0000
1000
0100
1000
0010
0100
0000
0001
0010
0100
0010
,
0001
0100
0000
0100
0010
0000
0010
1000
0000
1000
0100
0000
0100
0010
0001
1000
,
1100
0000
0001
0000
0100
0010
1000
0010
0200
0000
0301
0000
0010
0001
0010
0100
,
1000
0000
1000
0100
0010
0000
0001
0100
0020
0000
1030
0000
0110
0000
0001
0000
,
1000
0100
1000
0100
0020
0000
0031
0100
0010
0100
0001
0000
1000
0000
0100
0010
,
0001
0000
0000
0000
0001
0000
1000
0001
1000
0000
0100
0000
1000
0000
0001
1000
0001
0000
0000
0000
0010
0000
0000
0000
0100
0000
0000
0000
0100
0000
0000
0000
,
1001
0000
0000
0000
0001
1000
0100
1000
0010
0000
0100
0001
1000
0001
0100
0001
,
0010
0100
1000
0001
0010
0100
1000
0001
0010
0100
1000
0100
0010
0001
1000
0010
,
0100
0001
0100
0001
0000
0000
1000
0001
1000
0001
0000
0000
0010
0001
0010
0001
0000
0000
1000
0100
1000
0200
0000
0000
,
0320
0000
0000
0000
0032
0000
0000
0000
0000
0000
1003
0100
1000
0000
0010
0000
,
0020
0000
0000
0000
,
2030
0000
0000
0000
3200
0000
0000
0320
,
0032
0000
0000
0000
,
0203
0000
0000
0000
0000
0000
0320
0000
2030
0000
3010
1000
0010
0000
0100
0000
,
0200
0000
0000
0000
,
0302
0000
0000
0000
0023
0000
0000
0230
,
2300
0000
0000
0000
,
3002
0000
0000
0000
0000
0003
0100
0010
0100
0010
0000
0010
0100
0000
0100
0000
,
1001
0000
0100
1001
0001
0000
1000
0000
,
0001
0000
0100
1001
0001
0000
0010
0001
,
1000
0000
0100
1001
1000
0000
0010
0000
,
0100
0010
0000
0100
0010
0000
0010
1000
0001
0000
1000
0001
1000
0000
0001
0000
,
0001
0000
0100
1001
0001
0000
1000
0000
,
0010
0000
1000
1001
0001
0000
0010
0100
,
1000
0000
0100
1001
0001
0000
1000
0000
,
0002
0000
2000
0000
0000
0000
0000
0000
3003
0000
0001
1000
0010
0000
0100
0000
,
1001
0001
1000
0001
0001
0010
0100
0010
,
0001
0000
0100
0000
1000
0000
0100
0010
1000
0000
0010
0000
1000
0000
0100
0000
,
0010
0000
0001
0000
1000
0000
0100
0010
0001
0000
1000
0000
0100
0000
0010
0000
,
0100
1000
0000
1000
0001
0000
0001
0100
0000
0100
0010
0000
1000
0000
0001
0000
,
0100
0001
0010
0100
0001
0100
0010
0001
,
0100
0000
1000
0000
0100
0000
0010
1000
0001
0000
1000
0000
0100
0000
0010
0000
,
0001
0000
0001
0000
0100
0000
0010
1000
0010
0000
0100
0000
0010
0000
1000
0000
,
0200
0000
0000
0000
0320
0000
0000
0000
0030
0000
0001
1000
0100
0000
1000
0000
,
0010
M000
0010
0000
0001
0000
0100
000M
0100
0000
1000
0000
0010
0000
0100
0000
,
1001
0000
0001
0000
1000
0000
0010
1000
0100
0000
M100
0000
0100
0000
1000
0000
,
1001
0000
0001
0000
0100
0000
0010
1000
0010
0000
1000
0000
1000
0000
0001
0000
,
1000
0100
0000
0100
0010
0000
0010
0001
0000
0001
0100
0000
0010
0000
1000
0000
,
0010
M000
0010
0000
0001
0000
0100
000M
0100
0000
1000
0000
0010
0000
0100
0000
,
1001
0000
0001
0000
1000
0000
0100
1000
0010
0000
M010
0000
0010
0000
1000
0000
,
1001
0001
0010
0001
0010
0100
1000
0010
,
1000
0010
0000
0010
0100
0000
0100
0001
0000
0001
0010
0000
0100
0000
1000
0000
,
0020
0000
0000
0000
1030
0000
1000
0000
1000
0100
1000
0000
0001
0000
0001
0000
,
0001
0010
0001
0000
0100
0000
0100
0000
0100
0010
0100
0000
0001
0000
0001
0000
,
0001
0010
0001
0000
1000
0000
1000
0000
1000
0010
1000
0000
0100
0000
0100
0000
,
0100
0010
0100
0000
0010
0000
0010
0000
0001
0010
0100
1000
0000
0100
0010
0001
,
1000
0010
1000
0010
0100
0001
0100
0001
0010
0001
0010
0001
1000
0100
1000
0100
,
0010
0100
0010
0100
0010
0001
0010
0001
1000
0100
1000
0100
1000
0001
1000
0001
,
1000
0100
0010
0001
0100
0010
1000
0100
0010
0001
0100
0010
1000
0100
0010
0200
,
1300
0000
0000
0000
1000
0000
0010
1000
0010
0100
0001
0000
0001
0010
0001
0010
,
0100
0000
0100
0010
0001
0000
0100
0010
0001
0000
0010
0000
1000
0010
0100
0000
,
0100
0000
0010
0100
0001
0000
0010
0100
1000
0000
0010
0000
2001
0000
0001
0000
,
3010
0000
0100
0001
0010
0000
0000
0001
0100
0000
0010
0000
1100
0000
0010
0000
,
0102
0000
0000
0000
1003
0000
0010
1000
0010
0100
0001
0000
1000
0000
0001
0000
,
0010
0000
0001
0100
0010
0000
0010
1000
0200
0000
0000
1300
0010
0000
0100
0000
,
0001
0010
0000
0000
0010
0000
0100
0000
1000
0010
1000
0000
0100
0000
0100
0000
,
1000
0010
0000
0010
0100
0000
0100
0001
0000
0001
0010
0000
0100
0000
0010
0000
,
1001
0000
0000
0000
1100
0000
0000
1000
0100
1000
0010
0000
0100
0001
0100
0010
,
1000
0000
0010
1000
0100
0000
0010
0001
0200
0000
0000
0310
1000
0001
1000
0000
,
0100
0000
0100
0010
0001
0000
0001
1000
0100
0000
2100
0000
3010
0000
1001
0000
,
0100
0000
0010
1000
0100
0000
0010
0001
0100
0000
0010
0000
1001
0000
0120
0000
,
0230
0000
0301
0000
1000
0000
0100
0010
0001
0010
0001
0000
0200
0000
0320
0000
,
1030
0000
1000
0010
0100
0000
0001
0010
0200
0000
0000
0310
0001
0000
1001
0000
,
1000
0100
1000
0000
1000
0000
0001
0000
0001
1000
0001
0000
0010
0100
1000
0000
,
0020
0000
0000
0000
0100
0000
0000
0000
0100
0000
0000
0130
0001
0000
0010
0000
,
1001
0000
0000
0000
1001
0000
1000
0001
0100
0000
0010
1000
0100
1000
0010
0100
,
0001
0000
0001
0010
0100
0000
0100
1000
0010
0000
0100
0000
0010
1000
0100
0010
,
0001
0000
0100
0010
1000
0000
0100
0010
0001
0000
1000
0000
1100
0000
0001
0010
,
0100
0000
0000
0000
0100
0000
1000
0000
0010
0000
0000
0000
0100
0000
0001
0000
0010
0001
0010
0000
0100
0000
1000
0000
0010
0000
0100
0000
0001
0000
0000
0000
,
0101
0000
1000
0000
0001
0000
0001
0100
0010
0000
1000
0000
0100
0010
0001
0000
,
0001
1000
0010
0000
1000
0100
0010
0000
1000
0010
0001
0000
1000
0010
0001
0000
,
0001
0010
0100
0010
1000
0100
0010
0001
0100
0010
1000
0100
0010
0001
1000
0100
,
0020
0000
0000
0000
0000
0000
0000
0000
0030
0000
0001
1000
0001
0000
1000
0000
,
1000
0000
0000
0000
;
