#TITLE:Rewind;
#SUBTITLE:;
#ARTIST:Audiofreq;
#TITLETRANSLIT:;
#SUBTITLETRANSLIT:;
#ARTISTTRANSLIT:;
#GENRE:;
#CREDIT:Z-Axis;
#MUSIC:Rewind.ogg;
#BANNER:bn.png;
#BACKGROUND:bg.png;
#CDTITLE:;
#SAMPLESTART:66.937;
#SAMPLELENGTH:12.706;
#SELECTABLE:YES;
#OFFSET:-0.584;
#BPMS:0.000=170.000;
#STOPS:182.750=0.353;
#BGCHANGES:;
#FGCHANGES:;

//--------------- dance-single - ----------------
#NOTES:
     dance-single:
     :
     Challenge:
     17:
     0,0,0,0,0:
0000
0000
0000
0000
,
0000
0000
0000
0000
,
0000
0000
0000
0000
,
0000
0000
0000
0000
,
0000
0000
0000
0000
,
0000
0000
0000
0000
,
0000
0000
0000
0000
,
0000
0000
0000
0000
0000
0000
0000
0000
0000
0000
0000
1000
0001
0000
1000
0000
,
0001
0010
0100
1000
1000
0000
0010
0100
,
0100
0000
0000
0010
0100
0000
0100
0000
1001
0000
0000
0000
0100
0000
0010
0000
,
0010
0000
0000
0100
0010
0000
0010
0000
1001
0000
0000
0000
1000
0000
0001
0000
,
0001
0000
0100
0001
1000
0100
0010
0000
0100
0000
0100
0000
1000
0000
0000
0000
,
0100
0010
0010
0001
1000
0000
1000
0001
,
0100
0000
0000
0010
0100
0000
0100
0000
0010
0000
0000
0000
1000
0000
0001
0000
,
0010
0000
0000
0001
0010
0000
0010
0000
0001
0000
1000
0000
1000
0000
0001
0000
,
0010
0100
0000
0100
0000
0000
1000
0000
0001
1000
0000
0001
0000
1000
0001
1000
,
0200
0000
0000
0310
0100
0000
0010
0000
0002
0000
0000
0013
0001
0000
1000
0000
,
2000
0000
0000
3010
1000
0000
0001
0000
0002
0000
0000
0013
0100
0000
1000
0000
,
2000
0000
0000
3010
0100
0000
0010
0000
2000
0000
0000
3001
0010
0000
0100
0000
,
0200
0000
0000
0310
0100
0000
0010
0001
0100
0000
0010
0000
0010
0000
0100
0000
,
0001
1000
0001
1000
0001
1000
0001
1000
0010
0100
0010
0100
0010
0100
0010
0100
,
0001
0010
0001
0010
0001
0010
0001
0010
0100
1000
0100
1000
0100
1000
0100
1000
,
0010
1000
0010
1000
0000
0000
0010
1000
0010
1000
0000
0000
0001
0100
0001
0100
0000
0000
0001
1000
0001
1000
0000
0000
,
0002
0000
0203
2300
0000
3002
0000
0023
2030
0000
3200
0000
0302
0000
1003
0000
,
0110
0001
0010
0100
1001
1000
0001
0010
,
1100
0000
0000
1001
0000
0000
0110
0000
1001
0000
1000
0000
0001
0000
1000
0100
,
0010
0000
0000
0110
0000
0000
0001
0000
1001
0000
1000
0000
0010
0000
0110
0000
,
0101
0000
0000
0001
0010
0000
0001
0000
2100
0000
0000
0000
3001
0000
0100
0000
,
0110
0000
0010
0000
1000
0000
0001
0000
0001
1000
0100
0000
1000
0000
1001
0000
,
0101
0000
0000
0110
0000
0000
1000
0000
1001
1000
0001
0000
0100
0000
0100
0001
,
0010
0000
0000
0110
0000
0000
0001
0000
1100
0000
0001
0000
1000
0000
0001
0000
,
2000
0000
0000
0000
0000
0000
3001
0100
0001
0100
0000
0000
0020
0000
0000
0000
0000
0000
0000
0000
0000
0030
0000
0000
,
1001
0000
0011
0000
0110
0000
0100
0000
1000
0010
0100
0000
0001
0000
0001
0000
,
0100
0000
0001
0100
0000
0010
0100
0000
0010
0000
1000
0001
1000
0000
0100
0000
,
0010
0000
0001
1000
0100
0000
1000
0000
1001
0000
0000
0000
1000
0000
0010
0000
,
0100
0000
0010
1000
0100
0000
0010
0000
0200
0000
0010
0000
0310
0000
0000
0000
,
0110
1100
0110
1100
,
1001
0101
1001
0101
,
0110
0010
1010
1000
1001
0001
0011
0010
,
0210
0000
0000
0000
0320
0000
0032
0000
2003
0200
3000
0302
0000
0203
0000
1300
,
0010
1000
0010
0010
,
0100
0000
0000
0000
0100
0000
0000
0000
1000
0100
0000
0100
1000
0000
0100
0000
,
0001
0000
0000
0000
0000
0000
0010
0000
0000
0001
0000
0000
0000
0000
0000
0000
0000
0000
0001
0000
0000
0000
0000
0000
0001
0000
0000
0000
0000
0000
1000
0000
0000
0100
0000
0000
1000
0000
0001
0000
1000
0000
0001
0000
0000
0000
0000
0000
,
1000
0000
0010
1000
0010
0000
1000
0000
0001
0020
0000
0230
0000
0000
0301
0000
,
1000
0010
1000
0010
0001
0010
0001
0010
0100
0010
0100
0010
0001
1000
0001
1000
,
0010
0000
0000
0000
0000
0000
1000
0000
0000
0000
0000
0000
0010
0000
0000
0000
0000
0000
1000
0000
0000
0000
0000
0000
0001
0000
0000
0000
0000
0000
0100
0000
0000
0000
0000
0000
0001
0000
0000
0000
0000
0000
0100
0000
0000
0000
0000
0000
0010
0000
0000
0000
0000
0000
0100
0000
0000
0000
0000
0000
0010
0000
0000
0000
0000
0000
2000
0000
0000
3000
0000
0000
0001
0000
0000
0000
0010
0000
0000
0000
0001
0000
0000
0000
0010
0000
0000
0000
0000
0000
0000
0000
0000
0000
0000
0000
,
0001
1000
0001
1000
0000
0000
0010
1000
0010
1000
0000
0000
1000
0001
1000
0001
0000
0000
0100
0000
0000
0000
0000
0000
,
0000
0000
0001
0010
0001
0000
0010
0000
0010
0000
0000
0000
0011
0000
1000
0000
,
1010
0000
0100
0000
0001
0010
0100
0000
1100
0000
0001
0000
0100
0000
0001
0100
,
0010
0000
1000
0000
1001
0000
0001
0000
0010
0000
0110
0000
1001
0000
1000
0100
,
1000
0100
1100
0001
0100
0001
0010
001M
,
0010
0000
0010
0000
1000
0000
0100
0010
0000
0001
1000
0000
1001
0000
0100
0000
,
1001
0000
0001
0000
0010
0001
0010
0000
1100
0000
0010
0000
0001
0000
1000
0100
,
1000
0000
0010
0000
0101
0000
1000
0000
0101
0000
0001
0010
0100
0000
1000
0100
,
0010
0001
0011
1000
0001
0000
0002
0203
,
2300
0000
3200
0000
0302
2000
0003
3200
0000
0302
0000
0103
1000
0000
MMMM
0000
,
1001
0000
0001
0000
1000
0100
0010
0000
0110
0000
0100
0000
0010
0000
0001
0100
,
0010
0000
1000
0000
1001
0000
0001
0000
0100
0000
0110
0000
1001
0000
1000
0100
,
0010
0001
0011
1000
0010
1000
0100
M100
,
0100
0000
0100
0000
0001
0000
0010
0100
0000
1000
0001
0000
1001
0000
0010
0000
,
1001
0000
1000
0000
0100
1000
0100
0000
0011
0000
0100
0000
1000
0000
0001
0010
,
0001
0000
0100
0000
1010
0000
0001
0000
1010
0000
1000
0100
0010
0000
0001
0010
,
0100
0000
1000
0000
1100
0000
0001
0000
1000
0000
0100
0000
0010
0001
0100
0000
,
0010
1000
0100
0000
0010
0001
0100
1000
0100
0010
1000
0000
0001
0000
0000
0000
,
0010
0100
1000
0100
,
0010
0000
0001
0000
0010
0100
0010
0000
,
0001
0010
0100
1000
,
0001
0000
1000
0001
1000
0001
1000
0000
,
0001
0100
0010
1000
,
0010
0000
0200
0000
0310
1000
0100
0000
,
0100
0010
0100
0000
0100
0010
0100
0000
,
0000
0000
0000
0000
1000
0000
1000
0001
1000
0001
1000
0000
0001
0000
0000
0000
,
0010
0000
0100
1000
0000
0001
0100
0010
,
0000
0000
0010
1000
0010
0000
1000
0000
0010
0000
1000
0000
0001
0000
0000
0000
,
0010
0000
0000
0000
0100
0000
1000
0000
0000
0000
0001
0010
0001
0000
0100
0000
,
0001
0000
0000
0000
0000
0000
0010
0000
0000
0000
0000
0000
0100
0000
0000
1000
0000
0000
0010
0000
0000
0000
0000
0000
0100
0000
0000
0001
0000
0000
0100
0000
0001
0000
1000
0000
0001
0000
0000
0000
0000
0000
0000
0000
0000
0000
0000
0000
,
1000
0000
0100
0010
0000
0001
0010
0100
,
0000
0000
1000
0100
1000
0000
0100
0000
1000
0000
0001
0000
1000
0000
0000
0000
,
0010
0000
0000
0000
0100
0000
0001
0000
0000
0000
0010
0001
0010
0000
0001
0000
,
1000
0000
0100
0000
0010
0001
0100
0000
0010
0000
0000
0000
0110
0000
0000
0000
,
1001
0000
1020
1000
0030
0100
0001
0010
,
0000
0000
0001
1000
0100
0000
0100
0000
1000
0000
0010
0000
0100
0000
0000
0000
,
0101
0000
0000
0000
0012
0000
0010
0000
0003
0000
0010
0100
1000
0000
0100
0000
,
0010
0000
0000
0000
0000
0000
0001
0000
0000
0000
0000
0000
0010
0000
0000
0001
0000
0000
0100
0000
0000
0000
0000
0000
0001
0000
1000
0000
0001
0000
1000
0000
0000
0001
0000
0000
1000
0000
0000
0000
0000
0000
0000
0000
0000
0000
0000
0000
,
1100
0000
0120
0001
0030
0001
0100
0010
,
0000
0000
0100
0001
0100
0000
0001
0000
0100
0000
0010
0000
1010
0000
0000
0000
,
1001
0000
0000
0000
0000
0000
0000
0000
0000
0000
0000
0000
0011
0000
0000
0000
0000
0000
0010
0000
0000
0000
0000
0000
0001
0000
0000
1000
0000
0000
0001
0000
1000
0000
0001
0000
1000
0000
0000
0000
0000
0000
0100
0000
0000
0000
0000
0000
,
0010
0000
0001
0000
0100
0010
1000
0000
0002
0000
0000
0000
1003
0100
0001
0000
,
0200
0000
0000
0000
0301
0100
1000
0000
0200
0000
0000
0000
1300
0100
0010
0000
,
0002
0000
0000
0000
0103
0010
1000
0000
0200
0000
0000
0000
1300
0010
0001
0000
,
0020
0000
0000
0000
0031
0010
1000
0000
0200
0000
0000
0000
0310
0100
1000
0000
,
0200
0000
0300
0000
1100
0000
1001
0000
0110
0000
0101
0000
0001
0010
0001
0000
,
1000
0000
0000
0100
0000
0000
1000
0000
0000
0000
0000
0000
0001
0000
0000
0010
0000
0000
0001
0000
0000
0000
0000
0000
1000
0000
0000
0100
0000
0000
1000
0000
0000
0000
0000
0000
0001
0000
1000
0000
0001
0000
1000
0000
0000
0001
0000
0000
,
0100
0000
0001
0000
0100
0000
0001
0000
0000
1000
0000
0000
0010
0000
1000
0000
0010
0000
1000
0000
0000
0001
0000
0000
0100
0000
0000
0001
0000
0000
0100
0000
0000
0001
0000
0000
1000
0000
0000
0100
0000
0000
0010
0000
0000
0001
0000
0000
,
0010
0000
0000
0100
0000
0000
1000
0000
0000
0010
0000
0000
1000
0000
0001
0000
1000
0000
0001
0000
1000
0000
0001
0000
1000
0000
0001
0000
1000
0000
0001
0000
1000
0000
0001
0000
1000
0000
0000
0100
0000
0000
0010
0000
0000
0001
0000
0000
,
0000
0000
0000
0000
0000
0000
0000
0001
0010
0100
1000
0000
1001
0000
0100
0000
,
1001
0000
1000
0000
0001
0100
0010
0000
1000
0000
0010
1000
0100
0000
1001
0000
,
0001
0000
0010
0001
1000
0000
0100
0000
0110
0000
1000
0000
0001
0100
1000
0000
,
0100
0010
1000
0000
0010
0000
0110
0000
0100
0000
0001
0010
0100
0000
0001
0000
,
0100
0000
1000
0000
0010
0100
0001
0000
0101
0000
0001
0000
1000
0100
0001
0000
,
0100
1000
0001
0000
0010
0000
0110
0000
0100
0000
1000
0010
0100
0000
0001
0000
,
0101
0000
0001
0010
0100
0000
1000
0000
1100
0000
0001
0000
1000
0010
0001
0000
,
1000
0100
0010
0000
0100
0000
0101
0000
1000
0000
0001
0010
0200
0300
0002
0003
,
2000
0000
0000
3000
0000
0000
0020
0000
0000
0030
0000
0000
0001
0000
0000
0100
0000
0000
0010
0000
0000
0000
0000
0000
1000
0000
0010
0000
1000
0000
0010
0000
0000
0000
0000
0000
0101
0000
0000
0000
0000
0000
1000
0000
0000
0000
0000
0000
,
1100
0000
0001
0000
0100
0010
1000
0000
1010
0000
0010
0000
0100
0001
0010
0000
,
0110
0000
0010
0001
1000
0000
0010
0000
1010
0000
1000
0000
0001
0010
0100
0000
,
0001
0100
0010
0000
0011
0000
1000
0000
0100
0000
0010
0001
0100
0000
0010
0000
,
0110
0000
1000
0000
0001
0100
0010
0000
1000
0100
0010
0000
0011
0000
0001
0000
,
1001
0000
1000
0000
0001
0100
1000
0000
1001
0000
1000
0100
0010
0000
1000
0000
,
0110
0000
0001
0000
1000
0100
0001
0000
1001
0000
0001
0100
0010
0000
0001
0000
,
0011
0000
0010
0000
0100
1000
0010
0000
0110
0000
0010
1000
0100
0010
0001
0000
,
0020
0000
2030
0000
3002
0200
0003
2300
0000
3020
0000
0130
0001
0000
0000
0000
;
