#TITLE:Peaceful Romancer - It's Better To Burn Out Than To Fade Away;
#SUBTITLE:;
#ARTIST:Demetori;
#TITLETRANSLIT:;
#SUBTITLETRANSLIT:;
#ARTISTTRANSLIT:;
#GENRE:;
#CREDIT:z-axis;
#MUSIC:Peaceful Romancer - It's Better To Burn Out Than To Fade Away.ogg;
#BANNER:;
#BACKGROUND:;
#CDTITLE:;
#SAMPLESTART:167.696;
#SAMPLELENGTH:25.362;
#SELECTABLE:YES;
#OFFSET:-0.426;
#BPMS:0.000=152.000;
#STOPS:;
#BGCHANGES:;
#FGCHANGES:;

//--------------- dance-single - ----------------
#NOTES:
     dance-single:
     :
     Hard:
     10:
     0,0,0,0,0:
0000
0000
0000
0000
,
0000
0000
0000
0000
,
0000
0000
0000
0000
,
0000
0000
0000
0000
,
0000
0000
0000
0000
,
0000
0000
0000
0000
,
0000
0000
0000
0000
,
0000
0000
0000
0000
,
1000
0100
1000
0100
1000
0100
1000
0100
,
1000
0000
1000
0000
1000
0000
1000
0000
1000
0000
1000
0000
1000
0000
1000
0001
,
0100
0001
0100
0001
0100
0001
0100
0001
,
1000
0000
0010
0000
0010
0000
0010
0000
0010
0000
0010
0000
0010
0000
0010
1000
,
0001
1000
0010
1000
0010
1000
0010
1000
,
0001
0001
0001
0001
0001
0001
0004
0000
,
2003
0000
3002
0000
,
0023
0000
0230
0000
,
1300
0000
0000
0000
,
0000
0000
0000
0000
,
0001
0010
0001
1000
0010
1000
0010
1000
,
0001
0010
0001
0010
0100
1000
0100
1000
,
0010
0000
0100
0000
0001
0000
1000
0000
0010
0000
0000
0100
0000
0000
0010
0000
,
1000
0000
0001
0000
0001
0000
0000
0000
1000
0000
0000
0100
0000
0000
0010
0000
,
0001
0010
0100
0010
0001
0100
0010
0100
,
0001
1000
0010
1000
0010
0100
0010
0100
,
0001
1000
0001
0010
0001
0100
0010
1000
,
0100
0010
0100
1000
0100
0010
0001
1000
,
0001
0100
0010
0100
0001
0010
0100
0010
,
0001
0100
0001
1000
0001
0010
0100
1000
,
0010
0000
0100
0000
0100
0000
0000
0000
0001
0000
0000
0010
0000
0000
0100
0000
,
1000
0000
0001
0000
0001
0000
0000
0000
1000
0000
0000
0010
0000
0000
0100
0000
,
0001
0010
0100
1000
0010
1000
0001
0010
,
0100
1000
0100
0010
0001
0100
0010
1000
,
0100
1000
0100
0010
0100
1000
0100
0010
,
0200
0000
0000
0000
0000
0000
0000
0000
1300
0001
1000
0001
1000
0001
1000
0001
,
2000
0000
0010
3002
,
0203
0000
0320
2030
,
3020
0000
0230
0000
,
0302
0000
0000
0000
0000
0000
0000
0000
1003
0001
1000
0001
1000
0001
1000
0001
,
0200
0000
0001
0320
,
2030
0000
3002
0203
,
0302
0000
2003
0000
,
3200
0000
0010
0000
0310
0000
0000
0000
0001
1000
0001
1000
0001
1000
0001
1000
,
0002
0000
0000
0000
0000
0000
0013
0000
0100
0000
1000
0001
1000
0000
0100
0000
,
0010
0000
0001
0010
0001
0000
0001
0000
,
1000
0000
0100
0100
1000
0000
0001
0010
,
0200
0000
0000
0310
0100
1000
0010
0100
,
0002
0000
0000
0000
0000
0000
0013
0000
0100
0000
1000
0001
1000
0000
0100
0000
,
0010
0000
0001
0010
0001
0000
0001
0000
,
1000
0000
0010
0010
1000
0000
0001
0000
,
2000
0000
0000
0000
0000
0000
0000
0000
3001
0000
0001
1000
0001
1000
0001
1000
,
0002
0000
0000
0000
0000
0000
0013
0000
0100
0000
1000
0001
1000
0000
0100
0000
,
0010
0000
0001
0010
0001
0000
0001
0000
,
1000
0000
0100
0100
1000
0000
0001
0010
,
0200
0000
0000
0310
0100
1000
0010
0100
,
0002
0000
0000
0000
0000
0000
0013
0000
0100
0000
1000
0001
1000
0000
0100
0000
,
0010
0000
0001
0010
0001
0000
0001
0000
,
1000
0000
0010
0010
1000
0000
0001
0000
,
2000
0010
0010
3100
,
1000
0010
0100
0001
0100
0001
1000
0100
,
0010
0100
0010
0100
1000
0010
0100
0001
,
0010
0001
0010
0001
0100
0010
0100
0010
,
1000
0010
1000
0010
0100
0001
0010
0100
,
1000
0010
0100
0010
1000
0001
0010
0100
,
0010
0001
0010
0001
0100
0001
1000
0010
,
0100
0000
0001
0000
0001
0000
0000
0000
1000
0000
0000
1000
0000
0000
1000
0000
,
0002
0000
0000
0000
0013
0100
1000
0001
,
2000
0000
0000
0000
0000
0000
3100
0000
0010
0000
0001
1000
0001
0000
0010
0000
,
0100
0000
1000
0000
0001
0100
0001
0000
1000
0000
0001
1000
0000
0001
1000
0000
,
0001
0000
0100
0000
0010
0000
0100
0000
0001
0000
1000
0001
0000
1000
0100
0000
,
0020
0000
0000
0000
0000
0000
0130
0000
0010
0001
0010
0000
0100
1000
0001
0000
,
2000
0000
0010
0000
0000
0000
3100
0000
0010
0000
0001
1000
0001
0000
0010
0000
,
0100
0000
0010
0000
0001
0100
0001
0000
1000
0000
0010
1000
0000
0001
1000
0000
,
0100
0000
0010
0000
0100
0010
0100
0000
1000
0000
0001
0000
1000
0001
1000
0000
,
0002
0000
0000
0023
,
0230
0000
0000
2300
0000
0000
3020
0000
,
0230
0000
0000
0302
0000
0000
2003
0000
,
3200
0000
0000
2300
0000
0000
3020
0000
,
0130
0001
0100
0010
1000
1000
0001
0100
,
0020
0000
0000
0230
0000
0000
0302
0000
,
0023
0000
0000
0230
0000
0000
2300
0000
,
3020
0000
0000
0230
0000
0001
0302
0000
,
1003
0000
0100
0010
0001
0010
0100
1000
,
1010
0000
0000
0110
0000
0000
0101
0000
,
1001
0000
0000
1010
0000
0000
0110
0000
,
0101
0000
0000
1001
0000
0000
1100
0000
,
0110
0000
0000
0011
0000
0000
1000
0100
,
0020
0000
0001
0032
0010
0000
0023
0000
,
0230
0000
1000
2300
0010
0000
3020
0000
,
2030
0000
0100
0100
0100
0100
0100
3100
,
0010
0000
0000
0001
0000
0000
1000
0000
1001
0000
0000
0000
0000
0000
0000
0000
,
2001
0000
0000
0000
3001
0100
0001
0100
0020
0000
0000
1000
0030
0000
1000
0000
,
2010
0000
0000
0000
3100
0010
0100
0010
0002
0000
0000
0010
0003
0000
0010
0000
,
0012
0000
0000
0000
1003
0100
1000
0100
0020
0000
0000
0001
0000
0000
0031
0000
,
0011
0000
0000
0000
1000
0001
1000
0001
0100
0000
0000
0000
0020
0000
0000
0000
,
0230
0000
0000
0000
0301
0100
0001
0100
0020
0000
0000
1000
0030
0000
1000
0000
,
2100
0000
0000
0000
3001
0010
0001
0010
0200
0000
0000
1000
0300
0000
1000
0010
,
0200
0000
0000
0000
0301
0100
0001
0100
0010
0000
0000
1000
0000
0000
0010
0000
,
0110
0000
0000
0000
0100
0001
0100
0001
0010
0000
0000
0100
0000
0000
1000
0000
,
1100
0000
0100
0000
1000
0000
0010
0000
0100
0000
0001
0100
0000
0001
0100
0000
,
0010
0000
1000
0000
0100
0000
1000
0000
0001
0000
0100
0001
0000
0100
0001
0000
,
1000
0000
0100
0000
1000
0000
0010
0000
0100
0000
0010
1000
0000
0010
1000
0000
,
0001
0000
1000
0000
0100
0000
0010
0000
0001
0000
0001
0010
0000
0010
0001
0000
,
1000
0000
0010
0000
0100
0000
0001
0000
0010
0000
0001
0010
0000
0001
0010
0000
,
0100
0000
1000
0000
0010
0000
0100
0000
0010
0000
1000
0010
1000
0000
0010
1000
,
0002
0000
0100
0100
0100
0100
0103
0100
,
0020
0000
0000
0000
1030
0100
0010
0001
,
1000
0010
0100
0010
1000
0100
0010
0100
,
1000
0010
0100
0010
1000
0001
0100
0001
,
0010
0001
0010
0001
0100
0010
0100
0001
,
0100
0010
0100
0001
0100
0010
1000
0100
,
0010
0001
0010
0001
0100
0010
0100
0001
,
1000
0000
0010
0000
1000
0000
0010
0000
0100
0000
0001
0000
0010
0000
0100
1000
,
0010
0000
1000
0000
1000
0000
0010
0000
0100
0000
0000
0001
0000
0000
1000
0000
,
1000
0000
0100
0000
1000
0000
0001
0000
1000
0001
1000
0001
1000
0001
1000
0001
,
1000
0100
1000
0100
0010
0001
0010
0001
,
1000
0100
1000
0100
0010
0100
0010
0001
,
0100
0000
0001
0000
0100
0000
0001
0000
1000
0000
0001
0000
1000
0010
0100
0000
,
0001
0010
0100
0010
0001
0100
0010
1000
,
0010
0100
0010
0100
0001
1000
1000
0001
,
0100
0010
1000
0010
1000
0001
0010
0100
1000
0001
0000
0000
,
2002
0000
0000
0000
0000
0000
0000
0000
0000
0000
0000
0000
0000
0000
0000
0000
3000
0000
0000
0000
1000
0000
0000
0000
0000
0000
1000
0000
0000
0000
0000
2000
,
0000
0000
0000
0000
,
3003
0000
0000
0000
,
0000
0000
0000
0000
,
0000
0000
0000
1001
0000
0000
0000
0000
,
0000
0000
0000
0000
,
0000
0000
0000
0000
,
0000
0000
0000
0000
0001
0001
0001
0001
,
1000
0100
1000
0001
0010
0001
1000
0010
,
1000
0001
0100
0001
0010
0100
1000
0001
,
0010
0100
0010
0001
1000
0010
0100
0001
,
1000
0100
0010
0001
0100
0001
0010
0100
,
1000
0010
0010
1000
0001
0001
1000
0100
,
0100
1000
0001
0001
0100
0010
1000
0001
,
1000
1000
0001
0010
0010
0001
1000
0010
,
0010
0100
0001
0100
0010
1000
0100
0010
,
0001
0001
0001
1000
0000
1000
0001
0000
,
1000
0100
0010
0001
0000
0001
0010
0100
,
0100
0000
0100
0000
0010
0000
0001
0000
0100
0000
0010
0000
1000
0001
0100
0000
,
0010
0000
1000
0000
0010
0010
0100
0000
,
0001
0010
0010
0100
1000
0000
1000
0001
,
0100
0000
0010
0000
1000
0000
0100
0000
0010
0000
0100
0000
1000
0001
0010
0000
,
0100
0000
1000
1000
0001
1000
0010
0000
,
0100
0001
1000
0010
0100
0100
0010
1000
,
1000
0000
0100
0000
0010
0000
0010
0000
0001
0000
0100
0000
0001
0100
0010
1000
,
0001
0000
0010
0000
0100
1000
0010
1000
,
0001
1000
0010
1000
1010
0000
0010
0100
,
0001
0000
0000
0010
0000
0000
0100
0000
0000
0000
0000
0000
0010
0000
0001
0000
0100
0000
0010
0000
1000
0000
0100
0000
,
0010
0000
0001
0000
0100
0000
0001
0000
0010
0000
0100
0000
0120
0000
0000
0000
0000
0000
0000
0000
0000
0001
0000
0000
,
0001
0000
0100
0100
0000
0001
0030
0001
,
0100
0010
0000
1000
1002
0000
0000
0010
,
0010
0000
0000
0000
1000
0000
1000
0000
0000
0000
1000
0000
0003
0000
0001
1000
,
0100
0010
0100
1000
2100
0000
0000
0001
,
0001
0000
0100
0100
0000
0001
3000
0001
,
0100
0010
0000
0010
0210
0000
0000
0001
,
0001
0000
0000
0000
0010
0000
0010
0000
0000
0000
0001
0000
0300
0000
0001
0010
,
0100
0000
1000
0000
0010
0000
0100
0001
2000
0000
0000
0000
0000
0000
0001
0000
,
0001
0000
0010
0010
0000
3001
0000
0001
,
1000
0100
0000
1000
1020
0000
0000
0100
,
0100
0000
0000
0000
1000
0000
1000
0000
0000
0000
0100
0000
0030
0000
1000
0001
,
0010
0001
0100
0010
0210
0000
0000
0001
,
0001
0000
0010
0010
0000
0301
0000
1000
,
0001
0010
0000
0001
1002
0000
0000
0100
,
0100
0000
0010
0010
0013
0100
0010
0001
,
0100
0100
0100
0100
0120
0000
2030
0001
,
3002
0000
2003
0010
0000
0010
0000
3001
,
1000
0100
0000
0010
0012
0000
0023
0100
,
0230
0000
0000
0000
2300
0000
0010
0000
0000
0000
0001
0000
3000
0000
0001
0100
,
0010
1000
0001
1000
1020
0000
0230
0001
,
0302
0000
0023
0001
0000
0001
0000
0031
,
2000
0100
0000
3100
0120
0000
0000
0100
,
0100
0000
0032
1000
0003
1000
0200
0000
,
0310
0000
0001
0000
0100
0000
0010
0000
1000
0000
0001
0000
0100
0000
0000
0000
0000
0000
0010
0000
0000
0010
0000
0000
,
1000
0000
0100
1000
0000
0001
0001
0001
,
1000
0100
1000
1000
1010
0000
0010
0100
,
0001
0000
0010
0010
0000
0001
0001
0100
,
0001
0000
0001
1000
0100
0000
0100
0000
0110
0000
0000
0000
0010
0000
0001
0000
,
1000
0000
0010
0010
0000
1000
1000
1000
,
0001
0000
1000
0000
0001
0000
1000
0100
0010
0000
0000
0000
0100
0000
0100
0000
,
0100
0000
0100
0000
0100
0000
0100
0000
1000
0000
0001
1000
0001
1000
0001
1000
,
0001
0100
0010
1000
0001
0100
0010
1000
0001
0000
0000
0100
0000
0000
0010
0000
,
0000
0100
0000
0000
0001
0000
0000
0010
0000
0000
0100
0000
0000
0000
1000
0010
,
0100
0010
1000
0001
0010
0100
1000
0100
,
0010
0001
1000
0001
0100
0010
1000
0001
,
0010
0100
1000
0010
0200
0000
0301
0020
,
0000
0000
0000
0000
0230
0000
0000
2300
0000
0000
0000
0000
3010
0000
0200
0000
,
0000
0302
0000
1003
0020
0000
0000
0230
,
0000
0000
0320
0000
2030
0000
3100
0010
,
0001
0100
0010
1000
0200
0000
0000
0000
,
0310
0000
0001
1000
0200
0000
0000
0000
0000
0000
0000
0310
0001
0000
2000
0000
,
0000
3000
0001
0020
0000
0001
0000
0001
,
0030
0000
0002
0000
0103
0000
0010
0000
1000
0000
0000
0100
0000
0000
1000
0000
,
0000
0000
1100
0000
0000
0000
1000
0010
0100
0000
0000
0001
0000
0000
0020
0000
,
0000
0000
0000
0000
0000
0000
0031
0100
0010
0000
0000
1000
0000
0000
0010
0000
,
0000
0100
0001
0020
0000
0000
0130
0040
,
0000
0000
0000
0000
,
0000
0000
0000
0030
0002
1000
0000
2003
,
0000
0100
3200
0010
0320
0001
0000
0032
,
0000
1000
2003
0010
3020
0100
0000
2030
,
0000
0001
3002
0000
0013
0100
1000
0100
,
0010
0000
0001
0000
1000
0001
0010
0100
2000
0000
0010
0000
0000
0000
3020
0000
,
0000
1000
2030
0100
3200
0010
0000
0320
,
0000
0001
0032
0000
0203
0010
0000
0320
,
0000
0000
1030
0001
0200
0000
0000
0000
0301
0000
0000
0000
1000
0001
1000
0001
,
0100
0001
1000
0010
0100
0001
1000
0100
1000
0000
0000
0000
0000
0000
1010
0000
,
0000
0000
0110
0000
1001
0000
0000
0101
,
0000
0000
0110
0000
1010
0000
0000
1001
,
0000
0000
0011
0000
0110
0000
0100
1000
,
1000
0001
1000
0001
1000
0010
0100
0001
0200
0000
0010
0000
0000
0000
0302
0000
,
0000
1000
2003
0010
3020
1000
0000
2030
,
0000
0100
3200
0000
0320
0000
0000
0001
,
0000
0000
0000
0130
0000
0000
0010
0001
1000
0010
0100
0010
,
0100
0000
1001
0000
,
0000
0000
0000
0000
,
0000
0000
0000
0000
,
0000
0000
0000
0000
,
0000
0000
0000
0000
,
0000
0000
0000
0000
,
0000
0000
0000
0000
,
0000
0000
0000
0000
,
0000
0000
0000
0000
1000
0100
1000
0100
,
1000
0100
1000
0100
1000
1000
1000
1000
,
1000
0000
1000
0000
1000
0000
1000
0001
0100
0000
0001
0000
0100
0000
0001
0000
,
0100
0001
0100
0001
1000
0010
0010
0010
,
0010
0000
0010
0000
0010
0000
0010
1000
0001
0000
1000
0000
0010
0000
1000
0000
,
0010
1000
0010
1000
0001
0001
0001
0001
,
0002
0000
0023
0000
,
0000
0000
0000
0000
0000
0000
0130
1000
0010
0100
0001
0010
,
0100
0000
1000
0000
0010
0000
0100
0000
0001
0000
1000
0000
0001
0000
0000
0010
0000
0000
0100
0000
0000
0010
0000
0000
,
0001
0100
0010
0100
0001
0010
0100
0010
,
0001
1000
0100
1000
0010
1000
0010
1000
,
0100
0010
0100
1000
0100
0010
0100
1000
,
0100
0010
0001
0100
0010
1000
0010
1000
,
0100
0010
0100
1000
0001
0010
0001
0010
,
0100
1000
0010
0100
0001
0100
0001
0010
,
0001
1000
0001
0010
0001
0100
0001
0010
,
0001
0000
1000
0000
0001
1000
0001
1000
0001
0000
0100
0000
0001
0000
0100
0000
,
0010
1000
0010
1000
0001
0100
0001
0100
,
0010
0100
0010
1000
0100
1000
0100
1000
,
0001
1000
0001
0010
0100
1000
0010
0100
,
0001
0100
0010
1000
0010
0100
0010
0100
,
0001
1000
0001
1000
0010
1000
0010
1000
,
0100
0010
0100
0010
0110
0000
0000
1100
,
0000
0000
0000
0000
1001
0000
0000
0000
1100
0000
0100
0010
0100
0010
0100
0010
,
0100
0010
0001
1000
0001
0100
0010
1000
0001
0000
0100
0000
1000
0000
0100
0000
,
0001
0010
0100
0010
0001
0100
1000
0100
,
0001
1000
0010
1000
0100
1000
0100
1000
,
0010
0001
0010
1000
0010
0001
0010
1000
,
0010
0100
0001
0010
0100
1000
0100
1000
,
0010
0001
0010
1000
0001
0100
0001
0100
,
0010
0001
0010
1000
0100
0001
0100
1000
,
0100
0000
0010
0000
0100
0000
1000
0000
0100
0010
0100
0010
0100
0010
0100
0010
,
0100
0010
0100
0000
0000
0000
0000
0000
1000
0000
0100
0000
1000
0000
0100
0000
,
0010
0001
0010
0001
1000
0100
1000
0100
,
0010
0100
0010
0001
0100
0001
0100
0001
,
1000
0000
0001
0000
1000
0010
0100
0000
0001
0000
0001
0000
0100
0000
0010
0000
,
1000
0100
0010
0001
0010
0100
0010
0100
,
1000
0001
1000
0001
0100
0001
0100
0001
,
0010
0100
1000
0100
0010
0100
0010
0100
,
0010
0000
0100
0000
0000
0100
0000
0000
0200
0000
0000
0000
0000
0000
0310
0000
,
0001
0010
0100
1000
0001
1000
0001
1000
0100
0000
0000
0000
0010
0000
0000
0000
,
0011
0001
1100
0001
,
1000
0000
0000
0001
0000
0000
1000
0000
0000
0001
0000
0000
1000
0000
0000
0001
0000
0000
1000
0000
0000
0001
0000
0000
1000
0000
0000
0000
0000
0000
0000
0000
0010
0000
0000
0000
0000
0000
0000
0000
0100
0000
0000
0000
0000
0000
0000
0000
,
0010
0000
1000
0000
0100
0000
0010
0000
0001
0000
1000
0000
,
0100
0000
0010
0000
0001
0000
1000
0000
0010
0000
0100
0000
0001
0000
0000
0000
0000
0000
0000
0000
0000
0000
1000
0001
,
1000
0000
0010
0000
0010
0000
0100
0000
0000
0000
0001
0000
,
0100
0000
0100
0000
0100
0000
0001
0000
0100
0000
0010
0000
,
1000
0000
0100
0000
0010
0000
0002
0000
0000
0000
0010
0000
,
0013
0000
0100
0000
1000
0000
1010
0000
0010
0000
0100
0000
,
0001
0000
0010
0000
0100
0000
0020
0000
0000
0000
0031
0000
,
0001
0000
0100
0000
0100
0000
0110
0000
1000
0000
0100
0000
,
0010
0000
0001
0000
0100
0000
0020
0000
0000
0000
1030
0000
,
1000
0000
0100
0000
0100
0000
1100
0000
1000
0000
0010
0000
,
0100
0000
0001
0000
0010
0000
0002
0000
0000
0000
1000
0000
,
1003
0000
0001
0000
0001
0000
1000
0000
0010
0000
0100
0000
,
0001
0000
0000
0000
1000
0000
0000
0000
0100
0000
0000
0000
1000
0000
0001
1000
0001
0000
1000
0000
0100
0000
0010
0000
,
0001
1000
0001
0000
0010
0000
0120
0000
0000
0000
0100
0000
,
0230
0000
1000
0000
1300
0000
2000
0000
0000
0000
0001
0000
,
3001
0000
1000
0000
0001
0000
0102
0000
0000
0000
0103
0000
,
0002
0000
1000
0000
1000
0000
2003
0000
0000
0000
3100
0000
,
0100
0000
0010
0000
0001
0000
0021
0000
0000
0000
0001
0000
,
0032
0000
1000
0003
1000
0000
0020
0000
0000
0000
0130
0000
,
0010
0000
1000
0000
0010
0000
2010
0000
0000
0000
3010
0000
,
0120
0000
0100
0000
0130
0000
0201
0000
0000
0000
0301
0000
,
1001
0000
1000
0000
0010
0000
0200
0000
0000
0300
0001
0000
,
2000
0000
0100
0000
0100
0000
3200
0000
0000
0000
0320
0000
,
0001
0000
0032
0000
1003
0000
1020
0000
0000
0000
0130
0000
,
0100
0000
0001
0000
0010
0000
0200
0000
0000
0000
1300
0000
,
0100
0000
0100
0000
1000
0000
2010
0000
0000
0000
0001
0000
,
3002
0000
0100
0000
0100
0000
0203
0000
0000
0000
0310
0000
,
1000
0000
0000
0000
0001
0000
0000
0000
1000
0000
0000
0000
1200
0000
0000
0000
0000
0000
0300
0000
0000
1000
0100
1000
,
0100
0000
1000
0000
0001
0000
0010
0000
0100
0000
1000
0000
,
0010
0000
0100
0000
0001
0000
1001
0000
0000
0000
1000
0000
,
0100
0000
0010
0000
0100
0000
0010
0000
0000
0000
0010
0000
,
0001
0000
1000
0000
0001
0000
0101
0000
0000
0000
0100
0000
,
0010
0000
1000
0000
0100
0000
1100
0000
0000
0000
0100
0000
,
1000
0000
1000
0000
0001
0000
0011
0000
0000
0000
0010
0000
,
0100
0000
1000
0000
0010
0000
1000
0000
0000
0000
1000
0000
,
0010
0000
0100
0000
0001
0000
0101
0000
0000
0000
0100
0010
,
1000
0000
0001
0000
0001
0000
0001
0000
0010
0000
0100
1000
,
0010
0100
0001
0010
0100
1000
0001
0000
0000
0000
1000
0000
,
0100
0000
1000
0000
0010
0000
1010
0000
0000
0000
0100
0000
,
0101
0000
0001
0000
0001
0000
1001
0000
0000
0000
1000
0000
,
0100
0000
1000
0000
0010
0000
0100
0000
0000
0000
0100
0000
,
0101
0000
0001
0000
0100
0000
0110
0000
0000
0000
0010
0000
,
1000
0000
0100
0000
1000
0000
0001
0000
0000
0000
0010
0000
,
0001
0000
0100
0000
0001
0000
1001
0000
1000
0000
0001
0000
,
1001
0000
1000
0000
1000
0000
1000
0000
0010
0100
0001
0100
,
0010
1000
0001
0000
0010
0000
0110
0000
0100
0000
0100
0000
,
1000
0000
0010
0000
0010
0000
0100
0000
0010
0000
0100
0000
,
0010
0000
1000
0000
0001
0000
0011
0000
0010
0000
0010
0000
,
0110
0000
0100
0000
0100
0000
1100
0000
1000
0000
1000
0000
,
0001
0000
0100
0000
0010
0000
1010
0000
1000
0000
1000
0000
,
0001
0000
0010
0000
0010
0000
0100
0000
1000
0000
1000
0000
,
0001
0000
0001
0000
0001
0000
0011
0000
0010
0000
0010
0000
,
0110
0000
0100
0000
0100
0000
1100
0000
1000
0000
1000
0000
,
0001
0000
0100
0000
0010
0000
1010
0000
1000
0000
1000
0000
,
0001
1000
0001
0000
0010
0000
0100
0000
1000
0000
0001
0000
0100
0000
0000
0000
0000
0000
0000
0000
1010
0000
0000
0000
,
0000
0000
1000
0000
0001
0000
0101
0000
0100
0000
0100
0000
,
0110
0000
0010
0000
1000
0000
1010
0000
0001
0000
0001
0000
,
1000
0000
0010
0000
0100
0000
0110
0000
0010
0000
0010
0000
,
1010
0000
1000
0000
1000
0000
0001
0000
0010
0000
0001
0000
,
0100
0000
0010
0000
1000
0000
1001
0000
1000
0000
0001
0000
,
1000
0000
0100
0000
1000
0000
0001
1000
0001
1000
0001
1000
,
0001
1000
0100
0010
0001
0100
0010
1000
0010
1000
0010
1000
,
0010
0100
0010
1000
0001
0010
0100
1000
0100
1000
0001
1000
,
0010
1000
0010
0100
0001
0010
0100
1000
0001
1000
0001
0100
,
0010
0100
0001
0100
0001
1000
0010
1000
0010
0100
0010
1000
,
0001
0010
0100
0010
0001
1000
0010
0100
0001
0100
0010
1000
,
0100
0010
0001
0010
0100
0010
0001
1000
0100
0010
0100
1000
,
0001
0100
0010
1000
0001
0010
0100
0010
0001
1000
0100
0010
,
0001
0100
0001
1000
0010
1000
0100
0010
0100
1000
0100
1000
,
0010
0100
0010
0100
0010
1000
0100
0010
0001
1000
0010
1000
,
0100
0010
0001
1000
0100
0010
0100
1000
0010
0100
0001
1000
,
0010
0100
0010
1000
0001
1000
0010
0100
0001
0010
0100
1000
,
0100
0010
0001
1000
0010
1000
0010
0100
0010
1000
0001
1000
,
0100
0010
0100
1000
0100
0010
0001
0100
0010
0100
0001
1000
,
0010
0100
0001
1000
0100
0010
0100
1000
0010
0100
0001
0010
,
0100
1000
0010
0100
0010
1000
0100
0010
0001
1000
0010
0100
,
0001
0010
0100
1000
0010
0100
0001
0010
0001
0100
0001
0010
,
0001
0000
1000
0000
1000
0000
1001
0000
0000
0001
1000
0000
,
0001
0000
0000
1000
0000
0000
0000
0001
0000
0000
0000
0010
0000
0000
0000
0110
,
0000
0000
0000
0000
0000
0000
0000
0000
0000
0000
0000
0000
0000
0000
0000
0000
0000
0000
0000
0000
0000
0000
0000
1100
0000
0000
0000
0000
0000
0000
0000
0000
,
1001
0000
0000
0000
0000
0000
0000
0000
0000
1010
0000
0000
0000
0000
0000
0000
0000
0000
0020
0000
0000
0000
0000
0000
0000
0000
0000
0000
0000
0000
0000
0000
,
0000
0000
0000
0000
,
0000
0000
0000
0030
0000
0000
0000
0000
2002
0000
0000
0000
,
0000
0000
0000
0000
,
0000
0000
0000
0000
,
0000
0000
0000
0000
,
0000
0000
0000
0000
,
0000
3003
0000
0000
;
