#TITLE:Macropolis;
#SUBTITLE:;
#ARTIST:MYUKKE.;
#TITLETRANSLIT:;
#SUBTITLETRANSLIT:;
#ARTISTTRANSLIT:;
#GENRE:;
#CREDIT:z-axis;
#MUSIC:Macropolis.mp3;
#BANNER:bn.png;
#BACKGROUND:bg.jpg;
#CDTITLE:;
#SAMPLESTART:76.907;
#SAMPLELENGTH:15.000;
#SELECTABLE:YES;
#OFFSET:-0.032;
#BPMS:0.000=128.000;
#STOPS:;
#BGCHANGES:;
#FGCHANGES:;

//--------------- dance-single - ----------------
#NOTES:
     dance-single:
     :
     Challenge:
     15:
     0,0,0,0,0:
0000
0000
0000
0000
,
0000
0000
0000
0000
,
0000
0000
0000
0000
,
0000
0000
0000
0000
,
0000
0000
0000
0000
0000
0000
0000
0000
0000
0000
0000
0000
0001
0100
0010
0000
,
1000
0000
0010
1000
0010
0000
0000
0000
0010
0000
1000
0010
1000
0000
0010
0000
,
0010
0000
0100
0001
0000
0001
0010
0001
0010
0000
0001
0000
1001
0000
0000
0000
,
1000
0000
0100
1000
0100
0000
0000
0000
0100
0000
1000
0100
1000
0000
1100
0000
,
0000
0000
0100
0010
0001
0000
0001
0000
1000
0000
0010
0000
1001
0000
0000
0000
,
0001
0000
0000
0001
1000
0000
0100
0000
0110
0000
0000
0001
0010
0000
0001
0000
,
1000
0010
1000
0000
1000
0001
0000
1000
0100
0010
0001
0000
1001
0000
0100
0000
,
1010
0000
0000
1000
0010
0000
0100
0000
0001
0000
0000
0010
0001
0000
0001
1000
,
0100
1000
0100
0010
0001
0010
0100
1000
0001
0100
0001
0000
1000
0000
0010
0000
,
1001
0000
0000
0001
0010
0000
0100
0000
0010
0000
0000
0001
0010
0000
0001
0000
,
1000
0010
0100
0000
0100
0001
0000
1000
0001
0010
0100
1000
0001
0000
1000
0000
,
1000
0010
0100
0001
1000
0010
0100
0001
0040
0000
0000
0000
0031
0000
1000
0000
,
0001
1000
0010
0100
0010
0000
1000
0001
0100
0000
0010
0000
1001
0000
0000
0000
,
2100
0000
0000
0000
3100
0000
0100
0000
0010
0001
0100
0000
0110
0000
2010
0000
,
0000
3001
0012
1003
0001
0200
0310
0100
,
0210
0000
0310
0010
0010
0010
1001
2000
,
3100
0000
0010
0000
0012
0000
0013
0000
1100
0000
0001
0001
0200
0000
0310
0000
,
0210
0000
0000
0000
0301
0000
0001
0010
0001
0100
0020
0000
1030
0000
1100
0000
,
0010
0000
0001
0000
0002
0000
0013
0000
0011
0000
1000
1000
0100
0000
1000
0000
,
1001
0000
1100
0110
1100
0110
1100
0010
,
0001
0010
1001
1000
0100
0000
1001
0000
,
0001
0010
0100
1000
0010
0100
0010
0000
1000
0100
0010
0001
0010
0100
0020
0000
,
0000
0000
0031
0000
0001
1000
0100
0010
0100
0000
0100
0010
0001
0000
0100
0000
,
0010
1000
0100
0010
0100
1000
0001
0000
0100
0010
1000
0001
0100
0001
0020
0000
,
0000
0000
0031
0010
0001
0010
0100
0000
1000
0000
0001
0000
0001
0010
0100
0000
,
1000
0010
0100
0001
0010
0100
1000
0010
0100
0010
1000
0100
0010
0100
2000
0000
,
0000
0000
3001
0000
0100
0010
1000
0100
0010
0000
0001
0100
0010
0000
1000
0000
,
0002
0000
0000
0000
1000
0000
1003
0000
0100
0000
0010
0001
0100
0010
2000
0000
,
0000
3010
1000
0010
0010
0100
0010
0000
,
1001
0000
0001
0000
0100
0010
0000
0010
0100
0000
0100
0001
0000
0001
0010
0000
,
0000
0000
0010
0000
0001
0010
0000
0001
0100
0000
0010
0100
0000
0010
1000
0000
,
0001
0000
0010
0000
0100
0010
0000
0010
0100
0000
0100
1000
0000
1000
0010
0000
,
0000
0000
0010
0000
1000
0010
0000
1000
0100
0000
0010
0100
0010
0001
0010
0100
,
1000
1001
0100
1010
,
0001
0011
0010
1100
,
0001
0100
0001
0100
0010
0100
0010
1000
0400
0000
0000
0000
0310
0000
0011
0000
,
1000
0000
0001
0100
0010
1000
0100
0000
0110
0000
0010
0001
1000
0000
0000
0000
,
0001
1000
0010
0000
1001
0000
0001
0000
1000
1000
0100
0000
0110
0000
0001
0000
,
0100
0000
0010
0000
0010
1000
0001
0100
0000
0100
0001
0000
1001
0000
1000
0000
,
1010
0000
0001
0000
0010
0000
0100
1000
0010
0000
0100
0001
0010
0000
0100
0000
,
0001
0100
0010
0001
1100
0010
0110
0001
,
1000
0000
0100
0010
0001
0000
0100
0000
0010
0010
1000
0000
1010
0000
0001
0000
,
1001
0000
1000
0000
0001
0100
0000
0100
0010
1000
0100
0000
0010
0000
0001
0000
,
0010
0000
0000
0000
0110
0000
0100
0010
0100
0000
1000
0000
0001
0000
0011
0000
,
0000
0110
0010
0001
0101
0000
1001
0000
,
1000
0000
0100
0010
0000
0001
0010
0100
1000
0000
0010
1000
0000
0100
0010
0100
,
1000
0000
1000
0000
0010
0000
0100
0000
0001
0010
0100
0010
0001
0000
0100
0000
,
0010
0000
1000
0001
0000
0010
0001
0010
0100
0000
1000
0010
0000
0100
0002
0000
,
0000
0000
0013
0000
0010
0000
0010
0000
0100
0000
1000
0000
0010
0100
0001
1000
,
0100
0000
0100
0010
0000
0100
1000
0010
0100
0000
0001
0010
0000
0001
1000
0100
,
0010
0000
0001
0000
0100
0000
0010
1000
0001
0010
0100
1000
0100
0000
0010
0000
,
0002
0000
0000
0000
1003
0000
0001
0000
0100
0000
0010
1000
0001
0010
0200
0000
,
0000
0000
0310
0000
0001
0000
0001
0100
0010
0000
1000
0000
0010
1000
0001
0000
,
1001
0000
0000
1000
0001
0000
0010
0000
0110
0000
0000
0000
1100
0000
1000
0100
,
0010
0001
0100
0010
0100
0001
0000
0100
0010
0100
0001
0000
1001
0000
1000
0000
,
1100
0000
0000
0010
0001
0000
0010
0000
0100
0000
0000
1000
0100
0000
1000
0001
,
0010
0001
0010
0100
1000
0100
0010
0001
1000
0010
1000
0000
0001
0000
0100
0000
,
0001
1000
0100
1000
1001
0000
1000
0000
0100
0000
0000
1000
0001
0000
0001
0100
,
0001
0100
0010
0000
0010
1000
0000
1000
0001
0010
0100
1000
0001
0000
0000
0000
,
0001
0010
0100
1000
0001
0010
0100
1000
0400
0000
0000
0000
0310
0000
1001
0000
,
1000
0000
0010
0100
0001
0010
0001
1000
0010
1000
0001
0000
1001
0000
0000
0000
,
0011
0000
0000
0011
0000
0000
1001
0000
1100
0000
0000
1010
0000
0000
0000
0000
;
