#TITLE:M1LLI0N PP;
#SUBTITLE:;
#ARTIST:Camellia;
#TITLETRANSLIT:;
#SUBTITLETRANSLIT:;
#ARTISTTRANSLIT:;
#GENRE:;
#CREDIT:z-axis;
#MUSIC:M1LLI0N PP.mp3;
#BANNER:bn.png;
#BACKGROUND:bg.png;
#CDTITLE:;
#SAMPLESTART:53.152;
#SAMPLELENGTH:17.436;
#SELECTABLE:YES;
#OFFSET:-0.844;
#BPMS:0.000=234.000
,400.000=117.000
,408.000=234.000
,424.000=117.000
,432.000=234.000
,480.000=117.000
,568.000=135.000
,572.000=132.000
,576.000=127.000
,584.000=125.000
,640.000=130.000
,656.000=135.000
,672.000=138.000
,688.000=142.000
,704.000=148.000
,720.000=152.000
,736.000=156.000
,752.000=160.000
,768.000=166.000
,784.000=172.000
,800.000=175.000
,816.000=180.000
,820.000=184.000
,824.000=193.000
,828.500=203.000
,832.000=210.000
,836.000=221.000
,840.000=234.000
;
#STOPS:;
#BGCHANGES:;
#FGCHANGES:;

//--------------- dance-single - ----------------
#NOTES:
     dance-single:
     :
     Challenge:
     20:
     0,0,0,0,0:
0000
0000
0000
0000
,
0000
0000
0000
0000
,
0000
0000
0000
0000
,
0000
0000
0000
0000
,
0000
0000
0000
0000
,
0000
0000
0000
0000
,
0000
0000
0000
0000
,
0000
0000
0000
0000
,
0000
0000
0000
0000
,
0000
0000
0000
0000
,
1000
0000
0000
0001
0000
0000
0010
0000
,
0000
0100
0000
0000
0020
0000
0000
0000
,
0000
0000
0000
0000
,
0000
0000
0000
0000
0030
0000
0001
1000
,
0010
0000
0000
0100
0000
0000
0001
0000
,
0000
0010
0000
0000
0002
0000
0000
0000
,
0000
0000
0000
0000
,
0000
0000
0000
0003
0000
1000
0001
0010
0100
1000
0001
1000
,
1001
0000
0000
0011
0000
0000
0101
0000
,
0000
1010
0000
0000
2200
0000
0000
0000
,
0000
0000
0000
0000
,
0000
0000
0000
0000
0000
0000
0000
0000
3300
0000
0000
0000
1000
0100
0010
0000
,
0110
0000
0000
0011
0000
0000
1001
0000
,
0000
0101
0000
0000
2020
0000
0000
0000
,
0000
0000
0000
0000
,
0000
0000
0000
3030
,
1010
0000
0000
0101
0000
0000
0011
0000
,
0000
0110
0000
0000
2200
0000
0000
0000
,
0000
0000
0000
0000
,
0000
0000
0000
0000
0000
0000
0000
0000
3300
0000
0000
0000
1000
0100
0010
0000
,
0011
0000
0000
1001
0000
0000
1100
0000
,
0000
0101
0000
0000
2020
0000
0000
0000
,
0000
0000
0000
0000
,
0000
0000
3030
2002
,
0000
0000
0000
0000
,
0000
3003
MMMM
MMMM
,
0101
0000
0101
0000
0000
0110
0000
0110
,
000M
M000
000M
0M00
,
1010
0000
1010
0000
0000
0110
0000
1001
,
0000
0101
0000
000M
00M0
0000
0M00
0000
,
0011
0000
0011
0000
0000
1001
0000
1001
,
0000
00M0
M000
0000
00M0
0000
0M00
000M
,
M000
0000
1100
0000
0000
1100
0000
0000
,
1001
0000
0001
2001
0000
0000
0000
0000
,
3100
0000
0000
0000
1100
0000
0000
0000
0001
0100
0001
0000
0000
0000
1001
0000
,
0000
1000
0100
0000
1000
0010
0000
1000
,
1001
0000
0000
0000
1100
0000
0000
0000
1000
0100
1000
0000
0000
0000
0110
0000
,
0000
0011
1000
0000
0001
1000
0000
1000
,
0010
1000
0010
0000
1000
0000
0001
0010
0001
0000
0010
0000
0100
1000
0100
0000
,
0010
0000
0001
0010
0001
0000
1000
0000
0010
1000
0010
0000
0100
0000
0001
0010
,
0100
0000
1000
0000
0010
0100
0001
0000
1000
0000
0001
0010
0100
0000
1000
0000
,
0000
0000
0000
0000
,
1000
0000
0010
1000
0001
0000
0100
0000
0001
0100
0001
0100
0001
0000
0100
0000
,
0001
0010
0001
0000
1000
0100
1000
0000
0001
0010
0001
0000
0100
0000
0010
1000
,
0001
0000
0010
0000
0001
0100
0001
0100
0001
0000
1000
0000
0001
1000
0001
0000
,
1000
1000
0001
0001
0200
0000
0300
0000
,
0101
1001
1010
1001
,
0011
0000
0010
0001
0010
0000
0000
0000
1100
0000
0000
0000
1001
0000
0000
0000
,
0011
0011
0011
0000
1100
0000
0101
0000
,
1001
0000
0000
0000
0000
0000
0001
0000
0000
1000
0000
0000
0001
0000
0000
0000
0000
0000
0000
0000
0000
0000
0000
0000
1001
0000
0000
0000
0000
0000
0101
0000
0000
0000
0000
0000
0000
0000
0000
0000
0010
0000
1000
0000
0010
0000
1000
0000
,
0010
0000
0100
0000
0001
0000
0010
0001
0010
0000
0100
0000
1000
0000
0100
0010
,
0001
0000
1000
0000
0100
0000
0010
0001
1000
0000
0100
0000
0020
0000
0000
0000
,
0031
0000
0100
0000
0010
0000
1000
0000
0001
0000
0010
0000
0100
0000
1000
0001
,
0010
0000
0100
0000
1000
0000
0001
0010
0100
0000
0010
0000
0002
0000
0000
0000
,
1003
0000
0001
1000
0100
0000
0010
0000
0000
0000
0001
0000
0100
0000
0010
0000
,
0001
0000
1000
0000
0100
0000
0010
1000
0100
0000
0010
0000
0001
0000
0010
0000
,
0100
0000
1000
0000
0100
0010
0001
0000
1000
0000
0010
0000
0100
0000
1000
0000
,
0100
0000
0010
0000
1000
0000
0001
1000
0100
0000
0010
0000
0100
0010
0100
0010
,
0001
0000
1000
0000
1001
0000
0000
0000
1000
0010
1000
0010
1000
0000
0001
0000
,
1000
0000
0100
0000
0001
0000
1000
0000
0010
0000
0001
0000
1000
0000
0100
0010
,
0001
0000
0000
0000
0100
0001
0100
0001
0100
0000
0001
0000
0100
0000
1000
0000
,
0001
0010
1000
0001
0200
0000
0000
0300
,
0101
1001
1010
1001
,
0101
0000
0001
0100
0001
0000
0000
0000
1010
0000
1010
0000
1010
0000
0000
0000
,
0100
0010
0000
0100
0010
0000
0000
0000
1010
0000
0000
0000
1001
0000
0000
0000
,
0011
0000
0000
0011
0000
0000
1001
0000
0000
0000
0000
0000
1100
0000
0000
1001
0000
0000
0000
0000
0000
1000
0001
1000
,
0001
0000
0100
0000
0010
0000
1000
0001
0100
0000
0100
0000
0010
0000
0100
0010
,
0100
0000
0010
0000
0010
0000
0100
0010
0100
0000
0001
0000
2000
0000
0000
0000
,
3100
0000
2001
0000
3001
0001
0010
0010
,
0001
0010
0001
0010
0001
0000
0010
0001
2000
0000
3002
0000
0203
0000
0000
0000
,
0301
0000
1000
0001
0010
0000
0100
0000
0000
0000
1000
0000
0010
0000
0100
0000
,
1000
0000
0001
0000
0010
0000
0100
0001
0010
0000
0100
0000
1000
0000
0100
0000
,
1000
0010
1000
0010
1000
0010
1000
0010
1000
0010
1000
0010
4000
0000
0000
0000
,
3000
0000
0000
0000
0000
0000
0000
0000
0000
0000
0000
0000
0000
0000
0000
0000
0000
0000
1000
0000
0000
0001
0000
0000
1000
0000
0000
0000
0000
0000
0001
0000
0010
0000
0100
0000
1000
0000
0000
0100
0000
0000
0010
0000
0000
0001
0000
0000
,
1000
0000
0000
0000
0010
1000
0001
0000
1000
0000
0100
0000
0010
0000
0100
0000
,
0010
0000
0001
0000
0100
0000
0001
0000
1000
0000
0010
0000
0001
0010
0100
1000
,
0001
0010
0100
0001
0010
0100
0001
1000
,
0010
0000
0001
0000
1000
0000
0010
0100
0001
0000
0010
0000
0100
0000
1000
0000
,
0100
0000
0000
0000
0010
0001
1000
0000
0001
0000
0100
0000
0010
0000
1000
0000
,
0010
0000
1000
0000
0100
0000
1000
0000
0001
0000
0010
0000
1000
0010
0100
0001
,
1000
0000
0010
0000
0100
0000
1000
0000
0010
0000
0100
0000
1000
0000
0001
0010
,
0000
0010
1000
0000
0001
0000
0010
0100
0000
1000
0010
0000
0100
0010
0100
0010
,
1000
0000
0000
0000
0010
1000
0001
0000
1000
0000
0010
0000
0100
0000
0010
0000
,
0100
0000
0001
0000
0010
0000
0001
0000
1000
0000
0100
0000
0001
0100
0010
1000
,
0001
0100
0010
0001
0100
0010
0001
1000
,
0100
0000
0001
0000
1000
0000
0100
0010
0001
0000
0100
0000
0010
1000
0010
1000
,
0010
0000
0000
0000
0100
0010
1000
0000
0010
0000
0100
0000
0010
0000
1000
0000
,
0100
0000
1000
0000
0010
0000
1000
0100
0010
0000
0001
0000
1000
0001
1000
0100
,
1000
0000
0001
0010
0001
0000
0000
0000
0010
0001
0010
0000
0000
0000
0001
0010
,
0001
0000
0000
0000
0010
0001
0010
0000
0100
0000
1001
0000
0000
0000
0000
0000
,
1M02
0000
0000
0000
1003
0100
2100
0000
0000
0000
3001
0010
1000
0001
0100
1000
,
2100
0000
0000
0000
0000
0000
0000
0000
0000
0000
0000
0000
3001
0000
0100
0000
0001
0000
0012
0000
0000
0000
0000
0000
0000
0000
0000
0000
0000
0000
0013
0000
0000
0001
0000
0000
0200
0000
0000
0000
0000
0000
0302
0000
0000
0000
0000
0000
,
10M3
0010
1010
1000
0000
1010
0010
0100
,
0101
0000
0101
1000
0000
1100
0001
0000
,
0011
0000
0011
0100
0000
1100
0100
1000
,
0100
0000
0000
0000
1010
0000
0001
0000
0000
0000
0100
0000
0001
1000
0001
1000
,
0M02
0000
0000
0000
1003
0001
1002
0000
0000
0003
0001
0100
1000
0001
0010
1000
,
2010
0000
0000
0000
0000
0000
0000
0000
0000
0000
0000
0000
3001
0000
0010
0000
0001
0000
0102
0000
0000
0000
0000
0000
0000
0000
0000
0000
0000
0000
0103
0000
0000
0001
0000
0000
0040
0000
0000
0000
0000
0000
0000
0000
0000
0000
0000
0000
,
0M31
0010
0011
0001
0000
0101
0100
0010
,
1000
0000
1010
0001
0000
0011
1000
0000
,
1100
0000
1100
0010
0000
0011
0010
0001
,
0011
0000
0001
0101
0100
0010
0100
0000
,
1001
000M
M000
0000
,
0000
0000
000M
0000
0000
M000
0000
0000
,
000M
0000
M000
0000
0000
000M
0000
0000
,
0000
0000
0000
0000
0000
0000
M000
0000
0000
0000
0000
0000
0001
1000
0001
1000
,
0100
0010
0001
0000
0010
0000
0001
0010
0001
0000
1000
0000
0010
1000
0010
0000
,
0100
0000
0001
1000
0001
0000
0010
0000
0001
1000
0100
0000
0010
0000
0001
0010
,
0100
0000
1000
0000
0010
0100
0001
0000
0010
0000
0100
1000
0001
0000
1000
0000
,
0000
0000
0000
0000
,
1M01
0000
0000
0000
0001
0010
0010
0010
0001
0010
0010
0010
0001
1000
0001
0100
,
0010
0000
0110
0000
1000
0010
0010
0010
1000
0010
0010
0010
1000
0100
0010
0000
,
1100
0000
0000
0000
0000
0000
0000
0000
0000
0100
0000
0000
1000
0000
0000
0000
0010
0000
0000
0000
0001
0000
0000
0000
1000
0000
0000
0000
0100
0000
0000
0000
0001
0000
0000
0000
0010
0000
0000
0000
1000
0000
0000
0000
0001
0000
0000
0000
,
0100
0000
0000
0010
0000
0000
0001
0000
0000
0000
0000
0000
1000
0000
0000
0000
0100
0000
0000
0000
0010
0000
0000
0000
0001
0000
0000
0000
1000
0000
0000
0000
0001
0000
0000
0000
0200
0000
0000
0000
0000
0000
0300
0000
0000
0000
0000
0000
,
1010
0000
0000
0000
0000
0000
1000
0000
0000
0000
0010
0000
1000
0000
0000
0000
0001
0000
1000
0000
0000
0000
0000
0000
0001
0000
0000
0000
0000
0000
0001
0000
0000
0000
0000
0000
0010
0000
0000
0000
0100
0000
0010
0000
0000
0100
1000
0100
,
2000
0000
0000
0000
0000
0000
0000
0000
0000
3000
0010
0000
1000
0000
0000
0000
0001
0000
1000
0000
0000
0000
0001
0000
0010
0000
0000
0000
0010
0000
0001
0000
0100
0000
0001
0000
1000
0000
0000
0000
0000
0000
1001
0000
0000
0000
0000
0000
,
1000
0010
1000
0000
0010
0000
1000
0010
1000
0000
0010
0000
1000
0010
1000
0000
0001
0000
0010
0000
0001
0000
1000
0100
1000
0000
0001
0000
1000
0000
0000
0000
,
0001
0010
0001
0000
0010
0000
0001
0010
0001
0000
0010
0000
0001
0010
0001
0000
1000
0000
1000
0000
0010
0000
0100
0000
0100
0000
0001
0000
0010
0000
0000
0000
,
1001
0000
1000
0000
0001
0100
0100
0100
0001
0100
0100
0100
0001
0100
0010
1000
,
0100
0000
0110
0000
1000
0100
0100
0100
1000
0100
0100
0100
1000
0010
0100
0000
,
0002
0000
0000
0000
0000
0000
0003
0000
0000
0010
0000
0000
0001
0000
0000
0000
1000
0000
0000
0000
0010
0000
0000
0000
0001
0000
0000
0000
1000
0000
0000
0000
0100
0000
0000
0000
0001
0000
0000
0000
1000
0000
0000
0000
0001
0000
0000
0000
,
0010
0000
0000
0000
0000
0000
0100
0000
0000
1000
0000
0000
0010
0000
0000
0000
0100
0000
0000
0000
0001
0000
0000
0000
0010
0000
0000
0000
0001
0000
0000
0000
1000
0000
0000
0000
0200
0000
0000
0000
0000
0000
0300
0000
0000
0000
0000
0000
,
1001
0000
0000
0000
0001
0000
0100
0000
0000
0000
0100
0000
0010
0000
0000
0000
0010
0000
1000
0000
0000
0000
0000
0000
0100
0000
0000
0000
0000
0000
0100
0000
0000
0000
0000
0000
0010
0000
0000
0000
0001
0000
0100
0000
0000
0010
1000
0010
,
2000
0000
0000
0000
0000
0000
3010
0000
1000
0001
0000
1000
0001
0000
0001
1000
0000
0000
1001
0000
0000
0011
0000
0000
,
0100
1000
0100
0000
1000
0000
0100
1000
0100
0000
1000
0000
0100
1000
0100
0000
0010
0000
0100
1000
0100
0000
1000
0000
0100
1000
0100
0000
1000
0000
0100
0000
,
0010
0001
0010
0000
0001
0000
0010
0001
0010
0000
0001
0000
0010
0001
0010
0000
0100
0000
0010
0001
0010
0000
0001
0100
0010
0000
1000
0000
0001
0000
0100
0000
,
0010
1000
0010
0000
1000
0000
0010
1000
0010
0000
1000
0000
0010
1000
0010
0000
0100
0000
0010
1000
0010
0000
1000
0000
0010
1000
0010
0000
1000
0000
0010
1000
,
0010
0000
0000
0000
0000
0000
0100
0000
0000
0000
0000
0000
0001
0000
0000
0000
0000
0000
1000
0000
0000
0100
0000
0000
0010
0000
0000
0000
0000
0000
0001
0000
0000
0000
0000
0000
0010
0000
0000
0100
0000
0000
1000
0000
0000
0000
0000
0000
0001
0000
0000
0000
0000
0000
1000
0000
0000
0000
0000
0000
0100
0000
0000
0000
0010
0000
0000
0000
0001
0000
0000
0000
1000
0000
0000
0000
0100
0000
0000
0000
0010
0000
0000
0000
0001
0000
0000
0000
1000
0000
0000
0000
0010
0000
0000
0000
,
1000
0100
1000
0000
0100
0000
1000
0100
1000
0000
0100
0000
1000
0100
1000
0000
0010
0000
1000
0100
1000
0000
0100
0000
1000
0100
1000
0000
0100
0000
0010
0000
,
0001
0010
0001
0000
0010
0000
0001
0010
0001
0000
0010
0000
0001
0010
0001
0000
1000
0000
0001
0010
0001
0000
0010
0100
1000
0000
0100
0000
0010
0000
0001
0000
,
0100
0000
0001
0000
0010
0000
0001
0000
0100
0000
0010
0000
1000
0000
0010
1000
0001
0000
1000
0000
0001
0000
1000
0000
0100
0000
1000
0000
0010
0000
1000
0001
,
0010
0000
0100
0000
1000
0000
0001
0000
0010
0000
0100
0000
1000
0000
0001
0000
1000
0100
1000
0001
1000
0100
1000
0001
0100
0001
1000
0001
0010
0100
1000
0000
,
2002
0000
0000
0000
,
0000
0000
0000
0000
,
0000
0000
0000
0000
,
0000
0000
0000
0000
,
0000
0000
0000
0000
,
0000
0000
0000
0000
0000
0000
0000
0000
3003
0000
0000
0000
0001
1000
0001
1000
,
0001
1000
0100
1000
,
0001
0010
0001
1000
,
0100
0010
0100
0010
,
0001
0100
0010
1000
,
0001
0010
0100
1000
0001
0010
0100
1000
,
0010
0100
0001
1000
0100
0010
0001
0010
,
0100
0000
1000
0000
0001
0000
0010
0000
0100
0000
1000
0000
0001
0000
0010
0000
0100
1000
0100
1000
0100
1000
0100
1000
0100
1000
0100
1000
0100
1000
0100
1000
,
0100
0000
0000
0000
0020
0000
0030
0000
0000
0000
0020
0000
0030
0000
0001
0010
0001
0000
1000
0000
0100
0000
0010
0000
0001
0000
0000
0000
MMMM
0000
0000
0000
,
1001
0000
0000
0000
1000
0000
MMMM
0000
1000
0010
0000
0010
1000
0000
0001
0000
,
0210
0000
0000
0000
0000
0000
0000
0000
0301
0000
1000
0000
0020
0000
0000
0000
1030
0000
0001
1000
0100
0000
0000
0000
0020
0000
0000
0000
0130
0000
0000
0000
,
0012
0000
0000
0000
1003
0000
MMMM
0000
0010
0001
0000
0001
1000
0000
0001
0000
,
2100
0000
0000
0000
0000
0000
0000
0000
0000
0000
0000
0000
3001
0000
0000
0010
0000
0000
0200
0000
0000
0300
0000
0000
0010
0000
0001
0000
1000
0000
0001
0000
0000
1000
0000
0000
0100
0000
0000
0000
0000
0000
0010
0000
0000
0000
0000
0000
,
0011
0000
0100
0000
1001
0000
0010
0000
1001
0000
1000
0100
0010
0100
0010
0000
,
1001
0000
0001
0100
0010
0100
0010
0000
1001
0000
0001
0000
1100
0000
0001
0000
,
0110
0000
1000
0000
1010
0000
0010
0000
1001
0000
1000
0100
0010
0100
1000
0000
,
1100
0000
0001
0100
0010
0100
0001
0000
1001
0000
0100
0000
1001
0000
0010
0000
,
1001
0000
0001
1000
0100
0000
0100
0000
0010
0000
0010
0001
0100
0010
0100
0000
,
0010
1000
0010
0100
0010
1000
0010
0000
1001
0000
1000
0010
0100
0000
0001
0010
,
0100
0000
0010
0100
0010
0000
0010
0000
0001
0000
0001
1000
0010
1000
0001
0000
,
0100
0010
1000
0010
1000
0001
1000
0000
1001
0000
0001
0010
0100
0000
0010
0000
,
1001
0000
0000
1000
0001
0000
1100
0000
1000
0000
0001
0010
0100
1000
0100
0000
,
0011
0000
0000
1000
0010
0000
1001
0000
0001
0000
0010
0100
1000
0001
1000
0000
,
1001
0000
0000
0001
0100
0000
0101
0000
1000
0000
0010
1000
0001
0100
0001
0000
,
0011
0000
0000
0001
0100
0000
0100
0010
1000
0000
0100
0010
0100
0010
0100
0010
,
0001
0100
0001
0000
0010
0000
0010
0000
0010
0000
0010
0100
0000
0100
0010
0000
,
0001
0100
0010
0000
0100
0000
0001
0000
0100
0010
0000
0010
1000
0001
1000
0000
,
0001
0100
0001
0000
1000
0000
1000
0000
1000
0000
1000
0010
0000
0010
1000
0000
,
0001
0010
0001
0000
0010
0000
0010
0000
0010
0100
0010
0000
0001
0000
1000
0000
,
1200
0000
0000
0000
1300
0000
0010
1000
0010
0000
0100
0001
0100
0000
0010
1000
,
0010
0000
0000
0000
1000
0010
1000
0000
0001
0000
0000
0000
0001
0000
1000
0000
0001
0000
0010
0000
0001
0000
0010
0000
0100
0000
0000
0000
1100
0000
0000
0000
,
2001
0000
0000
0000
0000
0000
0000
0000
3001
0000
0010
0000
0001
0000
0010
0000
0100
0000
0010
0000
0001
0000
1000
0001
1000
0000
0100
0000
1000
0000
0100
1000
,
0100
0010
0001
1000
0001
1000
0010
1000
0100
1000
0001
1000
0100
0010
0100
0000
,
1001
0000
1000
0000
0001
1000
0001
0000
0011
0000
0010
0001
0010
0100
1000
0000
,
1001
0001
0000
0000
1100
1000
0001
0000
1001
0000
1000
0001
1001
0000
1001
0000
,
0101
0000
0000
0000
1010
0010
1000
0000
1010
0000
1000
0010
0100
0001
0000
0100
,
0101
0000
1001
0000
1100
0000
0001
0000
1001
1000
0000
1000
0002
0000
0000
0000
,
1003
0100
0010
0001
0010
0100
1000
0010
,
1000
0001
0100
0010
1000
0100
0010
0001
,
1000
0100
0010
0001
1000
0010
0100
0004
4000
0000
0000
0000
0000
0000
0000
0000
,
3003
0000
0000
0000
2000
0000
3000
0000
0000
0000
2000
0000
3000
0000
0001
1000
0001
0000
1000
0000
0100
0000
0010
0000
0001
0000
0000
0000
1000
0000
0000
0000
,
1001
0000
0000
0000
0201
0000
0001
0000
0310
0000
0010
1000
0100
0000
1000
0000
,
1000
0000
0001
1000
0001
0100
0001
0000
0010
0000
0001
0010
0001
0010
0100
0000
,
0010
0100
0010
0000
0100
0000
0010
0000
0002
0000
0000
0000
1000
0000
0000
0000
0103
0000
0000
0000
0101
0000
0000
0000
1001
0000
0000
0000
0001
0000
0000
0000
,
0010
0000
0011
0000
0001
1000
0100
0000
0010
0000
0001
0100
0001
0100
0010
0100
,
0002
0000
0000
0000
0000
0000
0000
0000
1003
0000
0000
0000
0100
1000
0100
0000
1000
0000
0100
0000
0010
0000
0001
0000
0000
0000
0001
0000
1000
0100
1000
0000
,
0000
0000
0000
0000
0001
0000
0000
0000
0010
0000
0001
0000
0010
0000
0100
0000
1000
0000
0000
0000
1000
0000
0010
0000
0000
0000
0010
0000
1000
0001
1000
0000
,
0002
0000
0000
0000
0000
0000
0000
0000
0103
0000
0000
0000
0010
1000
0010
0000
1000
0000
0001
0000
1000
0000
0001
0000
0000
0000
0001
0000
0100
0001
0100
0000
,
0010
0000
0010
0000
1000
0001
1000
0000
1001
0000
0001
0000
0100
0000
0000
0000
,
2100
0000
0000
0000
3100
0000
0010
0000
0001
0100
0010
0000
0100
0000
0001
0000
,
0012
0000
0000
0000
1003
0000
1000
0100
1000
0010
0100
0001
0010
0000
0001
0000
,
0012
0000
0000
0000
0103
0000
0010
0000
1000
0010
0100
0000
0001
0000
1000
0000
,
2100
0000
0000
0000
3010
0000
0010
0000
1000
0100
0010
0000
0001
0000
0010
0000
,
1001
0000
0001
0000
1000
0000
0100
0000
0010
0000
0001
0010
0001
0010
0001
0000
,
1000
0000
0010
0100
0010
0100
0010
0000
1000
0000
0010
0000
0100
0000
0001
0000
,
1000
0000
1000
0000
0010
0000
1000
0000
0001
0000
1000
0100
1000
0100
1000
0000
,
0001
0000
0001
0100
0000
0100
0001
0000
1000
0000
0100
0000
0010
0000
0100
0000
,
1010
0000
1010
0000
0000
1001
0000
1001
,
0M00
0000
0000
0000
00M0
0000
0000
0000
0000
0M00
0000
0000
0000
M000
0000
0000
,
0011
0000
0011
0000
0000
0011
0000
1001
,
0000
0000
1001
0000
0000
00M0
0000
0M00
0000
0000
0000
0000
0000
000M
0000
0000
,
1010
0000
1010
0000
0000
1001
0000
1001
,
0000
0M00
0000
00M0
0000
0000
M000
0000
,
0011
0000
0010
0001
0000
0010
0001
0000
,
0001
0010
0000
0001
0010
0000
0001
0010
,
0000
0001
1000
0000
0001
1000
0000
0001
,
0000
0000
0000
0010
,
1001
0000
0001
0100
0001
0000
0100
0000
0010
0000
1000
0010
0100
0000
0001
1000
,
0100
0000
0000
0000
1000
0000
0000
0000
0001
0000
0000
0010
0000
0000
0100
0000
,
1000
0000
0000
0000
0010
0100
0010
0000
1000
0000
0100
1000
0001
0000
1000
0100
,
0010
0000
0001
0000
1000
0000
0100
0000
1000
0000
0000
0001
0000
0000
0010
0000
,
0100
0000
1000
0001
0100
0000
0010
1000
0001
0000
1000
0000
0000
0000
0000
0000
,
0000
0000
0000
0000
1000
0000
0010
1000
0001
0000
1000
0000
0001
0000
0010
0000
,
0100
0000
0010
0001
1000
0000
0010
0100
0001
0000
1000
0000
0100
0010
0100
0000
,
0000
0000
1000
0000
0100
0000
0010
0000
0100
0000
1000
0000
0001
0100
0010
1000
,
0001
0000
0000
0000
0001
1000
0001
0000
1000
0000
0010
0100
0001
0000
0100
0001
,
1000
0000
0001
0000
0010
0000
0100
0000
0010
0000
0000
0100
0000
0000
1000
0000
,
0001
0000
0000
0000
1000
0010
1000
0000
0000
0000
0001
0010
0100
0000
0010
0100
,
1000
0000
0000
0000
0001
0000
0000
0000
0100
0000
0010
0100
0000
0010
1000
0000
,
0001
0000
0010
0001
1000
0000
1000
0001
0100
0001
1000
0001
1000
0001
0100
0001
,
1000
0000
0001
0100
0010
0000
1000
0100
0010
0001
1000
0001
0010
0001
1000
0001
,
0100
0000
0000
0001
0000
0000
1000
0000
0010
0000
0100
0000
0001
0000
0000
0100
0000
0000
0001
0000
0000
1000
0000
0000
0001
0000
0000
0100
0000
0000
0010
0000
0000
1000
0000
0000
0001
0000
0000
0010
0000
0000
0001
0000
0000
1000
0000
0000
,
0001
0000
1000
0100
0010
0001
1000
0000
0010
0000
0000
0100
0000
0000
0001
0000
,
1001
0000
1001
0000
0000
1010
0000
0101
,
0000
00M0
0000
0000
0M00
0000
0000
0000
0000
0000
000M
0000
0000
0000
1000
0100
,
0010
0000
0011
0000
0000
1001
0000
1100
,
0000
0011
0000
0000
1000
0000
0001
0100
,
0110
0000
0101
0000
0000
1001
0000
1100
,
0000
0000
00M0
0000
0000
0000
0M00
0000
0000
0000
00M0
0000
1000
0001
1000
0001
,
0100
0000
0110
0000
0000
1001
0000
0000
,
1010
0000
0000
1001
0000
0000
0100
0000
,
0011
0000
0011
0000
0000
1001
0000
1001
,
0000
1000
0010
0000
1000
0010
0000
0010
,
1010
0000
1010
0000
1000
1001
0000
0101
,
0000
0011
0000
0001
0010
0000
0001
0010
,
0001
0010
0001
0000
0010
0000
0001
0100
0001
0000
1000
0000
0100
1000
0100
0000
,
1000
0000
0001
0100
0001
0000
0100
0000
0001
1000
0001
0000
1000
0000
0100
0010
,
0001
0000
1000
0000
0010
1000
0001
0000
0100
0000
0010
1000
0001
0000
0010
0000
,
0001
0000
0000
1000
0000
0000
0100
0000
0000
0000
0000
0000
0010
0000
0000
0000
0000
0000
0001
0000
0000
1000
0000
0000
0001
0000
0000
0000
0100
0000
0000
0000
0010
0000
0000
0000
1000
0000
0000
0000
0100
0000
0000
0000
0010
0000
0000
0000
,
0002
0000
0000
0000
,
0000
0000
0000
0003
,
0100
0010
0100
0010
0100
0010
0100
0010
0100
0010
0100
0010
0100
0010
0100
0010
,
0100
0000
0000
0000
0000
0000
0010
1000
0001
0000
0000
0101
0000
0000
0110
0000
,
1001
0000
0010
1000
0100
0000
1000
0000
0001
0000
0010
0001
0100
0000
0010
1000
,
0001
0000
0010
0100
1000
0000
0001
0000
0100
0000
0010
1000
0000
0001
0100
0000
,
0001
0000
0010
0001
0100
0000
0010
0000
1000
0100
0010
0000
0100
0000
1000
0010
,
0100
0000
0001
0000
0100
0000
0010
0000
1000
0000
0001
0010
0000
0100
1000
0000
,
0001
0000
0100
0010
1000
0000
0001
0010
0100
0000
0010
0000
0001
0100
0010
0000
,
0100
0001
0001
1000
1000
0100
0100
1000
,
0010
0000
1000
0010
0100
0000
0100
0001
0010
0000
0001
0000
0010
0001
0010
0000
,
0100
0000
1000
0000
0001
0000
0100
0000
1000
0000
0100
0000
0010
0000
1000
0001
,
0100
0000
0001
0000
0010
0000
0001
0000
1000
0000
0010
1000
0100
0000
0010
0001
,
0100
0000
0010
0000
1000
0000
0001
0000
0010
0000
0100
0010
0000
0100
1000
0000
,
0001
0000
0100
0000
0010
1000
0001
0000
1000
0000
0100
0010
0001
0000
0001
0010
,
0100
0000
1000
0000
0010
0000
1000
0000
0001
0000
0010
0100
0000
1000
0010
0000
,
0100
0000
0010
1000
0100
0000
0010
0001
1000
0000
0100
0000
0010
0000
0100
0000
,
0010
0000
0001
0100
0010
0000
1000
0100
0010
0000
0001
0000
1000
0000
0010
0000
,
0100
0000
0000
0000
0000
0000
0001
0000
1000
0000
0001
0000
0100
0000
0000
0001
0000
0000
1000
0000
0000
0100
0000
0000
0010
0000
0000
0001
0000
0000
0100
0000
0000
0001
0000
0000
1000
0000
0000
0100
0000
0000
0010
0000
0000
0001
0000
0000
,
1000
0000
0100
0000
0010
0000
0001
0100
0010
0000
1000
0010
0000
1000
0001
0000
,
1000
0000
0100
0010
0100
0000
1000
0000
0010
0000
0100
0010
0100
0000
0001
0100
,
0001
0000
0010
0000
0001
0000
0010
0000
0100
0000
1000
0010
0000
0010
1000
0000
,
0001
0000
0010
0100
1000
0001
1000
0000
0010
0000
0100
0001
0010
0000
0010
0001
,
1000
0000
0100
0000
1000
0000
0010
0000
0100
0000
0001
0010
0000
0001
0010
0000
,
0100
0000
1000
0010
1000
0000
0010
1000
0010
0000
0100
0000
0001
0010
0200
0000
,
0000
0000
1300
0000
0010
0000
1000
0000
1000
0000
0001
0000
0010
0000
0001
0010
,
0001
0000
0001
0010
0100
0000
1000
0010
0100
0000
0001
0000
0010
0001
0010
0000
,
0000
0000
0001
0000
0010
0000
0010
0000
0100
0000
1000
0000
0001
0100
0010
1000
,
0001
0100
0001
0100
0001
1000
0100
0000
1000
0000
0100
0010
0001
0000
1000
0010
,
0100
0000
0001
0000
0010
0000
0100
0000
0010
0000
0001
1000
0000
0010
0100
0000
,
0001
0000
0010
0000
0001
1000
0100
0000
0010
0000
0001
1000
0100
0000
0010
0001
,
0100
0000
0010
0000
1000
0000
0001
0000
0010
0000
0001
0010
0000
0001
1000
0000
,
0010
0000
1000
0001
0100
0000
0001
1000
0100
0000
M100
0000
0100
0000
0100
0000
,
1001
0000
0001
1000
0001
0000
1000
0100
0010
0000
0M10
0000
0010
0000
0010
0000
,
1001
0000
0010
1000
0010
1000
0010
1000
0001
0000
0010
0001
0010
0001
0010
0100
,
2000
0000
0000
0000
0000
0000
3001
0100
0010
0000
0000
1000
0000
0000
0001
0000
,
1001
0000
0000
0110
0000
0000
1001
0000
,
0001
0010
0001
0000
0000
0000
1000
0000
2100
0000
0000
0000
0000
0000
0000
0000
,
0000
0100
0001
0000
,
0010
0000
0010
0000
0010
0000
0000
0000
3001
0000
0000
0000
0010
1000
0001
0010
,
0100
0000
0000
0000
0000
0000
1100
0000
0100
1000
0100
0000
1001
0000
0001
0100
,
0001
0011
0000
0010
0002
0000
0000
0000
,
0000
0100
1000
0000
,
0100
0000
0100
0000
0100
0000
0000
0000
1003
0000
0001
0000
0100
0010
0100
0010
,
1000
0000
1001
1000
0010
0000
1100
0000
,
0010
0001
0101
0000
1000
0000
0101
0000
,
0010
1010
0001
1100
,
0010
0000
0000
0000
1100
0000
0000
0000
0001
0000
0000
0000
1000
0100
0010
0001
,
1000
0100
0100
1000
0010
0010
0100
0001
,
0001
0000
0010
0000
0100
0000
0100
0010
0001
0000
0000
0000
1001
0000
0000
0000
,
0100
0000
0000
0000
1001
0000
0000
0000
0010
0000
0000
0000
1000
0010
0100
0001
,
0100
0001
0010
0100
1000
0100
0020
0000
,
0001
0000
0000
0000
1000
0000
0000
0000
0031
0000
0000
0000
1000
0010
0100
0001
,
0100
0001
0010
0001
0100
0010
0200
0000
,
0001
0000
0000
0000
1000
0000
0000
0000
0301
0000
0000
0000
1000
0100
0010
0001
,
1000
0010
0100
0001
0010
0001
2000
0000
,
0010
3200
0001
0320
,
0001
0000
0000
0000
0230
0000
1300
0010
0100
0001
0100
0001
2000
0000
0000
0000
,
3001
0000
0000
0000
0101
0000
0000
0000
0010
0000
0000
0000
1000
0100
0010
0001
,
1000
0010
1000
0001
0010
0100
0020
0000
,
0001
0000
0100
0000
0031
0010
0100
1000
,
0100
1000
0001
0010
0100
1000
0100
0010
0001
0100
0010
1000
,
0001
0000
1000
0001
0010
0000
0000
0000
0100
1000
0001
0000
0000
0000
0100
0010
,
1000
0000
0000
0000
0001
0010
0100
0000
1000
0000
1001
0000
0000
0000
0000
0000
,
0000
0000
1000
0001
0100
0000
0000
0000
0010
1000
0001
0000
0000
0000
0010
0100
,
1000
0000
0000
0000
0001
0100
0010
0000
1000
0000
1001
0000
0000
0000
0000
0000
,
0001
0100
0001
0100
0001
0100
0001
0100
0001
0100
0001
0100
0001
0100
0001
0100
,
0001
0100
0001
0100
0001
0100
0001
0100
4000
0000
0000
0000
0000
0000
0000
0000
,
3000
0000
0000
0000
,
1000
0100
0010
1000
0100
0010
0001
0100
0010
0001
1000
0100
,
0010
0000
1000
0000
0001
0000
1000
0000
0001
1000
0001
1000
0001
0000
1000
0010
,
0100
0000
0010
0000
0100
0000
0010
0000
0100
0010
0100
0000
0010
0100
0010
0100
,
0010
0000
1000
0000
0010
0000
1000
0000
0010
0000
1000
0000
0010
0000
1000
0010
,
1000
0010
1000
0000
0010
1000
0010
1000
0100
0000
0000
0000
0011
0000
0000
0000
,
1000
0001
1000
0001
1000
0000
0001
0000
1000
0001
1000
0000
0001
0000
0010
0001
,
0010
0000
0001
0000
0010
0000
0001
0000
0010
0001
0010
0000
0001
0010
0001
0010
,
0100
0000
1000
0000
0100
0010
0001
0000
0100
0000
0001
0010
0100
0000
1000
0010
,
0100
0000
0001
0000
0010
0000
0100
0000
MMMM
0000
MMMM
0000
0100
0010
0100
0010
,
4000
0000
3000
0000
0000
0000
0001
0000
0000
0000
1000
0001
0000
0000
0000
0000
1000
0000
0001
0000
1000
0000
0001
0000
1000
0000
0000
0000
0004
0000
0000
0000
,
4003
3000
0001
1000
0001
0000
1000
0000
0004
0003
4000
3000
0004
0000
0000
0000
,
1003
0000
0004
0000
4003
3000
0001
1000
0001
1000
0004
0000
0003
0000
4000
0000
,
3001
0000
0000
0000
1000
0001
1000
0001
1000
0001
1000
0001
1000
0001
1000
0000
,
0010
0000
0100
0000
0001
0010
0100
0000
1000
0000
0010
0000
0100
0000
0001
0010
,
0001
0000
1000
0000
0100
0000
1000
0000
0010
0100
0001
0000
0100
0010
1000
0010
,
1000
0000
0001
0000
1000
0000
0001
0000
0010
0000
0001
0000
0010
0000
0001
0010
,
0100
0000
1000
0000
0100
0000
1000
0010
0100
0000
0010
0100
0001
0100
0001
0000
,
0010
0001
0010
0001
0010
0001
0010
0001
0010
0001
0010
0001
0010
0001
0010
0001
,
0040
0000
0130
1000
0100
0000
1000
0001
4000
0000
0000
0000
3010
1000
0010
1000
,
0010
1000
0010
1000
0010
1000
0010
1000
0010
1000
0010
1000
0010
1000
0010
1000
,
0010
1000
0010
1000
0010
1000
0010
1000
0001
0000
0010
0000
0100
0000
1000
0000
,
1001
0000
0100
0000
1001
0000
1000
0001
1000
0000
1001
0000
0001
0000
0101
0000
,
0100
0001
0100
0001
0100
0000
0001
0100
0001
0100
0001
0000
0010
0000
0100
0000
,
1001
0000
0010
0000
1001
0000
1000
0001
1000
0000
0100
1000
0100
0000
1100
0000
,
0000
0000
1001
0000
0001
1000
0100
0010
0001
1000
0001
1000
0004
0000
0000
0000
,
0013
0001
0010
0000
0011
0000
1000
0010
1000
0000
1010
0000
0001
0100
0001
0000
,
0101
0000
1000
0100
1000
0000
1100
0000
0100
1000
0001
0000
1001
0000
0100
0010
,
1000
0000
1010
0000
0010
1000
0100
0000
1100
0000
0010
0001
0100
0000
0101
0000
,
0000
0000
0000
0000
,
2002
0000
0000
0000
,
0000
0000
0000
0000
,
0000
0000
0000
0000
,
0000
0000
0000
0000
,
0000
0000
0000
0000
,
0000
0000
0000
0000
,
3003
0000
0000
0000
;
