#TITLE:Lullaby;
#SUBTITLE:;
#ARTIST:D-Charged;
#TITLETRANSLIT:;
#SUBTITLETRANSLIT:;
#ARTISTTRANSLIT:;
#GENRE:;
#CREDIT:Z-Axis;
#MUSIC:Lullaby.mp3;
#BANNER:bn.png;
#BACKGROUND:bg.png;
#CDTITLE:;
#SAMPLESTART:71.347;
#SAMPLELENGTH:12.750;
#SELECTABLE:YES;
#OFFSET:-0.097;
#BPMS:0.000=160.000;
#STOPS:;
#BGCHANGES:;
#FGCHANGES:;

//--------------- dance-single - ----------------
#NOTES:
     dance-single:
     :
     Challenge:
     16:
     0,0,0,0,0:
0000
0000
0000
0000
,
0000
0000
0000
0000
,
0000
0000
0000
0000
,
0000
0000
0000
0000
,
0000
0000
0000
0000
,
0000
0000
0000
0000
,
0000
0000
0000
0000
,
0000
0000
0000
0000
0000
0200
2300
3200
,
0320
0000
0000
0000
0032
0003
0200
0300
,
0020
0000
0000
0000
0230
0300
0020
0030
,
2000
3200
0320
0000
0030
0000
0000
0000
,
0000
0000
0000
0000
0000
0002
0023
0230
,
2300
0000
3000
0000
0020
0030
0200
0300
,
0002
0000
0003
0000
2000
3000
0002
0003
,
0220
0000
0000
0000
,
0000
0000
0000
0330
,
1001
0000
1000
0000
0100
0000
0000
0100
0000
0000
0100
0000
0010
0001
0010
0100
,
0010
0000
0001
0000
0100
0000
0000
0100
0000
0000
0100
0000
0010
1000
0010
0100
,
0001
0000
1000
0000
0001
0000
0000
0010
0000
0000
0001
0000
1000
0000
0010
0100
,
0000
0000
0010
0000
1000
0000
0000
0100
0000
0000
0010
0000
0100
1000
0100
0010
,
0100
0000
0010
0000
0001
0000
0000
1000
0000
0000
0001
0000
1000
0100
1000
0001
,
0100
0000
0010
0000
1000
0000
0000
0001
0000
0000
1000
0000
0010
0100
0001
0100
,
0010
0000
1000
0000
0001
0000
0000
0001
0000
0000
1000
0000
1000
0000
0010
0100
,
0000
0000
0001
0000
0010
0000
0000
0001
0000
0000
1000
0000
0010
1000
0100
0010
,
0001
0000
0010
0000
0010
0000
0100
1000
0000
1000
0100
0000
0010
0001
0010
0100
,
0010
0000
0001
0000
0001
0000
1000
0010
0000
0010
1000
0000
0001
0100
0010
1000
,
0001
0000
1000
0000
1000
0000
0001
0100
0000
0001
1000
0000
0001
0000
1000
0100
,
0000
0000
0100
0000
1000
0000
0001
1000
0000
0010
0100
0000
0100
0001
0010
0100
,
1000
0000
0010
0000
0010
0000
0100
0001
0000
0001
0100
0000
0010
1000
0010
0100
,
0010
0000
1000
0000
0100
0000
0010
0001
0000
0001
0010
0000
0001
0010
0100
1000
,
0100
0000
1000
0000
1000
0000
0001
0100
0000
0001
1000
0000
0001
0000
1000
0100
,
0000
0000
0100
0000
1000
0000
0001
1000
0000
0010
0100
0000
0100
0001
0010
0100
,
1000
0000
1000
0200
2300
3000
2000
3000
,
0201
0000
0001
0000
0301
0000
2001
3000
,
0002
0000
0023
0000
0230
0000
0300
0000
0100
0000
0000
0000
0100
0000
1000
0100
,
1000
0000
0010
0000
0010
0200
0302
0023
,
0230
0000
1300
0000
1002
0003
2010
3000
,
0210
0000
0301
0000
0021
0030
0210
0300
,
1002
0000
1000
0000
0100
0003
0000
0100
,
0010
0000
1001
0000
1000
1000
1100
0110
,
0011
0001
1000
0001
1000
0010
0100
0001
,
0010
0001
0100
0010
1000
0010
0100
0020
,
2030
3100
1000
0001
0010
0100
1000
0010
,
0100
0001
0010
0100
1000
0001
0100
0010
,
1000
0010
1000
0010
0100
0001
0100
0001
0010
0001
0010
0001
1000
0100
1000
0100
,
0010
0001
0010
0001
0100
0001
0100
0001
1000
0010
1000
0010
0100
0001
0100
0001
,
0010
0100
1000
0010
0100
0001
0010
0100
1000
0010
0100
0001
1000
0100
0010
0001
,
1000
0000
1000
0000
1000
0110
1000
0110
,
0101
0000
0010
0000
1010
0000
1000
0100
0000
0100
0010
0000
0100
0010
0001
1000
,
0010
0000
0110
0000
1010
0000
0010
1000
0000
1000
0100
0000
1000
0010
1000
0001
,
0010
0000
0110
0000
1100
0000
0100
0010
0000
0010
0001
0000
1001
0000
1000
0100
,
1000
0000
0011
0000
1001
0000
0001
0100
0000
0001
0100
0000
0010
1000
0100
0010
,
0001
0000
1000
0000
1010
0000
1000
0100
0000
0100
0010
0000
0100
0010
0001
1000
,
0010
0000
0110
0000
1010
0000
0010
1000
0000
1000
0100
0000
1000
0010
1000
0001
,
0010
0000
0110
0000
1100
0000
0100
0010
0000
0010
0001
0000
1001
0000
1000
0100
,
1000
0011
1100
0001
1001
0110
MMMM
0000
,
1100
0000
0010
0000
1010
0000
1000
0100
0000
0100
0010
0000
0100
0010
0001
1000
,
0010
0000
0110
0000
1010
0000
0010
1000
0000
1000
0100
0000
1000
0010
1000
0001
,
0010
0000
0110
0000
1100
0000
0100
0010
0000
0010
0001
0000
1001
0000
1000
0100
,
1000
0000
0011
0000
1001
0000
0001
0100
0000
1000
0100
0000
0010
1000
0100
0010
,
0001
0000
1000
0000
1010
0000
1000
0100
0000
0100
0010
0000
0100
0010
0001
1000
,
0010
0000
0110
0000
1010
0000
0010
1000
0000
1000
0100
0000
1000
0010
1000
0001
,
0010
0000
0110
0000
1100
0000
0100
0010
0000
0010
0001
0000
1001
0000
1000
0100
,
1000
0010
1000
0001
0010
0100
0001
0100
1000
0100
0010
0001
1000
0010
1000
0001
,
0100
0000
0000
0200
0320
0030
2000
3200
,
0320
0000
0030
0000
0000
0000
0002
0003
,
0002
0203
0320
0000
0030
0000
0000
0000
,
0000
0000
0000
0000
0000
0200
0320
2030
,
3200
0000
0300
0000
0020
0030
0002
0003
,
0020
0000
0030
0000
0200
0300
2000
3000
,
0020
0000
0000
0030
2000
0000
0000
0000
,
3002
0000
0000
0000
0000
0000
1003
0100
1000
0000
0010
M000
0010
0000
0001
0000
,
0012
0003
0110
0000
1200
0300
2001
3000
,
2010
0000
0010
3000
0102
0003
2001
3000
,
2000
3020
0230
0301
0100
0010
1000
0001
,
0010
0001
1000
0100
1000
0020
0230
0302
,
0013
0010
0100
0100
1000
1000
0001
0001
,
0100
0010
0100
0010
0100
0010
0100
0010
,
1000
0100
0010
0001
0010
0001
1000
0010
1000
0001
0100
0001
1000
0100
1000
0000
,
MMMM
0000
MMMM
0000
MMMM
0110
0001
1001
,
1100
0000
0100
0001
0000
0100
1000
0000
1001
0000
0001
0100
0000
1000
0100
0000
,
0101
0000
0010
1000
0000
0100
0010
0000
0011
0000
0100
1000
0000
1000
0010
0000
,
0101
0000
0001
0100
0000
0010
1000
0000
1100
0000
0010
0001
0000
1000
0100
1000
,
0010
0000
0100
0001
0000
0010
0001
0000
1001
0000
1000
0100
0010
0000
0010
0001
,
0100
0000
0010
0001
0000
0010
0100
0000
0110
0000
1000
0100
0010
0000
1000
0010
,
0001
0000
0010
0001
0000
1000
0100
0000
1010
0000
0010
0100
0010
0000
0001
0010
,
1000
0000
1000
0100
0000
0010
0001
0000
1001
0000
1000
0100
0000
0010
0001
0000
,
1001
0000
0001
1000
0000
0001
1000
0000
MMMM
0000
0001
0000
0100
0000
1000
0000
,
0101
0100
1100
0100
0101
0001
0011
0010
,
0110
0100
1100
0100
0101
0100
1100
0010
,
0101
0110
1010
0010
0011
0010
1010
0010
,
0110
0000
0001
0000
1001
0000
0001
0200
0000
1300
0200
0000
0310
0001
1000
0000
,
1100
0100
0101
0100
1100
0100
0101
0001
,
0011
0000
0010
0000
0110
0000
0010
0000
1001
0000
0100
0000
1001
0000
0100
0010
,
0200
0000
0000
0000
0300
0000
0000
0000
0022
0000
0000
0000
0033
0000
0100
1000
,
2200
0000
0000
0000
3300
0000
0000
0000
0000
0000
0010
0001
1000
0000
0010
0000
,
0110
0000
0000
0000
;
